#TITLE:Satellite Strike;
#SUBTITLE:;
#ARTIST:Sota Fujimori;
#TITLETRANSLIT:;
#SUBTITLETRANSLIT:;
#ARTISTTRANSLIT:;
#GENRE:;
#CREDIT:;
#MENUCOLOR:;
#METERTYPE:DDR;
#BANNER:Satellite Strike.png;
#BACKGROUND:Satellite Strike-bg.png;
#LYRICSPATH:;
#CDTITLE:cdtitle.png;
#MUSIC:Satellite Strike.mp3;
#OFFSET:-0.044;
#SAMPLESTART:54.715;
#SAMPLELENGTH:12.000;
#SELECTABLE:YES;
#LISTSORT:;
#BPMS:0.000=158.000;
#STOPS:;
#BGCHANGES:;
#ATTACKS:;

//---------------dance-single - ----------------
#NOTES:
     dance-single:
     :
     Hard:
     12:
     0.585,0.550,0.301,0.038,0.117:
0000
0000
0000
0000
,
0000
0000
0000
0000
,
0000
0000
0000
0000
,
0000
0000
0000
0000
,
1000
0100
0010
0100
1000
0000
0001
0001
,
0000
0010
0001
0100
0010
0010
0100
0000
,
1000
0001
0100
0001
0010
0000
0100
0100
,
2000
0000
0001
0000
0001
0000
3001
1000
,
1001
0000
0110
0000
1000
0100
0001
0000
,
0110
0000
1001
0000
0001
0010
1000
0000
,
1100
0000
0011
0000
1000
0010
0001
0000
,
1010
0000
0101
0000
0001
0100
1000
0100
,
0101
0000
1100
0000
0001
1000
0100
0000
,
1100
0000
0101
0000
1000
0001
0010
0000
,
1010
0000
0011
0000
0001
1000
0010
0000
,
2002
0000
0000
0000
0000
0000
0000
0000
3003
0000
0000
0000
1000
0001
1000
0001
,
1000
0010
0100
0001
0010
0100
1000
0100
,
0000
0010
0010
0000
0001
0100
0010
0000
,
0100
0001
0010
1000
0010
0001
0100
0010
,
0000
1000
0100
0001
0000
0100
0100
0000
,
0010
0001
0010
0001
0010
0000
0001
0000
0010
0000
0100
0000
1000
0000
0001
0000
,
0000
0100
0100
0000
0001
1000
0100
0000
,
1000
0100
0001
0100
1000
0001
0100
0001
,
0020
0000
0100
0000
0100
0000
0000
0000
0100
0000
0000
0000
0130
1000
0100
0000
,
0010
0000
0101
0000
0010
1000
0100
1000
,
0000
0001
1000
0100
0000
1000
0001
0010
,
0100
0000
1100
0000
1000
0001
0100
1000
,
0000
0100
0001
0010
0000
0100
1000
0100
,
0010
0000
0110
0000
0100
1000
0001
0100
,
0000
0010
0100
0001
0000
0010
0100
0010
,
1000
0000
0011
0000
1000
0001
0100
0001
,
0000
0000
0010
0000
1000
0000
0010
0000
0000
0000
0001
0000
0100
0010
0100
0010
,
0100
0000
0001
0000
0010
0000
0001
0000
0000
1000
0000
0000
1000
0000
0000
0000
,
0001
0000
1000
0000
0010
0000
1000
0000
0000
0001
0000
0000
0001
0000
0000
0000
,
0100
0000
0001
0000
0010
0000
0100
0000
0000
0010
0000
0000
0010
0000
0000
0000
,
0001
0000
1000
0000
0100
0000
0010
0000
0000
0100
0000
0000
0100
0000
0000
0000
,
1001
0000
1000
0100
0000
0001
0100
1000
,
0000
0001
0100
0001
0000
1000
0100
0000
,
0110
0000
0000
0000
0010
0000
0100
0000
0000
0000
1000
0000
0000
0000
0001
0100
,
0001
1000
0000
1001
0000
0010
0010
0000
,
1100
0000
0001
0100
0000
1000
0100
0001
,
0000
0010
0100
1000
0000
0001
0100
0001
,
1000
0000
0000
0000
0100
0000
0010
0000
0000
0000
0100
0000
0000
0000
1000
0100
,
1000
0001
0000
0110
0000
1000
1000
0000
,
0001
0100
0001
0100
0010
1000
0010
1000
,
0100
0010
0100
1000
0001
0100
0010
0000
,
0100
0000
0001
0000
0010
0000
0110
0000
0000
0000
1001
0000
0000
0000
0010
0100
,
0010
0100
0000
0110
0000
0001
1000
0100
,
0010
0100
1000
0100
0010
0001
0100
0010
,
0100
0001
1000
0001
0010
0100
1000
0000
,
0001
0000
0100
0000
0001
0000
1001
0000
0000
0000
0110
0000
0000
0000
1000
0001
,
1000
0010
0000
1001
0000
0010
1001
0000
,
0010
1000
0100
1000
0000
0010
0100
1000
,
0000
0100
0001
0010
0100
1000
0001
0100
,
0001
0010
0100
1000
0000
0001
0100
0001
,
0000
0010
0100
1000
0100
0010
0001
0100
,
0010
0100
0001
1000
0000
0010
0100
0001
,
0000
0010
0100
1000
0100
0001
0100
1000
,
0010
0100
0001
0010
0000
0100
1000
0001
,
0000
1000
0001
0100
0010
0100
0110
0000
,
1000
0000
0000
0000
0000
0000
0001
0000
0000
0000
1000
0000
0000
0000
0010
0100
,
0000
0100
0000
0001
0000
0010
0100
0100
,
1000
0000
0000
0000
0001
0000
0100
0000
0000
0000
0001
0000
0000
0000
1000
0100
,
0010
0100
0000
1000
0000
0000
0000
0000
,
0001
0000
0000
0000
0000
0000
0100
0000
0000
0000
0010
0000
0000
0000
0100
0001
,
0000
0001
0000
0010
0000
0100
1000
1000
,
0001
0000
0000
0000
1000
0000
0010
0000
0000
0000
0100
0000
0000
0000
0001
1000
,
0100
1000
0000
0001
0000
0000
0000
0000
,
1000
0100
0000
1000
0000
0001
0010
0000
0100
0010
0000
0100
1000
0001
1000
0000
;

//---------------dance-single - ----------------
#NOTES:
     dance-single:
     :
     Medium:
     7:
     0.340,0.420,0.019,0.150,0.009:
0000
0000
0000
0000
,
0000
0000
0000
0000
,
0000
0000
0000
0000
,
0000
0000
0000
0000
,
1000
1000
0001
0001
,
1000
1000
0001
0001
,
0010
0010
0100
0100
,
2002
0000
0000
3003
,
1000
0100
1000
0000
0001
0000
0010
0000
,
0100
0000
1000
1000
,
0001
0100
0001
0000
0010
0000
0100
0000
,
1000
0000
0001
0001
,
1000
0010
0100
0000
0001
0000
0100
0000
,
0010
0000
1000
1000
,
0001
0010
0100
0000
1000
0000
0001
0000
,
2002
0000
0000
0000
3003
0000
0010
0010
,
0010
0000
0100
0000
0001
0010
0001
0000
,
1000
0100
0001
0100
,
1000
0000
0010
0000
0100
0100
0100
0000
,
0001
0010
0100
1000
,
0001
0001
0001
0000
0010
0000
0100
0000
,
1000
0010
0100
0001
,
1000
0000
0010
0000
0100
0100
0100
0000
,
0002
0000
0000
0003
,
1000
1000
0100
0010
,
0001
0001
0100
0000
,
0001
0001
0010
0100
,
1000
1000
0010
0000
,
0010
0010
0100
0001
,
0010
0010
0100
0000
,
1000
1000
0010
0100
,
0001
0001
0010
0000
,
1000
0000
0001
0100
0000
0000
0001
0000
,
0001
0000
1000
0100
0000
0000
1000
0000
,
1000
0000
0001
0010
0000
0000
0001
0000
,
0001
0000
1000
0010
0000
0000
1000
0000
,
0001
0000
0000
1000
0000
0001
0000
1000
,
0000
0010
0000
0010
0000
0000
0000
0000
,
0100
0001
0010
0100
,
1000
1000
1000
0000
,
0010
0000
0000
0100
0000
0001
0000
1000
,
0000
0100
0000
0010
0000
0000
0000
0000
,
0001
1000
0010
0100
,
0001
0001
0001
0000
,
0010
0000
0000
0100
0000
1000
0000
0001
,
0000
1000
0000
0100
0000
0000
0000
0000
,
0001
0100
1000
0100
,
0010
0010
0010
0000
,
0100
0000
0000
0001
0000
0100
0000
0010
,
0000
1000
0000
0100
0000
0000
0000
0000
,
1000
0000
0010
0000
0001
0000
0010
0100
,
0000
0100
0000
0100
0000
0000
0100
0000
,
0002
0000
0010
0013
,
2000
0000
0100
3100
,
0020
0000
0100
0130
,
2000
0000
0010
3010
,
0200
0000
0001
0301
,
0020
0000
0100
0130
,
2000
0000
0001
3001
,
2000
3200
0320
0032
,
1003
0000
0000
0001
0000
0100
0000
1000
,
0000
0100
0000
0001
0000
1000
0100
0000
,
1000
0000
0000
0001
0000
0100
0000
0001
,
0001
0001
0000
1000
0000
0000
0000
0000
,
0010
0000
0000
0100
0000
0001
0000
0010
,
0000
0100
0000
1000
0000
0001
0100
0000
,
1000
0000
0000
0100
0000
0001
0000
0010
,
0010
0010
0000
0100
0000
0000
0000
0000
,
1000
0000
0000
0001
0000
0000
1000
0000
0000
0010
0000
0000
0100
0000
0000
0000
;

//---------------dance-single - ----------------
#NOTES:
     dance-single:
     :
     Easy:
     5:
     0.219,0.288,0.009,0.282,0.000:
0000
0000
0000
0000
,
0000
0000
0000
0000
,
0000
0000
0000
0000
,
0000
0000
0000
0000
,
2000
0000
0000
3000
,
0002
0000
0000
0003
,
0200
0000
0000
0300
,
0020
0000
0000
0030
,
0100
0100
0100
0000
,
0000
0001
0000
1000
,
0010
0010
0010
0000
,
0000
0100
0000
0001
,
1000
1000
1000
0000
,
0000
0100
0000
0010
,
0001
0001
0001
0000
,
0000
1000
1000
1000
,
0020
0000
0130
0100
,
0000
0000
0000
0000
,
2000
0000
3001
0001
,
0000
0100
0000
0100
,
0200
0000
0301
0001
,
0000
0000
0000
0000
,
2000
0000
3001
0001
,
0000
0100
0000
0100
,
0001
1000
0100
0000
,
1000
0001
0100
0000
,
0001
1000
0100
0000
,
2000
0000
0002
3003
,
1000
0001
0100
0000
,
0001
1000
0100
0000
,
1000
0001
0100
0000
,
0001
1000
0100
0000
,
0020
0000
0000
0030
,
0200
0000
0000
0300
,
2000
0000
0000
3000
,
0002
0000
0000
0003
,
1000
1000
1000
0100
,
0010
0010
0010
0001
,
1000
0000
0001
0000
,
1000
0001
1000
0000
,
0001
0001
0001
0100
,
0010
0010
0010
0100
,
0001
0000
1000
0000
,
0100
0010
0100
0000
,
1000
1000
0000
0100
,
0000
0010
0000
0001
,
0000
0100
0000
0001
,
0010
0010
0010
0000
,
1000
1000
0000
0100
,
0000
0010
0000
0001
,
0000
0100
0000
0001
,
0010
0010
0010
0010
,
0200
0000
0000
0300
,
2000
0000
0000
3000
,
0002
0000
0000
0003
,
0020
0000
0000
0030
,
0200
0000
0000
0300
,
0020
0000
0000
0030
,
0002
0000
0000
0003
,
2000
0000
0000
3000
,
0002
0000
0000
0000
,
0200
0000
0303
0000
,
2000
0000
0000
0000
,
0020
0000
3030
0000
,
0002
0000
0000
0000
,
2000
0000
3003
0000
,
2000
0000
0000
0000
,
0002
0000
3003
0000
,
0110
0000
0000
0000
;

//---------------dance-single - ----------------
#NOTES:
     dance-single:
     :
     Beginner:
     2:
     0.118,0.192,0.038,0.075,0.000: // measure 1
0000
0000
0000
0000
,  // measure 2
0000
0000
0000
0000
,  // measure 3
0000
0000
0000
0000
,  // measure 4
0000
0000
0000
0000
,  // measure 5
1000
0000
0000
0000
,  // measure 6
0001
0000
0000
0000
,  // measure 7
1000
0000
0000
0000
,  // measure 8
0001
0000
0000
0000
,  // measure 9
1000
0000
0001
0000
,  // measure 10
1000
0000
0000
0000
,  // measure 11
0001
0000
1000
0000
,  // measure 12
0001
0000
0000
0000
,  // measure 13
1000
0000
0001
0000
,  // measure 14
1000
0000
0000
0000
,  // measure 15
0001
0000
1000
0000
,  // measure 16
0001
0000
0000
0000
,  // measure 17
2000
0000
0000
0000
,  // measure 18
3000
0000
0000
0000
,  // measure 19
0002
0000
0000
0000
,  // measure 20
0003
0000
0000
0000
,  // measure 21
2000
0000
0000
0000
,  // measure 22
3000
0000
0000
0000
,  // measure 23
0002
0000
0000
0000
,  // measure 24
0003
0000
0000
0000
,  // measure 25
0001
0001
0001
0000
,  // measure 26
0000
0000
0000
0000
,  // measure 27
1000
1000
1000
0000
,  // measure 28
0000
0000
0000
0000
,  // measure 29
0001
0001
0001
0000
,  // measure 30
0000
0000
0000
0000
,  // measure 31
1000
1000
1000
0000
,  // measure 32
0000
0000
0000
0000
,  // measure 33
1001
0000
0000
0000
,  // measure 34
0000
0000
0000
0000
,  // measure 35
0000
0000
0000
0000
,  // measure 36
0000
0000
0000
0000
,  // measure 37
0001
0000
0001
0000
,  // measure 38
1000
0000
1000
0000
,  // measure 39
0001
0000
1000
0000
,  // measure 40
0001
0001
0001
0000
,  // measure 41
1000
0000
1000
0000
,  // measure 42
0001
0000
0001
0000
,  // measure 43
1000
0000
0001
0000
,  // measure 44
1000
1000
1000
0000
,  // measure 45
0001
0000
1000
0000
,  // measure 46
0001
0000
1000
0000
,  // measure 47
0001
0000
1000
0000
,  // measure 48
0001
0001
0001
0000
,  // measure 49
1000
0000
0001
0000
,  // measure 50
1000
0000
0001
0000
,  // measure 51
1000
0000
0001
0000
,  // measure 52
1000
1000
1000
0000
,  // measure 53
0002
0000
0000
0000
,  // measure 54
0003
0000
0000
0000
,  // measure 55
2000
0000
0000
0000
,  // measure 56
3000
0000
0000
0000
,  // measure 57
0002
0000
0000
0000
,  // measure 58
0003
0000
0000
0000
,  // measure 59
2000
0000
0000
0000
,  // measure 60
3000
0000
0000
0000
,  // measure 61
1001
0000
0000
0000
,  // measure 62
0000
0000
0000
0000
,  // measure 63
0000
0000
0000
0000
,  // measure 64
0000
0000
0000
0000
,  // measure 65
1001
0000
0000
0000
,  // measure 66
0000
0000
0000
0000
,  // measure 67
0000
0000
0000
0000
,  // measure 68
0000
0000
0000
0000
,  // measure 69
1001
0000
0000
0000
;
