#TITLE:Sabay-Sabay Tayo;
#SUBTITLE:;
#ARTIST:Marian Rivera;
#TITLETRANSLIT:;
#SUBTITLETRANSLIT:;
#ARTISTTRANSLIT:;
#GENRE:;
#CREDIT:;
#MENUCOLOR:;
#METERTYPE:DDR;
#BANNER:Sabay-Sabay Tayo.png;
#BACKGROUND:Sabay-Sabay Tayo-bg.png;
#LYRICSPATH:;
#CDTITLE:cdtitle.png;
#MUSIC:Sabay-Sabay Tayo.mp3;
#OFFSET:-0.040;
#SAMPLESTART:73.078;
#SAMPLELENGTH:12.000;
#SELECTABLE:YES;
#LISTSORT:;
#BPMS:0.000=138.000;
#STOPS:;
#BGCHANGES:;
#ATTACKS:;

//---------------dance-single - ----------------
#NOTES:
     dance-single:
     :
     Hard:
     10:
     0.480,0.438,0.171,0.099,0.000:
0000
0000
0000
0000
,
0000
0000
0000
0000
,
0000
0000
0000
0000
,
0000
0000
0000
0000
,
0000
0000
0000
0000
,
0000
0000
0000
0000
,
1000
0000
1100
0000
0001
0010
0100
0000
,
1000
0010
0100
0010
2000
0000
3002
0000
,
1003
0000
0101
0000
0001
1000
0100
0000
,
1000
0010
0010
0100
0001
0001
0010
0000
,
0100
1000
0100
0010
0000
0001
0100
0001
,
0000
1000
0100
0010
0000
0001
0100
0001
,
0200
0000
0310
0000
0001
0001
1000
0001
,
0000
1000
0001
0000
0110
0000
1001
0000
,
0001
0100
1000
0100
0000
0001
0100
0001
,
0010
0100
1000
0000
0100
0100
0010
0100
,
0000
1000
0010
0000
0100
0001
0010
0000
,
0001
1000
1000
0001
0100
0010
1000
0000
,
0001
0100
0010
0100
0001
0100
0010
0100
,
0001
0001
0010
0010
0100
1000
0000
1000
,
0001
0100
1000
0100
0001
0100
1000
0100
,
0001
0001
1000
0010
0010
0100
0000
0000
,
0010
0001
0010
1000
0010
0001
0010
1000
,
0100
1000
0010
0100
0100
0010
2000
0001
,
0000
0001
3001
0000
0001
0000
1001
0000
,
1000
0010
0100
0001
0010
0010
0100
0000
,
1000
0100
1000
0001
0000
0100
0001
0100
,
0000
0010
0100
0010
0000
1000
0001
0100
,
0010
0000
0110
0000
0001
1000
1000
0001
,
0000
1000
0010
0000
0110
0000
0101
0000
,
0001
0010
0100
1000
0000
0100
0010
0001
,
0100
0001
1000
0000
0010
0100
0001
0100
,
0000
0010
1000
0000
0100
0001
0100
0000
,
1000
0010
0010
0100
0001
0001
0010
0000
,
0100
1000
1000
0100
1000
1000
0010
0100
,
0001
0100
0010
1000
0100
0010
0000
0010
,
0001
0010
0010
0001
0010
0010
0001
0100
,
0010
1000
0100
0001
0100
1000
0000
0000
,
0001
0100
0100
0001
0100
0100
0010
1000
,
0100
0010
0100
1000
0001
0100
0001
0020
,
0000
0100
0130
0000
1000
0100
0001
0100
,
1000
0010
0001
0100
,
1001
2002
0000
3003
,
0001
0100
0010
0100
0001
0000
1000
0010
,
0100
0010
1000
0000
0001
1000
0001
1000
,
0000
0001
0100
0001
0010
0000
0100
1000
,
0010
1000
0100
0100
0010
0000
0110
0000
,
1001
0001
0100
0010
0100
0000
0010
1000
,
0100
0010
0100
0000
1000
0001
1000
0001
,
0000
1000
0100
0010
0100
0000
1000
0001
,
0010
0100
0010
0000
0001
1000
1001
0000
,
0001
0010
0001
0010
0100
1000
0100
1000
,
0010
0100
0001
0100
0010
0100
0000
0000
,
0010
1000
0010
1000
0001
0100
0001
0100
,
0001
0010
0100
1000
0100
0010
0000
0010
,
0001
1000
0001
1000
0010
0100
0010
0100
,
0001
0010
0001
0010
0100
1000
0010
1000
,
0000
0001
1000
0100
0000
0010
0001
1000
,
0001
1010
0101
1001
,
0110
0220
0000
0330
,
2002
0000
0000
0000
,
3003
0000
0000
0000
;

//---------------dance-single - ----------------
#NOTES:
     dance-single:
     :
     Medium:
     7:
     0.346,0.356,0.153,0.215,0.000:
0000
0000
0000
0000
,
0000
0000
0000
0000
,
0000
0000
0000
0000
,
0000
0000
0000
0000
,
0000
0000
0000
0000
,
0000
0000
0000
0000
,
1000
0000
0001
0000
1000
0001
0100
0000
,
0010
0100
0100
0110
,
0001
0000
1000
0000
0001
1000
0100
0000
,
0010
0110
0100
0110
,
0001
0100
0010
0010
,
1000
0100
0010
0010
,
0002
0000
0000
0000
0000
1000
1000
1003
,
0000
0001
1000
1001
,
1000
0010
0100
0010
,
1000
0001
0100
0001
,
0020
0000
0000
0000
0000
0100
0100
0130
,
0000
0010
0100
0110
,
1000
0001
1000
0001
,
0100
0000
0010
0000
0100
0100
0000
0000
,
0001
0010
0100
1000
,
0010
0000
0100
0000
0001
0001
0000
0000
,
1000
0100
0001
0100
,
1000
0000
0010
0000
0001
0000
0020
0200
,
0000
0000
0000
0330
0000
0001
0000
2000
,
0002
0000
3003
1001
,
0010
0100
0001
1000
,
0100
0000
0010
0000
0001
0000
0100
0001
,
0200
0000
0000
0000
0000
0010
0010
0310
,
0000
1000
1000
0000
0001
0000
1100
0000
,
0001
1000
0001
0100
,
0010
0000
0010
0000
0100
0000
0001
0200
,
0000
0000
0000
0000
0000
0010
0010
0310
,
0000
0100
0100
0000
0010
0000
1001
0000
,
0001
0000
1000
0000
0001
0100
0001
0000
,
1000
0000
0100
0000
0010
0010
0000
0000
,
1000
0000
0010
0000
0100
0001
0100
0000
,
0010
0000
1000
0000
0001
0001
0000
0000
,
0100
0100
0010
0010
,
1000
0001
1000
0000
0001
1000
0002
2000
,
0000
0000
0000
3003
0000
0001
0000
0020
,
0200
0000
0330
1001
,
0001
1000
0001
1000
0001
0000
1000
0000
,
0101
0000
0010
0010
0000
0100
0100
0000
,
0001
1000
0100
0000
1000
0000
0101
0000
,
0010
0000
0100
0001
0000
1000
0100
0000
,
1000
0010
0100
0000
0010
0000
0110
0000
,
0001
0000
1000
1000
0000
0001
0001
0000
,
1000
0001
1000
0000
0010
0000
0101
0000
,
0010
0000
0100
0100
0000
0001
0001
0000
,
1000
0010
1000
0000
0001
0000
0101
0000
,
0002
1003
2000
3001
,
0001
0100
0100
0000
0010
0010
0000
0000
,
2000
3010
0200
0301
,
0010
0100
0100
0000
1000
1000
0000
0000
,
0002
0103
0020
1030
,
0001
0100
0100
0000
0010
0010
0200
0020
,
0000
0000
0000
0330
0000
1000
0002
2000
,
0000
0000
3003
1001
,
1000
0001
1000
0001
1000
0000
0110
0000
,
2002
0000
0000
0000
,
3003
0000
0000
0000
;

//---------------dance-single - ----------------
#NOTES:
     dance-single:
     :
     Easy:
     4:
     0.210,0.246,0.018,0.126,0.000: // measure 1
0000
0000
0000
0000
,  // measure 2
0000
0000
0000
0000
,  // measure 3
0000
0000
0000
0000
,  // measure 4
0000
0000
0000
0000
,  // measure 5
0000
0000
0000
0000
,  // measure 6
0000
0000
0000
0000
,  // measure 7
1000
0001
0100
0000
,  // measure 8
0001
1000
0100
0000
,  // measure 9
1000
0000
0010
0000
,  // measure 10
0100
0001
0010
0000
,  // measure 11
0100
0000
0100
0000
,  // measure 12
0100
0000
0100
0000
,  // measure 13
1000
0010
0100
0000
,  // measure 14
0001
0100
0010
0010
,  // measure 15
0100
0000
0001
0000
,  // measure 16
1000
0000
0010
0000
,  // measure 17
0100
0001
0010
0000
,  // measure 18
0100
1000
0010
0010
,  // measure 19
0100
0000
0001
0000
,  // measure 20
1000
0001
0010
0100
,  // measure 21
1000
0000
0001
0000
,  // measure 22
0100
0010
1000
0001
,  // measure 23
0010
0000
0100
0000
,  // measure 24
1000
0100
0001
0100
,  // measure 25
2000
0000
3001
0000
,  // measure 26
0002
0000
1003
0000
,  // measure 27
0010
1000
0100
0000
,  // measure 28
0010
0001
0100
0000
,  // measure 29
0001
0100
1000
0000
,  // measure 30
1000
0100
0001
0001
,  // measure 31
0010
1000
0100
0000
,  // measure 32
0010
0001
0100
0000
,  // measure 33
0001
0000
1000
0000
,  // measure 34
0001
1000
0100
0010
,  // measure 35
0100
0000
0100
0000
,  // measure 36
0100
1000
0100
0010
,  // measure 37
0001
0000
0001
0000
,  // measure 38
0100
0010
1000
0010
,  // measure 39
0100
0000
0100
0000
,  // measure 40
0001
0010
0100
1000
,  // measure 41
0002
0000
1003
0000
,  // measure 42
2000
0000
3001
0000
,  // measure 43
0010
0010
0000
0000
,  // measure 44
0100
0001
0010
0000
,  // measure 45
0100
1000
0010
0000
,  // measure 46
1000
0000
0001
0000
,  // measure 47
1000
0001
0010
0000
,  // measure 48
0100
1000
0010
0000
,  // measure 49
0100
0001
0010
0000
,  // measure 50
0001
1000
0100
0000
,  // measure 51
1000
0001
0100
0001
,  // measure 52
2000
3000
0002
0003
,  // measure 53
1000
0001
1000
0000
,  // measure 54
2000
3000
0020
0030
,  // measure 55
0100
0001
0010
0000
,  // measure 56
0200
0300
2000
3000
,  // measure 57
0100
1000
0001
0100
,  // measure 58
0020
0000
0030
0000
,  // measure 59
0200
0000
0300
0000
,  // measure 60
1001
0000
0000
0000
,  // measure 61
0220
0000
0000
0000
,  // measure 62
0330
0000
0000
0000
;

//---------------dance-single - ----------------
#NOTES:
     dance-single:
     :
     Beginner:
     1:
     0.073,0.108,0.009,0.027,0.000:
0000
0000
0000
0000
,
0000
0000
0000
0000
,
0000
0000
0000
0000
,
0000
0000
0000
0000
,
0000
0000
0000
0000
,
0000
0000
0000
0000
,
1000
0000
0000
0000
,
0001
0000
0000
0000
,
0100
0000
0000
0000
,
0000
0000
0000
0000
,
1000
0000
0000
0000
,
1000
0000
0000
0000
,
0001
0000
0000
0000
,
0001
0000
0000
0000
,
0010
0000
0000
0000
,
0010
0000
0000
0000
,
0100
0000
0000
0000
,
0000
0000
0000
0000
,
0001
0000
0100
0000
,
1000
0000
0000
0000
,
0000
0000
0000
0000
,
0010
0000
0000
0000
,
1000
0000
0100
0000
,
0001
0000
0000
0000
,
0000
0000
0000
0000
,
0020
0000
0030
0000
,
1000
0000
0000
0000
,
0010
0000
0000
0000
,
0100
0000
0000
0000
,
0001
0000
0000
0000
,
0010
0000
0000
0000
,
0100
0000
0000
0000
,
1000
0000
0000
0000
,
0000
0000
0000
0000
,
0100
0000
0000
0000
,
0010
0000
0000
0000
,
1000
0000
0000
0000
,
0000
0000
0000
0000
,
0100
0000
0000
0000
,
0001
0000
0000
0000
,
0010
0000
0000
0000
,
0200
0000
0300
0000
,
0000
0000
0000
0000
,
1000
0000
1000
0000
,
0001
0000
0000
0000
,
0001
0000
0001
0000
,
1000
0000
0000
0000
,
0010
0000
0010
0000
,
0100
0000
0000
0000
,
0100
0000
0100
0000
,
0010
0000
0000
0000
,
1000
0000
0000
0000
,
0001
0000
0000
0000
,
1000
0000
0000
0000
,
0001
0000
0000
0000
,
1000
0000
0000
0000
,
0010
0000
0000
0000
,
0100
0000
0000
0000
,
0020
0000
0030
0000
,
0000
0000
0000
0000
,
1001
0000
0000
0000
;
