#TITLE:SP-TRIP MACHINE (for beatmania II);
#SUBTITLE:;
#ARTIST:dj TAKA feat.DE-SIRE;
#TITLETRANSLIT:;
#SUBTITLETRANSLIT:;
#ARTISTTRANSLIT:;
#GENRE:;
#CREDIT:;
#MENUCOLOR:;
#METERTYPE:DDR;
#BANNER:SP-TRIP MACHINE (for beatmania II).png;
#BACKGROUND:SP-TRIP MACHINE (for beatmania II)-bg.png;
#LYRICSPATH:;
#CDTITLE:cdtitle.png;
#MUSIC:SP-TRIP MACHINE (for beatmania II).mp3;
#OFFSET:-0.696;
#SAMPLESTART:59.193;
#SAMPLELENGTH:11.960;
#SELECTABLE:YES;
#LISTSORT:;
#BPMS:0.000=168.103;
#STOPS:;
#BGCHANGES:;
#ATTACKS:;

//---------------dance-single - ----------------
#NOTES:
     dance-single:
     :
     Hard:
     11:
     0.529,0.511,0.518,0.055,0.000: // measure 1
0000
0000
0000
0000
,  // measure 2
0000
0000
0000
0000
,  // measure 3
0000
0000
0000
0000
,  // measure 4
0000
0000
0000
0000
,  // measure 5
0000
0000
0000
0000
,  // measure 6
0000
0000
0000
0000
,  // measure 7
0100
0000
0100
0000
0100
1000
0001
0000
,  // measure 8
0010
0000
0010
0000
0010
0001
1000
0000
,  // measure 9
0010
1000
0001
0100
0000
0000
0001
0001
,  // measure 10
1000
0000
0101
0000
0001
0010
0100
1000
,  // measure 11
0000
0001
0000
1000
0010
0100
0010
1000
,  // measure 12
0000
0001
0001
0000
0000
1000
0000
0010
,  // measure 13
0000
0101
0000
0010
1000
0001
0100
0001
,  // measure 14
1000
0000
0110
0000
0000
0010
1000
0100
,  // measure 15
0000
0000
1000
0100
0001
0100
1000
0010
,  // measure 16
0000
0100
0100
0000
0000
0001
0000
1010
,  // measure 17
0000
1000
0000
0001
0010
0100
0010
0001
,  // measure 18
0100
0100
0100
0001
0000
1000
0100
1000
,  // measure 19
0000
1000
0100
0010
0001
0100
0001
1000
,  // measure 20
0000
0100
0100
0000
0000
0010
0000
1010
,  // measure 21
0000
0100
0000
0101
0001
0010
0100
1000
,  // measure 22
0200
0000
0310
0000
0000
0001
0100
1000
,  // measure 23
0000
0000
0100
0001
0010
0100
1000
0100
,  // measure 24
0000
0010
0010
0000
0000
1100
0000
0001
,  // measure 25
0000
0101
0000
0010
1000
0100
1001
0000
,  // measure 26
0010
0010
1000
0100
0100
0010
0001
0000
,  // measure 27
0100
0010
0100
0001
0000
1100
0000
0001
,  // measure 28
1000
0010
0100
0100
0100
0010
1000
0000
,  // measure 29
0001
1000
0000
0001
0100
0010
1000
0000
,  // measure 30
0010
0010
1010
0000
0000
1000
0000
0001
,  // measure 31
0000
1000
0010
0100
0000
0001
0010
0100
,  // measure 32
1001
0000
0110
0000
0000
1000
0010
0100
,  // measure 33
2002
0000
0000
3003
0010
0010
0100
0001
,  // measure 34
0010
0100
1000
0000
0101
0000
0000
0000
,  // measure 35
0000
1100
0000
0101
0000
0010
0110
0000
,  // measure 36
1000
0010
0100
0000
0101
0000
0000
0110
,  // measure 37
0000
1010
0000
0101
0000
0001
1001
0000
,  // measure 38
0010
0100
0001
0000
1100
0000
0000
0000
,  // measure 39
0000
0101
0000
1100
0000
0010
0110
0000
,  // measure 40
0001
1000
0100
0000
0101
0000
0000
0110
,  // measure 41
0000
1010
0000
1001
0000
0100
0101
0000
,  // measure 42
0010
1000
0100
0001
0000
0001
0100
1000
,  // measure 43
0010
0000
0000
0100
0001
0001
0100
0001
,  // measure 44
0000
1010
1010
0000
0001
0010
0100
0000
,  // measure 45
1000
0010
0100
0000
0101
0000
1100
0000
,  // measure 46
0110
0000
1001
0000
1000
0001
0100
1000
,  // measure 47
0000
1000
0100
0001
0100
0001
1000
0010
,  // measure 48
0000
0100
0100
0000
0110
0000
1001
0000
,  // measure 49
0001
0010
0100
1000
0001
0001
1000
1000
,  // measure 50
0010
1000
0100
0000
1000
0001
0100
0000
,  // measure 51
0110
0000
1001
0000
0001
0010
0100
0000
,  // measure 52
1000
0100
0100
1000
0010
0010
1000
0001
,  // measure 53
0001
1000
0100
0010
0001
0010
0100
1000
,  // measure 54
1001
0000
0110
0000
1000
0010
0100
0001
,  // measure 55
0000
0010
0100
1000
0000
0001
1000
0100
,  // measure 56
0000
1000
0001
0100
0010
0010
0000
1000
,  // measure 57
0100
0011
0000
0010
0000
0110
1000
0001
,  // measure 58
0000
2002
0000
0000
0000
0000
0000
0000
,  // measure 59
3003
0000
0000
0000
;

//---------------dance-single - ----------------
#NOTES:
     dance-single:
     :
     Medium:
     8:
     0.328,0.378,0.154,0.000,0.000:
0000
0000
0000
0000
,
0000
0000
0000
0000
,
0000
0000
0000
0000
,
0000
0000
0000
0000
,
0000
0000
0000
0000
,
1001
0000
0000
0110
0000
0000
0000
0000
,
0000
0000
0000
0000
,
1001
0000
0000
0110
0000
0000
0000
0000
,
0001
0000
0001
1000
0000
0000
1000
0000
,
0010
0000
0010
0000
0000
0100
0000
0100
,
0000
0000
0001
0000
1000
0100
0010
0000
,
0000
0001
1000
0000
0010
0000
0100
0000
,
0001
0000
0001
0000
0001
0010
0100
0000
,
1000
0000
0010
0000
0000
1000
0000
0010
,
0000
0000
0100
0000
0001
0010
0100
0000
,
1000
1000
0001
0001
,
1000
0000
0010
0000
0100
0001
0100
0000
,
0010
0000
0010
0000
0000
0100
0000
0100
,
0000
0010
1000
0000
0001
0100
0001
0000
,
1000
0100
0010
0001
,
1000
0010
0100
0001
,
1000
0000
0001
0000
0000
1000
0000
0001
,
0000
0010
0100
0000
1000
0100
0010
0000
,
0001
1001
1000
1001
,
0001
1000
0010
0000
1000
0001
0100
0000
,
0010
0000
0000
0100
0000
0000
0001
0000
,
0000
1000
0000
0000
0010
0000
1000
0000
,
0100
0010
0001
1000
,
0001
0010
0100
1000
,
0001
0000
0000
1000
0000
0000
0001
0000
,
0000
1000
0000
0000
0010
0000
0010
0000
,
0100
0001
0010
0100
,
1001
0000
0100
0100
,
0100
0010
1000
0000
,
0000
0001
0000
1000
0000
0001
0000
0000
,
0100
0000
0010
0000
0100
0000
0000
0010
,
0000
1000
0000
0001
0000
1000
0000
0000
,
0010
1000
0100
0000
,
0000
0010
0000
0001
0000
0100
0000
0000
,
0010
0000
1000
0000
0100
0000
0000
1000
,
0000
0010
0000
0100
0000
0001
0000
0000
,
1001
0110
0000
0010
,
0100
0010
0100
0001
,
1000
0000
0001
0010
0100
1000
0000
0000
,
0001
1000
0010
0100
,
0001
0000
1000
0100
0010
0001
0000
0000
,
1000
0010
0100
0001
,
0010
0000
0100
1000
0001
0010
0000
0000
,
0100
1000
0010
0100
,
0001
0000
0000
1000
0000
0000
0001
0000
,
0000
1000
0010
0100
,
0010
0000
0000
0100
0000
0000
0001
0000
,
1000
0001
1001
1001
,
0010
0000
0000
0100
0000
0000
0010
0000
,
0000
1000
0001
0100
,
0010
0000
0000
1000
0000
0100
0010
0100
,
0000
1000
0000
1001
0000
0110
0000
0100
,
0000
1001
0000
0000
0000
0000
0000
0000
;

//---------------dance-single - ----------------
#NOTES:
     dance-single:
     :
     Easy:
     6:
     0.236,0.315,0.066,0.055,0.000:
0000
0000
0000
0000
,
0000
0000
0000
0000
,
0000
0000
0000
0000
,
0000
0000
0000
0000
,
0000
0000
0000
0000
,
0000
0000
0000
0000
,
0000
0000
0000
0000
,
0000
0000
0000
0000
,
0002
0000
0000
1003
,
0010
0010
0100
0001
,
0010
0010
0100
1000
,
0000
0001
1000
0001
,
1000
0010
0100
0001
,
2002
3003
0000
0010
,
1000
0010
0100
0001
,
0010
0010
0000
0010
,
0001
1000
0010
0100
,
0001
0010
0000
0100
,
1000
0001
0100
0001
,
0000
1001
0000
0010
,
0100
0001
0010
0100
,
1000
0100
0000
0010
,
0001
1000
0001
1000
,
0010
0100
0000
0001
,
0100
0010
1000
0100
,
0010
0001
0000
1000
,
0000
0100
0010
0001
,
0010
0100
0000
1000
,
0000
0100
0000
0010
,
0001
0010
0000
0100
,
0000
1000
0000
0010
,
0100
0001
0000
1000
,
0220
0000
0000
0330
,
0010
0010
1000
0000
,
0001
0000
1000
0000
,
0010
0010
0100
0000
,
0001
0000
0100
0000
,
0010
1000
0100
0000
,
0010
0000
0001
0000
,
0010
0100
1000
0000
,
0001
0000
0100
0000
,
0110
0000
0000
0000
,
1001
0000
0010
0010
,
0000
0010
0000
0100
,
0000
0001
0010
0100
,
1000
0001
0000
1000
,
0000
0010
0100
0001
,
0000
1000
0000
0001
,
1000
0001
0010
0100
,
1000
1000
0000
0000
0000
0000
0010
0000
,
0000
0100
0000
0001
,
1000
1000
0000
0000
0000
0000
0010
0000
,
0000
0100
0000
0001
,
0010
0010
0000
0000
0000
0000
0100
0000
,
0000
1000
0000
0001
,
0100
0100
0000
0000
0000
0000
0010
0000
,
0000
1000
0000
0001
,
0000
1001
0000
0000
0000
0000
0000
0000
;

//---------------dance-single - ----------------
#NOTES:
     dance-single:
     :
     Beginner:
     2:
     0.109,0.189,0.022,0.088,0.000:
0000
0000
0000
0000
,
0000
0000
0000
0000
,
0000
0000
0000
0000
,
0000
0000
0000
0000
,
0000
0000
0000
0000
,
0000
0000
0000
0000
,
0000
0000
0000
0000
,
0000
0000
0000
0000
,
0000
0000
0000
0000
,
1000
0000
1000
0000
,
1000
0000
1000
0000
,
0001
0000
0000
0000
,
1000
0000
0000
0000
,
0010
0000
0010
0000
,
0010
0000
0010
0000
,
0100
0000
0000
0000
,
0001
0000
0000
0000
,
0000
0001
0000
1000
,
0000
1000
0000
0000
,
0000
0100
0000
0010
,
0000
0010
0000
0000
,
0001
0000
0000
0000
,
1000
0000
0000
0000
,
0010
0000
0010
0000
,
0100
0000
0000
0000
,
0002
0000
0003
0000
,
2000
0000
3000
0000
,
0020
0000
0030
0000
,
0200
0000
0300
0000
,
0001
0000
0001
0000
,
1000
0000
1000
0000
,
0001
0000
1000
0000
,
1001
0000
0000
0000
,
0010
0000
1000
0000
,
0100
0000
0000
0000
,
0010
0000
0001
0000
,
0100
0000
0000
0000
,
0010
0000
1000
0000
,
0100
0000
0000
0000
,
0010
0000
0001
0000
,
0100
0000
0000
0000
,
0100
0000
0000
0000
,
0100
0000
0000
0000
,
0010
0000
0000
0000
,
0010
0000
0000
0000
,
1000
0000
0000
0000
,
1000
0000
0000
0000
,
0001
0000
0000
0000
,
0001
0000
0000
0000
,
2000
0000
0000
3000
,
0000
0000
0000
0000
,
0002
0000
0000
0003
,
0000
0000
0000
0000
,
0020
0000
0000
0030
,
0000
0000
0000
0000
,
0200
0000
0000
0300
,
0000
0000
0000
0000
,
0000
1001
0000
0000
0000
0000
0000
0000
;
