#TITLE:量子の海のリントヴルム;
#SUBTITLE:;
#ARTIST:黒猫ダンジョン;
#TITLETRANSLIT:Ryoushi no Umi no Lindworm;
#SUBTITLETRANSLIT:;
#ARTISTTRANSLIT:Kuroneko Dungeon;
#GENRE:;
#CREDIT:;
#MENUCOLOR:;
#METERTYPE:DDR;
#BANNER:Ryoushi no Umi no Lindworm.png;
#BACKGROUND:Ryoushi no Umi no Lindworm-bg.png;
#LYRICSPATH:;
#CDTITLE:cdtitle.png;
#MUSIC:Ryoushi no Umi no Lindworm.mp3;
#OFFSET:-0.458;
#SAMPLESTART:71.589;
#SAMPLELENGTH:14.000;
#SELECTABLE:YES;
#LISTSORT:;
#BPMS:0.000=280.000;
#STOPS:;
#BGCHANGES:;
#ATTACKS:;

//---------------dance-single - ----------------
#NOTES:
     dance-single:
     :
     Hard:
     16:
     0.880,0.877,0.221,0.053,0.000:
0000
0000
0000
0000
,
0000
0000
0000
0000
,
0000
0000
0000
0000
,
0000
0000
0000
0000
,
0000
0000
0000
0000
,
0000
0000
1000
0000
0000
0001
0000
1000
,
0000
0010
0000
0000
0100
0000
0001
0000
,
0010
0100
0000
1000
0000
0010
0000
1000
,
0010
0100
0001
0010
0100
1000
0010
0000
,
1000
0010
0000
0100
0001
0000
1000
0000
,
0001
0000
0010
0000
0100
0000
0000
1000
,
0000
0100
0000
0001
0000
0000
0100
0000
,
0010
0000
0100
1000
0000
0001
0000
0100
,
0000
0001
0010
0100
1000
0001
0100
0010
,
1000
0000
0001
1000
0000
0010
1000
0000
,
0001
0100
0010
0110
,
0000
0001
0000
1000
0000
0001
0100
0000
,
0110
0000
0000
0000
1001
0000
0000
0001
,
0000
0010
0000
0100
1000
0000
0110
0000
,
0000
0000
1001
0100
0010
0001
0010
0100
,
1000
0010
0100
0001
0010
0100
1000
0001
,
0100
0010
0000
0010
1000
0010
0100
0001
,
0010
0100
1000
0010
0100
0001
0010
0100
,
1000
0010
0000
0010
0100
0001
0010
0100
,
1000
0010
0100
0001
0100
0010
0100
0001
,
0010
0100
0000
0100
1000
0100
0010
0001
,
0100
0010
0100
0001
0010
0100
1000
0010
,
0100
0000
0001
0000
1000
0100
1000
0000
,
0010
0000
0100
0001
0100
0000
0001
0000
,
0010
0100
0010
0000
0001
0000
1000
0100
,
1000
0000
0001
0000
0100
0010
0100
0000
,
0010
0000
1000
0100
1000
0000
0010
0000
,
0100
0001
0100
0000
0010
0000
1000
0100
,
1000
0000
0001
0010
0000
0001
0000
0101
,
0000
0000
1000
0100
0010
0100
1000
0010
,
0000
0000
0100
0001
0000
0100
0000
0110
,
0000
0000
0010
1000
0100
0010
0100
1000
,
0000
0000
0001
0000
0100
0001
0100
0001
,
0010
0000
0100
0000
1000
0001
1000
0001
,
0100
0000
0010
0000
1000
0100
1000
0100
,
0010
0000
0001
0000
1000
0001
1000
0001
,
0100
0000
0010
0000
1000
0001
1000
0001
,
0010
0000
0100
0000
0010
0100
0010
0100
,
1000
0000
0001
0000
0010
0100
1000
0100
,
0010
0000
0001
0000
1000
0001
0100
0001
,
0010
0000
0100
1000
0001
0100
0001
1000
,
0010
0100
0001
0010
0100
1000
0001
0100
,
0010
0000
0100
0001
0010
0100
1000
0010
,
1000
0100
1000
0001
0100
0001
0000
0001
,
0100
0000
0010
1000
0100
0010
0100
1000
,
0001
0100
0001
0010
0100
1000
0010
0100
,
0001
0000
1000
0100
1000
0001
0010
0100
,
0010
0001
1000
0001
0100
0010
0000
0010
,
1000
0000
0001
0010
0100
0010
0001
0000
,
1000
0100
0010
0100
1000
0001
0000
0001
,
1000
0000
0001
0100
0010
0100
0001
0000
,
1000
0010
0100
0010
1000
0001
0000
0001
,
0100
0000
0000
0010
0100
0000
0010
0001
,
0000
0010
0100
0000
0010
1000
0000
0001
,
0000
1000
0000
0000
0001
0000
0101
0000
,
1100
0000
0001
0100
0010
1000
0001
0000
,
1000
0010
0100
0001
0010
0100
0000
0100
,
1000
0000
0010
1000
0100
1000
0010
0000
,
0100
0001
0010
0100
0010
0001
0000
0001
,
0010
0000
0000
0100
1000
0000
0100
0010
,
0000
0100
0001
0000
0100
0010
0000
0100
,
0000
1000
0000
0000
0010
0000
1100
0000
,
0101
0000
0001
0010
0100
1000
0001
0000
,
1000
0000
0001
0001
0000
0100
0100
0000
,
0010
0010
0000
1000
1000
0000
0001
0001
,
0000
0010
0010
0000
0100
0100
0000
1000
,
1000
0000
0000
0000
,
0000
0000
0000
1000
0001
1000
0001
0000
,
1000
0000
0001
0100
0010
0100
1000
0100
,
0001
0000
0010
0000
0001
0010
0100
1000
,
0010
0100
0001
0010
0100
0000
1000
0001
,
0010
1000
0010
0001
1000
0000
0010
1000
,
0100
0001
0100
1000
0010
1000
0100
0000
,
1000
0000
0001
0100
0001
0010
1000
0010
,
0001
0000
0100
0000
0010
1000
0100
0001
,
0100
0010
0001
0100
0010
0000
0100
0001
,
0010
0100
0010
1000
0001
0000
0100
1000
,
0100
1000
0010
0100
0001
0100
0010
1000
,
0100
0010
0100
1000
,
0100
1000
0010
0100
0010
1000
0001
0010
,
0100
1000
0001
0100
,
0010
0100
0010
0100
0001
1000
0001
1000
,
0100
0010
0001
0100
0000
0100
0001
0100
,
0010
1000
0100
0010
0000
0010
0100
1000
,
0100
0001
0100
1000
0000
1000
0001
0010
,
1000
0010
0100
1000
0100
0001
0100
0010
,
0001
1000
0001
0010
,
0100
1000
0100
0010
0100
1000
0001
0100
,
0010
0100
0001
1000
,
0010
1000
0010
1000
0100
0010
0100
0010
,
0001
0100
0010
0100
0000
0100
0001
1000
,
0100
1000
0010
0100
0000
0100
0001
1000
,
0100
1000
0010
0001
0000
0001
0010
1000
,
0100
0010
0001
0100
1000
0100
0001
0010
,
0001
0000
0000
1100
0000
0000
0101
0000
,
0000
0010
0100
0010
0100
0000
0001
1000
,
0001
0000
0000
1100
0000
0000
0011
0000
,
0000
0202
0000
0000
0303
0000
0000
0000
,
0110
0000
0000
0101
0000
0000
1010
0000
,
0000
0010
1000
0100
0010
0000
0001
1000
,
0100
0000
0000
1010
0000
0000
0101
0000
,
0000
0022
0000
0000
0033
0000
0000
0000
,
0100
1000
0000
1000
0100
1000
0100
0000
,
0010
0001
0100
0000
0010
0000
1000
0100
,
0010
0000
0001
0000
0100
0010
1000
0000
,
0100
0010
0001
0100
0010
1000
0100
0000
,
0010
0001
0100
0000
0010
0000
1000
0100
,
0010
0000
0001
0000
0100
0010
1000
0000
,
0100
0010
0001
0100
0010
1000
0100
0000
,
0010
0001
0100
0000
0010
0000
1000
0100
,
0010
0000
0001
0000
0100
0010
1000
0000
,
0100
0010
0001
0100
0010
1000
0100
0000
,
0010
0001
0100
0000
0010
0000
1000
0100
,
0010
0000
0001
0000
0100
0010
1000
0000
,
0100
0010
0001
0100
0010
1000
0100
0000
,
0000
0000
0000
0101
0000
0000
0000
0000
,
0011
0000
0000
0000
0000
2020
0000
0000
,
0000
0000
0000
0000
,
0000
0000
0000
0000
,
0000
3030
0000
0000
0000
0000
0000
0000
;

//---------------dance-single - ----------------
#NOTES:
     dance-single:
     :
     Medium:
     12:
     0.634,0.658,0.371,0.018,0.000:
0000
0000
0000
0000
,
0000
0000
0000
0000
,
0000
0000
0000
0000
,
0000
0000
0000
0000
,
0000
0000
0000
0000
,
0000
0000
1000
0000
0000
0001
0000
0100
,
0000
0010
0000
0000
1000
0000
0100
0000
,
1000
0001
0000
0001
0000
0100
0000
0100
,
0001
0010
0100
1000
,
0000
0000
0110
0000
,
0010
0000
0100
0000
1000
0000
0000
0001
,
0000
1000
0000
0100
0000
0000
0010
0000
,
0001
0000
0010
0100
0000
0100
0000
1000
,
0000
1000
0001
0000
0100
0000
0010
0000
,
1000
0000
0000
0110
,
0000
0001
1000
0001
,
0000
1000
0000
0100
0000
1000
0001
0000
,
0001
0000
0000
0000
0010
0000
0000
0100
,
0000
1000
0000
0100
0010
0000
0010
0000
,
0000
0000
0001
0000
0000
0001
0100
0000
,
0000
0100
0010
0000
0000
0010
1000
0000
,
0000
1000
0100
0000
0000
0100
0010
0000
,
0000
0010
0001
0000
0000
0001
0100
0000
,
0000
0100
0010
0000
0000
0010
1000
0000
,
0000
1000
0010
0000
0000
0010
0100
0000
,
0000
0100
0001
0000
0000
0001
0010
0000
,
0000
0010
0100
0000
0000
0100
1000
0000
,
0000
0000
0001
0000
0000
1000
0000
1000
,
0001
0000
0000
0100
0000
0100
0001
0000
,
0000
0010
0000
0010
0001
0000
0000
1000
,
0000
1000
0100
0000
0000
1000
0000
1000
,
0010
0000
0000
1000
0000
1000
0001
0000
,
0000
0100
0000
0100
0010
0000
0000
0100
,
0000
0100
0001
0100
0000
0010
0000
0100
,
0000
0000
0001
0100
0000
0100
0001
0100
,
0000
0000
0010
1000
0000
1000
0000
0010
,
0000
0000
1000
0010
0000
0010
1000
0010
,
0000
0000
0100
0000
0000
0100
0000
0000
,
0100
0001
0010
0100
,
1000
0000
0001
0000
0000
0001
0000
0000
,
0001
1000
0100
0001
,
0100
0000
1000
0000
0000
1000
0000
0000
,
1000
0010
0100
0001
,
0100
0000
0010
0000
0000
0010
0000
0000
,
0010
0000
1000
0000
0100
0000
0010
0001
,
1000
0100
1000
0000
0010
0000
0100
0000
,
0001
0100
0010
1000
,
0100
0001
0010
0100
,
1000
0000
0001
1000
0100
0010
0000
0100
,
1000
0100
0001
1000
,
0100
0010
1000
0001
,
0100
0010
0001
1000
,
0010
0000
0100
0010
1000
0010
0000
0100
,
0001
0100
0001
0100
,
1000
0001
0100
0001
,
0100
0001
0010
0100
,
1000
0000
0001
0100
0001
0100
0000
0001
,
1000
0000
0000
0001
0000
0000
0011
0000
,
0000
1000
0000
0000
1100
0000
0000
0001
,
0000
0100
0000
0000
0001
0000
1000
0000
,
0110
1000
0100
0010
,
1000
0100
0010
0001
,
0100
0010
0001
1000
,
0100
0000
1000
0001
1000
0001
0000
0001
,
1000
0000
0000
0001
0000
0000
1100
0000
,
0000
1000
0000
0000
0011
0000
0000
0100
,
0000
1000
0000
0000
0100
0000
0010
0000
,
1001
0100
0010
0100
,
1100
0000
0000
0001
0000
0000
0101
0000
,
0000
1000
0000
0000
1100
0000
0000
0010
,
0000
0000
0110
0000
0000
1000
0000
0000
,
1001
0000
0000
0000
,
0000
0000
0000
1000
0001
1000
0001
0000
,
1000
0100
0010
0100
,
1000
0100
0010
0100
,
1000
0100
0010
0001
,
1000
0001
0100
0001
,
1000
0001
0100
0001
,
1000
0100
0001
0100
,
1000
0100
0001
0100
,
1000
0100
0001
0100
,
1000
0010
0001
0010
,
1000
0010
0001
0010
,
1000
0100
0010
0001
,
1000
0100
1000
0000
0001
0100
0001
0000
,
1000
0010
0100
0001
,
1000
0010
1000
0000
0001
0010
0001
0000
,
1000
0000
0001
0100
0000
0001
0000
0100
,
0010
0000
1000
0100
0000
1000
0000
0100
,
0010
0000
0001
1000
0000
0001
0000
1000
,
0100
0010
0100
0010
0001
1000
0001
0000
,
1000
0100
0001
0010
,
0100
1000
0100
0000
0010
0001
0010
0000
,
0100
1000
0010
0100
,
0001
0100
0001
0000
1000
0010
1000
0000
,
0001
0000
1000
0100
0000
0010
0000
0100
,
1000
0000
0001
0100
0000
0010
0000
0100
,
0001
0000
1000
0001
0000
0100
0000
0001
,
1000
0100
1000
0100
0010
0001
0100
0000
,
0001
0000
0000
0101
0000
0000
1001
0000
,
0000
0001
0100
0010
,
1000
0000
0000
1100
0000
0000
1001
0000
,
0000
0011
0000
0000
0000
0000
0000
0000
,
0010
0000
0000
0011
0000
0000
1010
0000
,
0000
1000
0001
0010
,
0100
0000
0000
1100
0000
0000
0101
0000
,
0000
0110
0000
0000
0000
0000
0000
0000
,
0010
1000
0000
0001
1000
0001
1000
0000
,
0010
0100
1010
0100
,
0001
0110
0001
0010
,
1100
0001
0100
1001
,
0010
0100
1010
0100
,
0001
0110
0001
0010
,
1100
0001
0100
1001
,
0010
0100
1010
0100
,
0001
0110
0001
0010
,
1100
0001
0100
1001
,
0010
0100
1010
0100
,
0001
0110
0001
0010
,
1100
0001
0100
1001
,
0000
0000
0000
1100
0000
0000
0000
0000
,
0011
0000
0000
0000
0000
2002
0000
0000
,
0000
0000
0000
0000
,
0000
0000
0000
0000
,
0000
3003
0000
0000
0000
0000
0000
0000
;

//---------------dance-single - ----------------
#NOTES:
     dance-single:
     :
     Easy:
     8:
     0.379,0.439,0.221,0.018,0.000: // measure 1
0000
0000
0000
0000
,  // measure 2
0000
0000
0000
0000
,  // measure 3
0000
0000
0000
0000
,  // measure 4
0000
0000
0000
0000
,  // measure 5
0000
0000
0000
0000
,  // measure 6
0000
1000
0000
0000
,  // measure 7
0000
0001
0000
0000
0000
0000
1000
0000
,  // measure 8
0000
0000
0000
0000
0000
0010
0000
0000
,  // measure 9
0000
0000
0000
0110
,  // measure 10
0000
0000
0010
0000
,  // measure 11
0000
0000
1000
0000
,  // measure 12
0000
0000
0000
0001
0000
0000
0000
0000
,  // measure 13
1000
0000
0000
0000
0000
0000
0000
0010
,  // measure 14
0000
0000
0000
0000
,  // measure 15
1001
0000
0000
0010
,  // measure 16
0000
0000
0000
1000
,  // measure 17
0000
0000
0000
0000
0000
0001
0000
0000
,  // measure 18
0000
0000
1000
0000
,  // measure 19
0000
0000
0000
0001
0000
0000
0000
0000
,  // measure 20
0000
1000
0000
1000
,  // measure 21
0000
0010
0000
0010
,  // measure 22
0000
0100
0000
0100
,  // measure 23
0000
0001
0000
0001
,  // measure 24
0000
1000
0000
1000
,  // measure 25
0000
0001
0000
0001
,  // measure 26
0000
0010
0000
0010
,  // measure 27
0000
0100
0000
0100
,  // measure 28
0000
1000
0000
0000
,  // measure 29
0100
0000
0000
0010
,  // measure 30
0000
0000
0001
0000
,  // measure 31
0000
1000
0000
0000
,  // measure 32
0010
0000
0000
0100
,  // measure 33
0000
0000
0001
0000
,  // measure 34
0000
0000
1000
0000
0000
0000
0000
1000
,  // measure 35
0000
0000
0000
0001
0000
0000
0000
0001
,  // measure 36
0000
0000
1000
0000
0000
0000
0000
1000
,  // measure 37
0000
0000
0000
0001
0000
0000
0000
0001
,  // measure 38
0000
0010
0000
0100
,  // measure 39
0000
1000
0100
0010
,  // measure 40
0100
1000
0000
0001
,  // measure 41
0000
0100
0001
0010
,  // measure 42
0100
1000
0000
0001
,  // measure 43
0000
1000
0010
0100
,  // measure 44
0001
1000
0000
0001
,  // measure 45
0000
0100
0010
0100
,  // measure 46
0010
0000
1000
0000
0000
0100
0000
0000
,  // measure 47
0010
0000
0000
0001
0000
0000
1000
0000
,  // measure 48
0000
0000
0001
0000
0000
0100
0000
0000
,  // measure 49
0010
0000
0000
1000
0000
0001
0000
0000
,  // measure 50
0001
0000
1000
0000
0000
0100
0000
0000
,  // measure 51
1000
0000
0000
0001
0000
0000
0100
0000
,  // measure 52
0000
0000
0001
0000
0000
0100
0000
0000
,  // measure 53
1000
0000
0000
0100
0000
0001
0000
0000
,  // measure 54
1000
0001
0001
1000
,  // measure 55
1000
0001
1000
0000
,  // measure 56
0001
1000
0001
1000
,  // measure 57
1000
0001
0001
0000
,  // measure 58
0000
0000
0000
1000
0000
0000
0001
0000
,  // measure 59
0000
0100
0000
0000
0010
0000
0000
1000
,  // measure 60
0000
0001
0000
0000
0010
0000
0100
0000
,  // measure 61
1000
0001
0001
0100
,  // measure 62
0100
0001
0010
0000
,  // measure 63
0100
1000
1000
0010
,  // measure 64
0010
0100
0001
0000
,  // measure 65
1000
0000
0000
0001
0000
0000
0100
0000
,  // measure 66
0000
0010
0000
0000
0100
0000
0000
0001
,  // measure 67
0000
1000
0000
0000
0001
0000
0010
0000
,  // measure 68
0100
2000
0000
0000
,  // measure 69
3001
0000
0000
1000
0000
0000
1001
0000
,  // measure 70
0000
0001
0000
0000
1000
0000
0000
1001
,  // measure 71
0000
0000
0001
0000
0000
1000
0000
0000
,  // measure 72
1001
0000
0000
0000
,  // measure 73
0000
0000
0000
0000
,  // measure 74
0001
0010
0100
1000
,  // measure 75
0010
0000
0001
0100
,  // measure 76
0010
1000
0100
0000
,  // measure 77
0001
0100
0010
1000
,  // measure 78
0000
0100
0001
1000
,  // measure 79
0100
1000
0010
0100
,  // measure 80
0001
0000
0001
0010
,  // measure 81
0100
1000
0010
0000
,  // measure 82
1000
0010
0100
0001
,  // measure 83
0000
0010
0100
1000
,  // measure 84
0001
0001
1000
1000
,  // measure 85
0001
1000
0001
0000
,  // measure 86
1000
1000
0001
0001
,  // measure 87
1000
0010
0100
0000
,  // measure 88
0001
0000
0000
0001
0000
0000
0001
0000
,  // measure 89
1000
0000
0000
1000
0000
0000
1000
0000
,  // measure 90
0010
0000
0000
0010
0000
0000
0010
0000
,  // measure 91
0100
0001
0100
0000
,  // measure 92
0001
0001
1000
1000
,  // measure 93
0001
0010
0100
0000
,  // measure 94
0100
0100
1000
1000
,  // measure 95
0100
1000
0100
0000
,  // measure 96
1000
0000
0000
1000
0000
0000
1000
0000
,  // measure 97
0010
0000
0000
0010
0000
0000
0010
0000
,  // measure 98
0100
0000
0000
0100
0000
0000
0100
0000
,  // measure 99
0001
0001
1000
1000
,  // measure 100
0001
0000
0000
1000
0000
0000
0001
0000
,  // measure 101
0000
0000
1001
0000
,  // measure 102
1000
0000
0000
0001
0000
0000
1000
0000
,  // measure 103
0000
0001
0000
0000
0000
0000
0000
0000
,  // measure 104
1000
0000
0000
0010
0000
0000
0100
0000
,  // measure 105
0000
0000
0101
0000
,  // measure 106
0001
0000
0000
0010
0000
0000
0100
0000
,  // measure 107
0000
1000
0000
0000
0000
0000
0000
0000
,  // measure 108
1001
0000
0000
1100
,  // measure 109
0000
0000
0011
0000
,  // measure 110
0000
1010
0000
0000
,  // measure 111
0101
0000
0000
0011
,  // measure 112
0000
0000
1100
0000
,  // measure 113
0000
1010
0000
0000
,  // measure 114
0101
0000
0000
1100
,  // measure 115
0000
0000
0011
0000
,  // measure 116
0000
0101
0000
0000
,  // measure 117
1010
0000
0000
0011
,  // measure 118
0000
0000
1100
0000
,  // measure 119
0000
0101
0000
0000
,  // measure 120
1010
0000
0000
1001
,  // measure 121
0000
0000
0000
0010
0000
0000
0000
0000
,  // measure 122
1000
0000
0000
0000
0000
0002
0000
0000
,  // measure 123
0000
0000
0000
0000
,  // measure 124
0000
0000
0000
0000
,  // measure 125
0000
0003
0000
0000
0000
0000
0000
0000
;

//---------------dance-single - ----------------
#NOTES:
     dance-single:
     :
     Beginner:
     5:
     0.197,0.329,0.018,0.035,0.000: // measure 1
0000
0000
0000
0000
,  // measure 2
0000
0000
0000
0000
,  // measure 3
0000
0000
0000
0000
,  // measure 4
0000
0000
0000
0000
,  // measure 5
0000
0000
0000
0000
,  // measure 6
0000
1000
0000
0000
,  // measure 7
0000
0000
0000
1000
,  // measure 8
0000
0000
0000
0000
,  // measure 9
0000
0000
0000
0001
,  // measure 10
0000
0000
0001
0000
,  // measure 11
0000
0000
1000
0000
,  // measure 12
0000
0000
0000
0000
,  // measure 13
1000
0000
0000
0000
,  // measure 14
0000
0000
0000
0000
,  // measure 15
0001
0000
0000
0001
,  // measure 16
0000
0000
0000
0001
,  // measure 17
0000
0000
0000
0000
,  // measure 18
0000
0000
1000
0000
,  // measure 19
0000
0000
0000
0000
,  // measure 20
0000
0001
0000
0001
,  // measure 21
0000
0001
0000
0000
,  // measure 22
0000
1000
0000
1000
,  // measure 23
0000
1000
0000
0000
,  // measure 24
0000
0010
0000
0010
,  // measure 25
0000
0010
0000
0000
,  // measure 26
0000
0100
0000
0100
,  // measure 27
0000
0100
0000
0000
,  // measure 28
0000
1000
0000
0000
,  // measure 29
0100
0000
0000
0010
,  // measure 30
0000
0000
0001
0000
,  // measure 31
0000
1000
0000
0000
,  // measure 32
0010
0000
0000
0100
,  // measure 33
0000
0000
0001
0000
,  // measure 34
0000
1000
0000
0000
,  // measure 35
0000
0000
0000
0000
,  // measure 36
0000
1000
0000
0000
,  // measure 37
0000
0000
0000
0000
,  // measure 38
0000
0010
0000
0000
,  // measure 39
0000
1000
0000
1000
,  // measure 40
0000
1000
0000
0000
,  // measure 41
0000
0001
0000
0001
,  // measure 42
0000
0001
0000
0000
,  // measure 43
0000
0100
0000
0100
,  // measure 44
0000
0100
0000
0000
,  // measure 45
0000
0010
0000
0010
,  // measure 46
0000
0010
0000
0000
,  // measure 47
0000
0010
0000
0000
,  // measure 48
0000
0010
0000
0000
,  // measure 49
0000
0010
0000
0000
,  // measure 50
0000
1000
0000
0000
,  // measure 51
0000
1000
0000
0000
,  // measure 52
0000
0100
0000
0000
,  // measure 53
0000
0100
0000
0000
,  // measure 54
0000
1000
0000
1000
,  // measure 55
0000
0001
0000
0001
,  // measure 56
0000
1000
0000
1000
,  // measure 57
0000
0001
0000
0001
,  // measure 58
0000
0010
0000
0000
,  // measure 59
0000
0000
0000
0000
,  // measure 60
0000
0000
0000
0000
,  // measure 61
0000
1000
0000
1000
,  // measure 62
0000
0010
0000
0010
,  // measure 63
0000
0100
0000
0100
,  // measure 64
0000
0001
0000
0001
,  // measure 65
0000
1000
0000
0000
,  // measure 66
0000
0000
0000
0000
,  // measure 67
0000
0000
0000
0000
,  // measure 68
0000
1000
0000
0000
,  // measure 69
0002
0000
0000
0003
,  // measure 70
0000
0000
2000
0000
,  // measure 71
0000
3000
0000
0000
,  // measure 72
0000
0000
0000
0000
,  // measure 73
0000
0000
0000
0000
,  // measure 74
0001
0000
0001
0000
,  // measure 75
0001
0000
0000
0000
,  // measure 76
1000
0000
1000
0000
,  // measure 77
0000
0010
0000
0010
,  // measure 78
0000
0000
0100
0000
,  // measure 79
0100
0000
0100
0000
,  // measure 80
0100
0000
0000
0000
,  // measure 81
0010
0000
0010
0000
,  // measure 82
0000
1000
0000
1000
,  // measure 83
0000
0000
0001
0000
,  // measure 84
0001
0000
0001
0000
,  // measure 85
0001
0001
0001
0000
,  // measure 86
1000
0000
1000
0000
,  // measure 87
1000
1000
1000
0000
,  // measure 88
0010
0000
0000
0000
,  // measure 89
0100
0000
0000
0000
,  // measure 90
0010
0000
0000
0000
,  // measure 91
1000
0000
0100
0000
,  // measure 92
1000
0000
1000
0000
,  // measure 93
1000
1000
1000
0000
,  // measure 94
0010
0000
0010
0000
,  // measure 95
0010
0010
0010
0000
,  // measure 96
0001
0000
0000
0000
,  // measure 97
0010
0000
0000
0000
,  // measure 98
0100
0000
0000
0000
,  // measure 99
0100
0000
0100
0000
,  // measure 100
0001
0000
0000
1000
,  // measure 101
0000
0000
0100
0000
,  // measure 102
0001
0000
0000
0001
,  // measure 103
0000
0000
0000
0000
,  // measure 104
1000
0000
0000
0100
,  // measure 105
0000
0000
0100
0000
,  // measure 106
0010
0000
0000
0010
,  // measure 107
0000
0000
0000
0000
,  // measure 108
1001
0000
0000
0010
,  // measure 109
0000
0000
0010
0000
,  // measure 110
0000
0100
0000
0000
,  // measure 111
0100
0000
0000
0001
,  // measure 112
0000
0000
0001
0000
,  // measure 113
0000
1000
0000
0000
,  // measure 114
1000
0000
0000
0010
,  // measure 115
0000
0000
0010
0000
,  // measure 116
0000
0100
0000
0000
,  // measure 117
0100
0000
0000
0001
,  // measure 118
0000
0000
0001
0000
,  // measure 119
0000
1000
0000
0000
,  // measure 120
1000
0000
0000
0001
,  // measure 121
0000
0000
0000
0010
0000
0000
0000
0000
,  // measure 122
0100
0000
0000
0000
0000
2002
0000
0000
,  // measure 123
0000
0000
0000
0000
,  // measure 124
0000
0000
0000
0000
,  // measure 125
0000
3003
0000
0000
0000
0000
0000
0000
;
