#TITLE:Run Devil Run;
#SUBTITLE:;
#ARTIST:Girls' Generation;
#TITLETRANSLIT:;
#SUBTITLETRANSLIT:;
#ARTISTTRANSLIT:;
#GENRE:;
#CREDIT:;
#MENUCOLOR:;
#METERTYPE:DDR;
#BANNER:Run Devil Run.png;
#BACKGROUND:Run Devil Run-bg.png;
#LYRICSPATH:;
#CDTITLE:;
#MUSIC:Run Devil Run.mp3;
#OFFSET:-0.040;
#SAMPLESTART:51.094;
#SAMPLELENGTH:14.800;
#SELECTABLE:YES;
#LISTSORT:;
#BPMS:0.000=130.000;
#STOPS:12.000=0.923
;
#BGCHANGES:0.063=Run Devil Run.avi=1.000=0=0=0,
99999=-nosongbg-=1.000=0=0=0 // don't automatically add -songbackground-
;
#ATTACKS:;

//---------------dance-single - ----------------
#NOTES:
     dance-single:
     :
     Hard:
     11:
     0.508,0.468,0.573,0.191,0.669:
0000
0000
0000
0000
,
0000
0000
0000
0000
,
1000
0000
0000
1000
0000
0001
0000
0000
1000
0001
0000
1000
,
0002
0003
0001
1000
0000
0001
1000
0000
0000
0100
0000
0100
,
0000
0000
0001
0010
0000
0100
1000
0000
0000
1001
0000
0010
,
0000
0000
0010
1000
0000
0001
0100
0000
0000
0010
0000
0010
,
0000
0000
0010
1000
0000
0001
0100
0000
0000
0110
0000
0110
,
0000
0000
0001
0010
0000
0100
1000
0000
0000
0010
0000
0110
,
0000
0000
0001
1000
0000
0010
0100
0000
0000
0001
0000
0101
,
0000
0000
0010
1000
0000
1000
0100
0000
0000
0100
0000
0110
,
0000
0000
0010
0001
0000
0001
0100
0000
0000
0010
0000
0110
,
0000
0000
0001
1000
0000
0000
0010
0000
0000
0100
0000
0001
,
1000
0000
0000
1001
0000
0000
1000
0000
0001
1000
0000
0000
,
0110
0000
0000
1001
0000
0000
0010
0000
0000
1000
0000
0001
,
0100
0000
0010
1000
0000
0000
0110
0000
0000
0001
1000
0001
,
1000
0000
0010
1000
0000
0001
1000
0000
0000
0110
0000
1001
,
0000
0000
0001
0100
0000
0010
1000
0000
0000
0110
0000
1001
,
0000
0000
1000
0100
0000
0010
0001
0000
0000
1100
0000
0011
,
0000
0000
1000
0010
0000
1000
0100
0000
0000
0110
0000
0011
,
0000
0000
0001
1000
0000
0010
1000
0000
0000
1100
0000
1001
,
0000
0000
0001
1000
0000
0010
0100
0000
0000
0101
0000
1100
,
0000
0000
1000
0100
0000
0001
0100
0000
0000
1100
0000
0110
,
0000
0000
0001
0100
0000
0010
1000
0000
0000
0110
0000
1001
,
0000
0000
0010
0100
0000
0100
0001
0010
0100
1000
0010
0100
,
0001
0000
0010
0100
0000
1000
0100
0000
0010
0001
0100
1000
,
0100
0001
1000
0001
0000
0000
1000
0000
0001
0100
0000
0100
,
0010
0100
0010
1000
0000
1000
1001
0000
0000
0001
1000
0001
,
1000
0000
0001
0100
0000
0001
0200
0000
0000
0000
0000
0320
,
0000
0000
0000
0000
0000
2030
0000
0000
0000
0000
0000
3200
,
0000
0000
0000
0000
0000
0301
0000
0000
0001
0100
0000
0100
,
1000
0000
1000
0010
0000
0010
0100
0000
0000
0101
0000
1100
,
0000
0000
0001
0100
0000
0010
0200
0000
0000
0000
0000
0320
,
0000
0000
0000
0000
0000
2030
0000
0000
0000
0000
0000
3002
,
0000
0000
0000
0000
0000
0103
0000
0000
0010
1000
0000
0100
,
0001
0000
0100
1000
0000
1000
0010
0000
0000
0110
0000
1001
,
0000
0000
1001
0000
0000
0001
0100
0000
0000
0110
0000
0000
,
1100
0000
0000
0101
0000
0000
1010
0000
0000
1000
0000
1001
,
0000
0000
0000
0001
0000
0101
0000
0000
0000
0100
0000
1100
,
0000
0000
0000
0010
0000
0110
0000
0000
0000
0100
0000
0101
,
0000
0000
0001
1000
0000
0010
0200
0000
0000
0000
0000
0320
,
0000
0000
0000
0000
0000
0032
0000
0000
0000
0000
0000
0023
,
0000
0000
0100
0000
0000
1030
0000
0000
0001
1000
0000
0001
,
1000
0000
0000
0110
0000
0000
1000
0000
0001
0100
0000
0000
,
0120
0000
0000
1030
0000
0000
1001
0000
0000
0110
0000
0001
,
0100
0000
0010
0100
0000
0000
0120
0000
0000
0100
0000
0100
,
0030
0000
1000
0001
0000
0000
0110
0000
0000
0101
0000
1000
,
0100
0000
0010
0001
0000
0000
1100
0000
0001
0010
0000
0000
,
2100
0000
0000
3100
0000
0000
1001
0000
0000
1010
0000
0001
,
0010
0000
0100
1000
0000
0000
2002
0000
0000
0000
0000
0000
,
3003
0000
0000
0000
;

//---------------dance-single - ----------------
#NOTES:
     dance-single:
     :
     Medium:
     9:
     0.406,0.390,0.350,0.287,0.318:
0000
0000
0000
0000
,
0000
0000
0000
0000
,
0010
1000
0100
0001
,
0010
0000
0000
0000
0000
0000
1000
0000
0000
0001
0000
0001
,
0000
0000
0001
1000
0000
0000
0100
0000
0000
0110
0000
0000
,
0001
0000
0000
1001
0000
0000
1000
0000
0000
0001
0000
0100
,
0000
0000
0001
0100
0000
0000
0020
0000
0000
0100
0000
0000
,
0100
0000
0000
0130
0000
0000
0001
0000
0000
0010
0000
0100
,
0000
0000
1000
0100
0000
0000
0001
0000
0000
1100
0000
0000
,
1000
0000
0000
0101
0000
0000
0010
0000
0000
0100
0000
0100
,
0000
0000
0001
0100
0000
0000
0010
0000
0000
1000
0000
0000
,
0100
0001
0020
0230
,
2300
3002
0203
0320
,
0130
0110
0001
0010
,
0100
0000
0100
1000
0000
0000
2001
0000
0000
0001
0000
0000
,
3001
0000
0001
0100
0000
0001
0100
0000
0000
0010
0000
0000
,
0110
0000
0000
1000
0000
0100
0010
0000
0000
0100
0000
0000
,
0101
0000
0001
1000
0000
0001
1000
0000
0000
0010
0000
0000
,
0110
0000
0000
0001
0000
1000
0100
0000
0000
0010
0000
0000
,
0010
0000
0001
0100
0000
0010
0100
0000
0000
0001
0000
0000
,
1100
0000
0000
1000
0000
0010
0100
0000
0000
0020
0000
0000
,
0100
1030
0002
0023
,
2030
3200
0302
1000
,
1000
0000
0000
1003
0000
0000
0010
0000
1000
0000
0001
0000
,
0100
0000
0000
0110
0000
0000
1000
0000
0100
0000
0010
0000
,
0001
1001
0001
1001
,
1000
1001
0010
0010
,
0010
0000
0100
0010
0000
0100
0010
0000
0000
0000
0000
1100
,
0000
0000
0000
0000
0000
0101
0000
0000
0000
0000
0000
0011
,
0000
0000
0000
0000
0000
1100
0000
0000
0000
0001
0000
1000
,
0100
0000
0000
0001
0000
1000
0100
0000
0000
0001
0000
0101
,
0000
0000
0001
1000
0000
0010
0100
0000
0000
0000
0000
0011
,
0000
0000
0000
0000
0000
1100
0000
0000
0000
0000
0000
0110
,
0000
0000
0000
0000
0000
1001
0000
0000
0000
1000
0000
0001
,
0100
0000
0000
0100
0000
0001
0010
0000
0000
0100
0000
1100
,
0000
0000
1000
0000
0000
0000
0002
0000
0000
0023
0000
0000
,
0230
0000
0000
2300
0000
0000
3001
0000
0000
1000
0000
1010
,
0000
0000
0000
0001
0000
0001
0000
0000
0000
0010
0000
0010
,
0000
0000
0000
0100
0000
0100
0000
0000
0000
1000
0000
1000
,
0000
0000
0001
1000
0000
1000
0002
0000
0000
0000
0000
0203
,
0000
0000
0000
0000
0000
0302
0000
0000
0000
0000
0000
2003
,
0000
0000
0010
0000
0000
3020
0000
0000
0000
0130
0000
0000
,
0110
0000
0000
1000
0000
0000
1001
0000
0001
1000
0000
0000
,
0020
0000
0000
0130
0000
0000
0001
0000
0000
0010
0000
0100
,
1000
0000
0001
0010
0000
0000
0110
0000
0000
1000
0000
0000
,
0001
0000
1000
0100
0000
0000
0010
0000
0000
0110
0000
0000
,
1001
0000
0000
0110
0000
0000
0010
0000
1000
0001
0000
0000
,
2001
0000
0000
3010
0000
0000
0001
0000
0000
1000
0000
0001
,
1000
0000
0001
1000
0000
0000
0220
0000
0000
0000
0000
0000
,
0330
0000
0000
0000
;

//---------------dance-single - ----------------
#NOTES:
     dance-single:
     :
     Easy:
     5:
     0.179,0.206,0.053,0.021,0.000:
0000
0000
0000
0000
,
0000
0000
0000
0000
,
0000
0000
0000
0000
,
0000
1000
1000
0000
,
0010
0000
0100
0100
,
0000
0001
0001
0000
,
1000
0000
0010
0000
,
0100
0000
0001
0000
,
0001
0000
1000
1000
,
0000
0010
0020
0000
,
0000
0130
0100
0000
,
0001
0000
1000
1000
,
0001
0001
1000
0100
,
0001
0000
0001
0100
,
1000
0100
0001
0000
,
0000
1000
1000
0000
,
0010
0000
0100
0000
,
0001
0000
1000
0000
,
0010
0000
0100
0100
,
0000
0001
0001
0000
,
1000
0000
0010
0000
,
0100
0000
0020
0000
,
0000
0130
0100
0000
,
0000
0000
1001
0000
,
0110
0000
0001
0100
,
1000
0000
1000
0100
,
0001
0000
1000
0000
,
0000
0010
0010
0000
,
0100
0000
0010
0000
,
0100
0000
0001
1000
,
0001
0000
1000
0001
,
1000
0000
0010
0000
,
0100
0000
0001
0000
,
1000
0000
0100
0000
,
0010
0000
0001
0010
,
0001
0000
1000
1000
,
1000
0000
0001
0001
,
0001
0000
0100
0000
,
0010
0000
1000
0000
,
0001
0000
1000
0000
,
0100
0000
0010
0000
,
0001
0000
1000
1000
,
1000
0000
0001
0001
,
0001
0000
0100
0010
,
0100
0000
0110
0000
,
1001
0000
0001
1000
,
0001
0000
1000
0001
,
1000
0000
0001
0000
,
1000
0000
0110
0000
;

//---------------dance-single - ----------------
#NOTES:
     dance-single:
     :
     Beginner:
     2:
     0.105,0.103,0.021,0.053,0.000: // measure 1
0000
0000
0000
0000
,  // measure 2
0000
0000
0000
0000
,  // measure 3
0000
0000
0000
0000
,  // measure 4
0000
0000
1000
0000
,  // measure 5
1000
0000
1000
0000
,  // measure 6
0000
0000
0001
0000
,  // measure 7
0001
0000
0001
0000
,  // measure 8
0000
0000
0100
0000
,  // measure 9
0100
0000
0100
0000
,  // measure 10
0000
0000
0010
0000
,  // measure 11
0010
0000
0010
0000
,  // measure 12
0000
0000
1000
0000
,  // measure 13
0000
0000
0001
0000
,  // measure 14
0000
0000
0100
0000
,  // measure 15
0000
0000
0110
0000
,  // measure 16
0000
0000
0001
0000
,  // measure 17
1000
0000
0001
0000
,  // measure 18
0000
0000
1000
0000
,  // measure 19
0001
0000
1000
0000
,  // measure 20
0000
0000
0010
0000
,  // measure 21
0100
0000
0010
0000
,  // measure 22
0000
0000
0100
0000
,  // measure 23
0010
0000
0100
0000
,  // measure 24
0000
0000
0001
0000
,  // measure 25
0010
0000
0100
0000
,  // measure 26
1000
0000
0002
0000
,  // measure 27
0000
0003
1000
0000
,  // measure 28
0000
0000
0002
0000
,  // measure 29
0003
0000
2000
0000
,  // measure 30
3000
0000
0010
0000
,  // measure 31
0010
0000
0010
0000
,  // measure 32
0000
0000
0200
0000
,  // measure 33
0000
0300
0002
0000
,  // measure 34
0000
0003
1000
0000
,  // measure 35
1000
0000
1000
0000
,  // measure 36
0000
0000
0010
0000
,  // measure 37
0010
0000
0010
0000
,  // measure 38
0000
0000
0100
0000
,  // measure 39
0100
0000
0100
0000
,  // measure 40
0000
0000
0001
0000
,  // measure 41
1000
0000
0001
0000
,  // measure 42
1000
0000
0001
0000
,  // measure 43
0000
0000
0001
0000
,  // measure 44
0000
0000
1000
0000
,  // measure 45
0000
0000
1000
0000
,  // measure 46
0000
0000
0010
0000
,  // measure 47
0000
0000
0010
0000
,  // measure 48
0000
0000
0100
0000
,  // measure 49
0000
0000
0110
0000
;
