#TITLE:Red Goose;
#SUBTITLE:;
#ARTIST:Mutsuhiko Izumi;
#TITLETRANSLIT:;
#SUBTITLETRANSLIT:;
#ARTISTTRANSLIT:;
#GENRE:;
#CREDIT:;
#MENUCOLOR:;
#METERTYPE:DDR;
#BANNER:Red Goose.png;
#BACKGROUND:Red Goose-bg.png;
#LYRICSPATH:;
#CDTITLE:cdtitle.png;
#MUSIC:Red Goose.mp3;
#OFFSET:-0.845;
#SAMPLESTART:33.240;
#SAMPLELENGTH:12.000;
#SELECTABLE:YES;
#LISTSORT:;
#BPMS:0.000=200.000;
#STOPS:;
#BGCHANGES:;
#ATTACKS:;

//---------------dance-single - ----------------
#NOTES:
     dance-single:
     :
     Hard:
     13:
     0.652,0.706,0.032,0.168,0.072:
0000
0000
0000
0000
,
0000
0000
0000
0000
,
0000
0000
0000
0000
,
0000
0000
0000
0000
,
2000
0000
0001
0001
,
3002
0000
0010
0010
,
0023
0000
0100
0100
,
0230
0000
0000
0000
,
2000
0000
0000
3300
,
0001
0010
0001
0010
0000
0100
1000
0010
,
1000
0100
1000
0100
0000
0010
0001
0100
,
0001
1000
0001
1000
0000
0010
1000
0100
,
1000
0001
1000
0001
0000
0100
0001
0010
,
0100
1000
0100
1000
0000
0010
0100
0001
,
1000
0100
1000
0100
0000
1000
0010
0100
,
0001
0010
0001
0010
0000
0100
1000
0010
,
0100
0001
0100
0001
0000
1000
0100
0010
,
0100
1000
0001
0000
0001
1000
0100
0000
,
0010
0001
0100
0010
1000
0100
0010
0000
,
0001
0001
0010
0100
0000
0100
1000
0000
,
1000
1000
0100
0010
0000
0010
0001
0000
,
0001
0001
1000
0100
0000
0100
1000
0000
,
1000
1000
0001
0100
0000
0100
0001
0000
,
0010
0010
0100
1000
0000
1000
0010
0000
,
0100
0100
0001
0010
0000
0010
0100
0000
,
1000
0100
0010
0100
0000
0100
0010
0000
,
0001
0010
0100
0010
0000
0010
0100
0000
,
1000
1000
0001
0001
0000
1000
0001
0000
,
0001
0001
1000
1000
0000
0001
1000
0000
,
0010
0010
0100
0100
0000
0100
0010
0000
,
0100
0100
0010
0010
0000
0100
0010
0000
,
1000
0100
0001
0100
0000
0100
1000
0000
,
0001
0100
1000
0100
0000
0100
0001
0000
,
0001
0010
1000
0010
0000
0010
0001
0000
,
1000
0010
0001
0010
0000
0010
1000
0000
,
0002
0010
1000
0103
,
2000
0000
0010
0000
0001
0000
3100
1000
,
0001
1000
0100
0000
1000
0001
0100
0000
,
0001
0010
0001
0010
0100
1000
0100
1000
,
0002
0100
1000
0013
,
2000
0000
0100
0000
0001
0000
3010
1000
,
0100
0010
0001
0000
1000
0010
0100
0000
,
0010
1000
0100
0000
1000
0001
0010
0000
,
0001
1000
0001
1000
0001
1000
0001
1000
,
0100
0010
0100
0010
0100
0010
0100
0010
,
0001
1000
0001
1000
0100
0010
0001
0000
,
1000
0010
1000
0010
0100
0001
0010
0000
,
0100
1000
0100
1000
0001
0010
0100
0000
,
1000
0010
1000
0010
0100
0001
0010
0100
,
1000
0001
1000
0001
0100
0010
1000
0000
,
0001
0010
0001
0010
0100
1000
0010
0000
,
0100
0001
0100
0001
0010
0100
1000
0000
,
0001
0010
0100
1000
0001
0100
0010
1000
,
0100
1000
0000
1000
0100
0000
1000
0000
0010
0000
0100
0000
0001
0000
0000
0000
,
0001
0010
0000
0010
0001
0000
0010
0000
0001
0000
0100
0000
0010
0000
0000
0000
,
1000
0001
0000
0001
1000
0000
0001
0000
1000
0000
0010
0000
0100
0000
0000
0000
,
0001
1000
0000
0001
1000
0000
0100
0000
1000
0000
0001
0000
1000
0000
0001
0000
,
0100
0001
0000
0001
0100
0000
0010
0000
1000
0000
0100
0000
0010
0000
0000
0000
,
0100
1000
0000
1000
0100
0000
1000
0000
0010
0000
0100
0000
0001
0000
0000
0000
,
1000
0010
0000
0010
1000
0000
0010
0000
0100
0000
0001
0000
0010
0000
0000
0000
,
0100
1000
0000
0100
1000
0000
0010
0000
0100
0000
0001
0000
0010
0000
0100
0000
,
2000
0010
0100
3010
,
0002
0000
0100
0000
0010
0000
0103
0001
,
0020
1000
0001
1030
,
0001
0100
0010
1000
0001
0010
0100
1000
,
0002
0100
0010
0103
,
2000
0000
0010
0000
0100
0000
3010
1000
,
0200
1000
0001
1300
,
0020
1000
0001
1030
,
0001
1000
0001
1000
0010
0100
0010
0100
,
0001
0000
1000
0000
0001
0000
1000
0000
0100
0000
0010
0000
0100
0010
0100
0010
,
0100
0000
0000
0000
,
0010
0000
0000
0000
,
0110
0100
0000
0000
0000
0000
0000
0000
,
0001
0000
0000
0000
,
1100
0000
0000
0000
,
0010
0000
0000
0000
,
0101
0001
0000
0000
0000
0000
0000
0000
,
1000
0000
0100
0000
0010
0001
0100
0010
,
1000
0001
0010
0100
0000
1000
0100
0010
,
0001
0100
0010
1000
0000
0001
0100
1000
,
0100
0001
0010
0100
0000
1000
0100
0001
,
0100
1000
0010
0100
0000
0001
0010
0100
,
1000
0100
0010
0001
0000
1000
0010
0100
,
0001
0100
0010
1000
0000
0001
0010
0100
,
1000
0001
0100
0010
0000
1000
0010
0100
,
0001
0010
0100
1000
0000
0001
0100
0010
,
0200
0010
0000
0310
,
0020
0100
0000
0130
,
0001
0010
0100
1000
0000
0001
0010
0100
,
1000
0001
0100
0010
0000
1000
0100
0010
,
0001
1000
0010
0100
0000
0010
1000
0100
,
0001
0100
1000
0010
0000
0100
0001
0010
,
1000
0010
0001
0100
0000
0001
1000
0001
,
1000
0100
0010
0001
0000
1000
0002
0000
,
1000
0100
0010
0100
,
1000
0000
0100
0000
0010
0010
0013
0100
,
0000
0000
2002
0000
,
3003
0000
0000
0000
;

//---------------dance-single - ----------------
#NOTES:
     dance-single:
     :
     Challenge:
     17:
     0.857,1.000,0.120,0.080,0.604:
0000
0000
0000
0000
,
0000
0000
0000
0000
,
0000
0000
0000
0000
,
0000
0000
0000
0000
,
2000
0000
0000
3001
0100
1000
0100
0001
,
0020
0000
0000
0130
1000
0010
0001
0010
,
1000
0001
0000
0010
,
0100
0000
0000
0000
0000
0000
0000
0000
0000
0000
0000
0000
0000
0000
1000
0002
,
2000
0000
0000
0000
0000
0000
0000
3003
,
0001
0001
0010
0010
0000
0100
1000
1000
,
0010
0010
0100
0100
0000
0001
0010
0010
,
0100
0100
1000
1000
0000
0001
0100
0100
,
0010
0010
1000
1000
0000
0001
1000
1000
,
0010
0010
0100
0100
0000
0001
0010
0010
,
0100
0100
1000
1000
0000
0001
0100
0100
,
1000
1000
0100
0100
0000
0001
0010
0010
,
1000
1000
0010
0010
0000
0001
0100
0100
,
0001
0100
1000
0100
0001
0010
1000
0010
,
0001
0010
0001
0000
1000
0100
1000
0000
0001
0100
0001
0000
1000
0010
1000
0000
,
0001
0100
1000
1000
0000
1000
0100
0001
,
0010
1000
0010
0010
0000
0001
0100
0010
,
0001
1000
0100
0100
0000
0010
1000
0100
,
0001
0100
1000
1000
0000
0001
0100
1000
,
0001
0010
1000
1000
0000
0001
0010
1000
,
0001
0100
1000
1000
0000
0001
0100
0010
,
0100
0001
0010
0010
0000
0100
1000
0010
,
1000
0100
0010
0010
0000
0001
0100
0001
,
1000
1000
1000
0100
0000
0010
0001
0001
,
0100
0100
0100
0010
0000
0010
1000
1000
,
0001
0001
0001
0100
0000
0100
0010
0010
,
1000
1000
1000
0001
0000
0001
0010
0010
,
0100
0100
0100
1000
0000
1000
0001
0001
,
0100
0100
0100
0010
0000
0010
0100
0100
,
0001
0001
0001
0010
0000
0100
1000
1000
,
0010
0010
0010
0100
0000
0001
0010
0100
,
1000
0100
0010
0001
1000
1000
0001
0001
,
1000
0010
0100
0001
0010
0010
0100
0100
,
1000
0100
0010
0001
1000
1000
0001
0001
,
1000
0010
1000
0000
0010
0100
0010
0000
0100
0001
0100
0000
0001
0010
0001
0000
,
0010
0100
1000
0001
0100
0100
0001
0001
,
0010
0100
1000
0010
0100
0100
0001
0001
,
1000
0010
0100
0001
1000
1000
0001
0001
,
1000
0100
0010
0001
1000
0010
0100
0001
,
1000
0100
1000
0000
0001
0100
0001
0000
1000
0010
1000
0000
0001
0100
0001
0000
,
1000
0100
1000
0100
1000
0100
1000
0100
0010
0001
0010
0001
0010
0001
0010
0000
,
0001
1000
0000
0100
0000
1000
0010
0000
0100
0000
0001
0000
0000
0100
0001
0000
,
1000
0100
0000
1000
0000
0010
0100
0000
0001
0000
1000
0000
0000
0100
1000
0000
,
0010
0100
0000
0001
0000
1000
0100
0000
0010
0000
0100
0000
0000
1000
0100
0000
,
0010
0001
0000
1000
0000
0001
0000
0010
0000
0100
0000
1000
0000
0010
0100
0000
,
0001
0100
0000
0010
0000
0100
0001
0000
1000
0000
0100
0000
0000
0010
0100
0000
,
1000
0010
0000
0100
0000
0001
0010
0000
0100
0000
1000
0000
0000
0001
0100
0000
,
0010
0100
0000
0001
0000
1000
0000
0100
0000
0010
0000
0001
0000
1000
0010
0000
,
1000
0100
0000
0010
0000
0001
0010
0001
0010
0100
1000
0100
1000
0010
0100
0010
,
0100
0001
0000
0100
0000
0010
1000
0000
0100
0000
0010
0000
0000
0100
1000
0000
,
0001
0100
0000
0010
0000
0100
0001
0000
1000
0000
0100
0000
0000
0010
0001
0000
,
0100
0010
0000
0100
0000
0001
0010
0000
0100
0000
1000
0000
0000
0010
0100
0000
,
0001
1000
0000
0001
0000
1000
0000
0010
0000
0100
0000
0001
0000
0010
0100
0000
,
1000
0100
0000
0001
0000
0100
1000
0000
0010
0000
0100
0000
0000
0001
1000
0000
,
0001
0010
0000
1000
0000
0010
0001
0000
0100
0000
0001
0000
0000
1000
0100
0000
,
0010
0100
0000
1000
0000
0010
0000
0001
0000
0010
0000
1000
0000
0001
0010
0000
,
0100
1000
0000
0001
0000
0100
0001
0100
0001
1000
0100
1000
0100
0010
0001
0010
,
0100
0000
0100
0000
0010
0000
0010
0000
0100
1000
0100
0000
0010
0001
0010
0000
,
0001
0000
0001
0000
1000
0000
1000
0000
0010
1000
0010
0000
0100
0001
0100
0000
,
0010
0000
0010
0000
0100
0000
0100
0000
0001
0010
0001
0000
1000
0100
1000
0000
,
0001
0100
0010
0000
1000
0100
0010
0000
0001
0010
0100
0000
1000
0010
0100
0000
,
0001
0000
0010
0000
0100
0000
1000
0000
0001
0100
0001
0000
1000
0100
1000
0000
,
0001
0000
0100
0000
0010
0000
1000
0000
0001
0010
0001
0000
1000
0100
1000
0000
,
0010
0000
1000
0000
0001
0000
0010
0000
0100
1000
0100
0000
0010
0001
0010
0000
,
0001
0100
0001
0000
1000
0010
1000
0000
0001
0010
0100
0000
1000
0100
0010
0000
,
0001
1000
0001
1000
0001
1000
0001
1000
0001
1000
0001
1000
0001
1000
0001
1000
,
0100
0010
0100
0010
0100
0010
0100
0010
0100
0010
0100
0010
0100
0010
0100
0010
,
0001
0000
0000
0000
,
1000
0000
0000
0000
,
1001
1001
0000
0000
0000
0000
0000
0000
,
0010
0000
0000
0000
,
0110
0000
0000
0000
,
0100
0000
0000
0000
,
1001
1001
0000
0000
0000
0000
0000
0000
,
0010
0000
0100
0000
0001
0000
0010
0000
0100
1000
0100
1000
0100
0010
0001
0000
,
1000
0100
0001
0100
0000
1000
0010
0001
,
0010
1000
0100
0001
0000
0001
0100
1000
,
0010
0001
1000
0100
0000
0001
0010
1000
,
0001
0100
1000
0010
0000
0100
0001
0010
,
0100
1000
0010
0100
0000
0001
0100
1000
,
0100
0001
0010
1000
0000
0001
0100
1000
,
0001
0100
1000
0001
0000
1000
0100
0001
,
1000
0100
0001
1000
0000
0001
0100
1000
,
0001
0100
0001
1001
0000
1000
0010
1000
,
0001
0100
0001
0101
0000
0010
1000
0100
,
0010
0100
1000
1001
0000
0001
0100
0001
,
0010
0100
0010
0011
0000
0100
1000
0010
,
1000
0100
0001
0101
0000
0010
1000
0100
,
0010
0100
1000
1100
0000
1000
0001
0100
,
0010
0100
0001
1001
0000
1000
0100
0010
,
0001
0010
0100
0110
0000
0001
1001
0000
,
2000
3200
0320
0032
,
1003
0100
0010
0001
1000
0010
0100
0001
1000
0100
0010
0001
1000
0010
0100
0001
,
0000
0000
2002
0000
,
3003
0000
0000
0000
;

//---------------dance-single - ----------------
#NOTES:
     dance-single:
     :
     Medium:
     10:
     0.435,0.667,0.032,0.408,0.000:
0000
0000
0000
0000
,
0000
0000
0000
0000
,
0000
0000
0000
0000
,
0000
0000
0000
0000
,
2000
0000
0000
0000
,
0200
0000
0000
3000
,
0020
0000
0000
0300
,
0002
0000
0000
0030
,
2000
0000
0000
3003
,
0001
0001
0010
0010
,
0100
0100
1000
1000
,
0001
0001
0100
0100
,
0010
0010
1000
1000
,
0001
0001
0010
0010
,
0100
0100
1000
1000
,
0100
0100
0010
0010
,
0001
0001
1000
1000
,
0010
1000
0100
0001
,
0010
1000
0100
0001
,
0010
0000
0000
0010
0000
0000
0010
0000
,
0100
0000
0000
0100
0000
0000
0100
0000
,
0001
0000
0000
0001
0000
0000
0001
0000
,
1000
0000
0000
1000
0000
0000
1000
0000
,
0100
0000
0000
0100
0000
0000
0100
0000
,
0010
0000
0000
0010
0000
0000
0010
0000
,
0001
0000
0000
0001
0000
0000
0001
0000
,
1000
0000
0000
1000
0000
0000
1000
0000
,
0001
0000
1000
0001
0000
0000
0001
0000
,
1000
0000
0001
1000
0000
0000
1000
0000
,
0010
0000
0100
0010
0000
0000
0100
0000
,
0010
0000
0100
0010
0000
0000
0010
0000
,
0100
0000
0010
0100
0000
0000
0010
0000
,
0100
0000
0010
0100
0000
0000
0100
0000
,
0001
0000
1000
0100
0000
0000
1000
0000
,
0010
0000
0100
0010
0000
0000
1000
0000
,
0001
1000
0001
0001
,
0010
0100
0010
0010
,
0010
1000
0010
0010
,
2000
3200
0320
0032
,
1003
0010
1000
1000
,
1000
0001
1000
1000
,
0010
0100
0010
0010
,
0020
2030
3002
0203
,
0302
2003
3002
2003
,
3001
1000
0001
1000
0001
1000
0001
0000
,
1000
0000
1000
0000
1000
0100
0000
0000
,
0001
0000
0001
0000
0001
0100
0000
0000
,
0010
0000
0010
0000
0010
0100
0000
0000
,
1000
0010
0100
0001
,
1000
0000
0010
0000
1000
0100
0000
0000
,
0010
0000
0001
0000
0100
0010
0000
0000
,
0100
0001
1000
0100
,
0020
0032
2003
3200
,
0310
0000
0001
0000
1000
0100
0000
0100
,
1000
0000
0001
0000
0100
0010
0000
0010
,
0100
0000
0001
0000
0010
0100
0000
0100
,
0020
0032
2003
3200
,
0310
0000
0001
0000
1000
0100
0000
0100
,
1000
0000
0001
0000
0100
0001
0000
0001
,
0100
0010
0100
0010
,
1000
0000
0001
0000
1000
0100
1000
0100
,
2000
0000
0100
3100
,
0002
0000
0100
0103
,
2000
0000
0010
3010
,
0002
0023
0230
2300
,
3002
0000
0010
0013
,
2000
0000
0010
3010
,
0002
0000
0100
0103
,
2000
3200
0320
0032
,
2003
3002
2003
3002
,
0103
0010
0100
0010
0100
0010
0100
0000
,
0001
0000
0000
0000
,
0000
0000
0000
0000
,
1100
0000
0000
0000
,
0000
0000
0000
0000
,
0011
0000
0000
0000
,
0000
0000
0000
0000
,
0110
0000
0000
0000
,
1000
0001
1000
0001
,
1000
0100
0010
0010
,
0001
0100
0010
0010
,
1000
0001
0100
0100
,
0001
1000
0100
0100
,
1000
1000
0001
0010
,
0001
0001
1000
0010
,
0010
0010
0100
0001
,
0100
0100
0001
0100
,
2000
0000
0000
0100
0000
0000
3100
0000
,
0002
0000
0000
0100
0000
0000
0103
0000
,
2000
0000
0000
0010
0000
0000
3010
0000
,
0002
0000
0000
0010
0000
0000
0013
0000
,
1000
0000
0100
0010
0000
0010
0100
0000
,
1000
0000
1000
0100
0000
0100
0010
0000
,
0100
0000
0100
1000
0000
1000
0001
0000
,
0010
0000
0010
0001
0000
0002
2000
0000
,
0000
0000
0000
0000
,
0000
0000
0000
3003
,
0000
0000
2002
0000
,
3003
0000
0000
0000
;

//---------------dance-single - ----------------
#NOTES:
     dance-single:
     :
     Easy:
     6:
     0.223,0.234,0.016,0.248,0.000: // measure 1
0000
0000
0000
0000
,  // measure 2
0000
0000
0000
0000
,  // measure 3
0000
0000
0000
0000
,  // measure 4
0000
0000
0000
0000
,  // measure 5
1000
0000
0000
0000
,  // measure 6
0100
0000
0000
0000
,  // measure 7
0010
0000
0000
0000
,  // measure 8
0002
0000
0000
0000
,  // measure 9
2000
0000
0000
3003
,  // measure 10
0010
0010
0000
0100
,  // measure 11
0000
0001
0000
0010
,  // measure 12
0010
0010
0000
0100
,  // measure 13
0000
1000
0000
0001
,  // measure 14
0001
0001
0000
1000
,  // measure 15
0000
0010
0000
0100
,  // measure 16
0100
0100
0000
0001
,  // measure 17
0000
1000
0000
0100
,  // measure 18
0100
0000
0010
0000
,  // measure 19
0001
0000
1000
0000
,  // measure 20
0100
0100
0000
1000
,  // measure 21
0000
0001
0000
0100
,  // measure 22
0100
0100
0000
0010
,  // measure 23
0000
1000
0000
0001
,  // measure 24
0001
0001
0000
0010
,  // measure 25
0000
0100
0000
1000
,  // measure 26
1000
1000
0000
0010
,  // measure 27
0000
0100
0000
0001
,  // measure 28
0001
0001
0000
0010
,  // measure 29
0000
0100
0000
1000
,  // measure 30
1000
1000
0000
0010
,  // measure 31
0000
0100
0000
0001
,  // measure 32
0001
0001
0000
0010
,  // measure 33
0000
0100
0000
1000
,  // measure 34
1000
1000
0000
0100
,  // measure 35
0000
0010
0000
0001
,  // measure 36
0002
0000
0000
0003
,  // measure 37
2000
0000
3000
0100
,  // measure 38
0200
0000
0000
0300
,  // measure 39
0020
0000
0000
0030
,  // measure 40
0002
0000
0000
0003
,  // measure 41
0200
0000
0300
0010
,  // measure 42
0020
0000
0000
0030
,  // measure 43
2000
0000
0000
3000
,  // measure 44
0002
0000
0000
0000
,  // measure 45
2000
0000
0000
3003
,  // measure 46
0010
0010
0000
0000
,  // measure 47
1000
1000
0000
0000
,  // measure 48
0001
0001
0000
0000
,  // measure 49
0010
0010
0000
0000
,  // measure 50
0100
0100
0000
0000
,  // measure 51
1000
1000
0000
0000
,  // measure 52
0001
0001
0000
0000
,  // measure 53
0100
0100
0000
0000
,  // measure 54
0001
1000
0000
0001
,  // measure 55
0000
1000
0000
0001
,  // measure 56
0000
0010
0000
0100
,  // measure 57
0000
1000
0000
0010
,  // measure 58
0010
0010
0000
0100
,  // measure 59
0000
0001
0000
1000
,  // measure 60
0000
0100
0000
0010
,  // measure 61
0000
0001
0001
0001
,  // measure 62
0002
0000
0000
0003
,  // measure 63
2000
0000
3000
0001
,  // measure 64
0002
0000
0000
0003
,  // measure 65
0020
0000
0000
0030
,  // measure 66
0200
0000
0000
0300
,  // measure 67
2000
0000
3000
0010
,  // measure 68
0020
0000
0000
0030
,  // measure 69
0200
0000
0000
0300
,  // measure 70
0002
0000
0000
0000
,  // measure 71
2000
0000
0000
3003
,  // measure 72
0010
0000
0000
0000
,  // measure 73
0000
0000
0000
0000
,  // measure 74
0001
0000
0000
0000
,  // measure 75
0000
0000
0000
0000
,  // measure 76
0100
0000
0000
0000
,  // measure 77
0000
0000
0000
0000
,  // measure 78
1000
0000
0000
0000
,  // measure 79
0000
0000
0000
0000
,  // measure 80
0010
0000
0100
0000
,  // measure 81
0001
0001
0000
1000
,  // measure 82
1000
0000
0100
0000
,  // measure 83
0010
0010
0000
0001
,  // measure 84
0001
0000
1000
0000
,  // measure 85
0100
0100
0000
0010
,  // measure 86
0010
0000
0001
0000
,  // measure 87
1000
1000
0000
0100
,  // measure 88
0200
0000
0000
0000
,  // measure 89
0020
0000
0000
0330
,  // measure 90
0002
0000
0000
0000
,  // measure 91
2000
0000
0000
3003
,  // measure 92
2000
0000
0000
0000
,  // measure 93
0200
0000
0000
3300
,  // measure 94
0002
0000
0000
0003
,  // measure 95
0010
0000
0000
2002
,  // measure 96
0000
0000
0000
0000
,  // measure 97
0000
0000
0000
3003
,  // measure 98
0000
0000
1001
0000
;

//---------------dance-single - ----------------
#NOTES:
     dance-single:
     :
     Beginner:
     3:
     0.170,0.273,0.048,0.136,0.000: // measure 1
0000
0000
0000
0000
,  // measure 2
0000
0000
0000
0000
,  // measure 3
0000
0000
0000
0000
,  // measure 4
0000
0000
0000
0000
,  // measure 5
1000
0000
0000
0000
,  // measure 6
0100
0000
0000
0000
,  // measure 7
0010
0000
0000
0000
,  // measure 8
0001
0000
0000
0000
,  // measure 9
1000
0000
0000
0000
,  // measure 10
0010
0000
0010
0000
,  // measure 11
0010
0000
0000
0000
,  // measure 12
0100
0000
0100
0000
,  // measure 13
0100
0000
0000
0000
,  // measure 14
0001
0000
0001
0000
,  // measure 15
0001
0000
0000
0000
,  // measure 16
1000
0000
1000
0000
,  // measure 17
1000
0000
0000
0000
,  // measure 18
2002
0000
0000
0000
,  // measure 19
0000
0000
0000
3003
,  // measure 20
0010
0000
0010
0000
,  // measure 21
0010
0000
0000
0000
,  // measure 22
0100
0000
0100
0000
,  // measure 23
0100
0000
0000
0000
,  // measure 24
0010
0000
0010
0000
,  // measure 25
0010
0000
0000
0000
,  // measure 26
1000
0000
0001
0000
,  // measure 27
0100
0000
0000
0000
,  // measure 28
0010
0000
0010
0000
,  // measure 29
0010
0000
0000
0000
,  // measure 30
0100
0000
0100
0000
,  // measure 31
0100
0000
0000
0000
,  // measure 32
0010
0000
0010
0000
,  // measure 33
0010
0000
0000
0000
,  // measure 34
0001
0000
1000
0000
,  // measure 35
0100
0000
0000
0000
,  // measure 36
0002
0000
0000
0003
,  // measure 37
2000
0000
0000
3000
,  // measure 38
0002
0000
0000
0003
,  // measure 39
1000
1000
1000
1000
,  // measure 40
2000
0000
0000
3000
,  // measure 41
0002
0000
0000
0003
,  // measure 42
2000
0000
0000
3000
,  // measure 43
0020
0000
0000
0030
,  // measure 44
0100
0000
0000
0000
,  // measure 45
0110
0000
0000
0000
,  // measure 46
1000
0000
1000
0000
,  // measure 47
0001
0000
0001
0000
,  // measure 48
1000
0000
1000
0000
,  // measure 49
0001
0000
0000
0000
,  // measure 50
0001
0000
0001
0000
,  // measure 51
1000
0000
1000
0000
,  // measure 52
0001
0000
0001
0000
,  // measure 53
1000
0000
0000
0000
,  // measure 54
0010
0000
0000
0010
,  // measure 55
0010
0000
0000
1000
,  // measure 56
1000
0000
0000
0001
,  // measure 57
0001
0000
0000
0000
,  // measure 58
0100
0000
0000
0010
,  // measure 59
0010
0000
0000
1000
,  // measure 60
1000
0000
0000
0001
,  // measure 61
0001
0000
0000
0000
,  // measure 62
2000
0000
0000
3000
,  // measure 63
0002
0000
0000
0003
,  // measure 64
2000
0000
0000
3000
,  // measure 65
0001
0001
0001
0001
,  // measure 66
0002
0000
0000
0003
,  // measure 67
2000
0000
0000
3000
,  // measure 68
0002
0000
0000
0003
,  // measure 69
0020
0000
0000
0030
,  // measure 70
0100
0000
0000
0000
,  // measure 71
0110
0000
0000
0000
,  // measure 72
1000
0000
0000
0000
,  // measure 73
0000
0000
0000
0000
,  // measure 74
1001
0000
0000
0000
,  // measure 75
0000
0000
0000
0000
,  // measure 76
0010
0000
0000
0000
,  // measure 77
0000
0000
0000
0000
,  // measure 78
1001
0000
0000
0000
,  // measure 79
0000
0000
0000
0000
,  // measure 80
0100
0000
0100
0000
,  // measure 81
0100
0000
0000
0000
,  // measure 82
0001
0000
0001
0000
,  // measure 83
0001
0000
0000
0000
,  // measure 84
1000
0000
1000
0000
,  // measure 85
1000
0000
0000
0000
,  // measure 86
0010
0000
0010
0000
,  // measure 87
0010
0000
0000
0000
,  // measure 88
0100
0000
0001
0000
,  // measure 89
0010
0000
0000
0000
,  // measure 90
0100
0000
1000
0000
,  // measure 91
0010
0000
0000
0000
,  // measure 92
0100
0000
0001
0000
,  // measure 93
1000
0000
0000
0000
,  // measure 94
0100
0000
1000
0000
,  // measure 95
0001
0000
0000
2000
,  // measure 96
0000
0000
0000
0000
,  // measure 97
0000
0000
0000
3000
,  // measure 98
0000
0000
1001
0000
;
