#TITLE:Proud of You;
#SUBTITLE:;
#ARTIST:DJ Hobo feat. Fiona Fung;
#TITLETRANSLIT:;
#SUBTITLETRANSLIT:;
#ARTISTTRANSLIT:;
#CREDIT:;
#BANNER:Proud of You.png;
#BACKGROUND:Proud of You-bg.png;
#LYRICSPATH:;
#CDTITLE:cdtitle.png;
#MUSIC:Proud of You.mp3;
#OFFSET:-0.069;
#SAMPLESTART:43.874;
#SAMPLELENGTH:14.600;
#SELECTABLE:YES;
#BPMS:0.000=130.000;
#STOPS:;
#BGCHANGES:;

//---------------dance-single - ----------------
#NOTES:
     dance-single:
     :
     Challenge:
     10:
     0.448,0.480,0.060,0.335,0.099: // measure 1
0000
0000
0000
0000
,  // measure 2
0000
0000
0000
0000
,  // measure 3
0000
0000
0000
0000
,  // measure 4
0000
0000
0000
0000
,  // measure 5
2000
3000
0002
0003
0020
0030
0200
0300
,  // measure 6
2000
3000
0020
0030
0200
0300
0002
0003
,  // measure 7
2001
0000
0010
0000
0010
0000
3010
1000
,  // measure 8
1002
0000
0010
0000
0010
0000
0013
0001
,  // measure 9
1000
0000
0001
0010
0100
0000
0001
0010
,  // measure 10
0100
0010
0001
0010
0100
0000
1000
0100
,  // measure 11
0010
0000
1000
0100
0010
0000
0001
0100
,  // measure 12
0020
0000
0000
0100
0130
0000
1000
0001
,  // measure 13
0100
0000
1000
0001
0100
0000
0001
0010
,  // measure 14
0100
1000
0010
0100
0001
0000
1000
0010
,  // measure 15
0100
0010
1000
0100
0010
0000
0001
0100
,  // measure 16
0010
0100
0001
0010
0100
0000
1000
0001
,  // measure 17
0002
0000
0000
0013
0010
0100
0100
1000
,  // measure 18
2000
0000
0000
3001
0001
0010
0010
0100
,  // measure 19
0200
0000
0000
1300
1000
0100
0100
0010
,  // measure 20
0020
0000
0000
0031
0010
0100
1000
0100
,  // measure 21
0020
0000
0000
0031
0001
0100
0100
0010
,  // measure 22
0020
0000
0000
1030
1000
0100
0100
0010
,  // measure 23
0020
0000
0000
0031
1000
0100
1000
0001
,  // measure 24
0200
0000
0000
0010
0010
0000
0310
1000
,  // measure 25
0010
0000
0010
1000
0010
0000
0100
0001
,  // measure 26
0100
0000
0100
0000
0100
0000
0010
1000
,  // measure 27
0100
0000
0010
0000
0100
0000
0010
0001
,  // measure 28
0100
0000
0010
0000
0100
0000
0001
0100
,  // measure 29
0010
0000
0001
0100
0010
0000
1000
0100
,  // measure 30
0010
0000
1000
0000
0010
0000
0001
0100
,  // measure 31
1000
0000
0001
0000
1000
0000
0001
0010
,  // measure 32
0100
1000
0100
0010
0001
0001
1000
1000
,  // measure 33
0001
0000
0000
0001
1000
0000
0000
1000
0100
0000
0000
0100
0001
0000
0000
0000
,  // measure 34
0100
0000
0000
0100
1000
0000
0000
1000
0010
0000
0000
0010
0001
0000
0000
0000
,  // measure 35
0001
0010
1000
0100
0001
0000
1010
0000
,  // measure 36
1000
0010
0001
0100
1000
0000
1000
0100
,  // measure 37
0001
0000
0000
0000
0000
0000
0000
0100
1000
0000
0000
0100
1000
0000
0100
0000
,  // measure 38
0001
0000
0000
0000
0000
0000
0000
0010
0001
0000
0000
0010
0001
0000
0010
0000
,  // measure 39
1000
0000
0000
0000
0000
0000
0000
0001
0010
0000
0000
0010
1000
0000
0010
0000
,  // measure 40
0100
0000
0000
0000
0000
0000
0000
1000
0010
0000
0000
1000
0001
0000
0100
0000
,  // measure 41
0010
0000
0000
0010
1000
0000
0000
1000
0010
0000
0000
0010
0001
0000
1000
0000
,  // measure 42
0001
0000
0000
0001
0010
0000
0000
0100
1000
0000
0000
0100
0010
0000
0100
0000
,  // measure 43
0001
0000
0000
1000
0010
0000
0000
0100
0001
0000
0000
0100
0010
0000
1000
0000
,  // measure 44
0100
0000
0100
0000
0100
0010
0100
0010
,  // measure 45
0100
0000
0100
0000
0100
0000
0010
0100
,  // measure 46
0010
0000
0010
0000
0010
0000
1000
0001
,  // measure 47
1000
0000
1000
0000
1000
0000
0001
1000
,  // measure 48
0001
0000
0001
0000
0001
0000
0010
0100
,  // measure 49
1000
0000
1000
0000
1000
0000
0100
0010
,  // measure 50
0001
0000
0001
0000
0001
0000
0100
0001
,  // measure 51
0010
0000
0010
0000
0010
0000
0100
1000
,  // measure 52
0010
0000
0010
0000
0010
0100
0010
0100
,  // measure 53
0020
2030
3002
0203
,  // measure 54
0320
2030
3200
0320
,  // measure 55
0032
0203
0302
0023
,  // measure 56
0230
2300
3002
0203
,  // measure 57
0310
1010
0100
0101
,  // measure 58
0001
1001
0100
0110
,  // measure 59
0001
0100
1000
0010
0002
0000
0000
0000
,  // measure 60
1003
0100
0001
0010
2000
0000
0000
0000
,  // measure 61
0000
0000
0000
3020
,  // measure 62
0002
0000
0000
0000
,  // measure 63
0033
0000
0000
0000
;

//---------------dance-single - ----------------
#NOTES:
     dance-single:
     :
     Medium:
     7:
     0.290,0.315,0.129,0.172,0.000:
0000
0000
0000
0000
,
0000
0000
0000
0000
,
0000
0000
0000
0000
,
0000
0000
0000
0000
,
1000
1000
0001
0001
,
1000
1000
0001
0001
,
0010
0100
1000
0001
,
0200
0000
0020
0330
,
1000
0000
1001
0000
0001
0000
1000
0100
,
0001
0000
0100
0000
1000
0000
1000
0010
,
0001
0010
1000
0001
,
1000
0000
0000
1000
0001
0000
1000
0000
,
0001
0000
1000
0001
0100
0000
0001
0000
,
1000
0100
0001
0100
1000
0000
0010
0000
,
0010
0000
0100
0001
0100
0000
0010
0000
,
0010
0000
1000
0100
1000
0000
0001
0000
,
0020
0000
0130
1000
,
0002
0000
0103
0001
,
2000
0000
3010
1000
,
0200
0000
0310
0001
,
2000
0000
3100
0010
,
0200
0000
1300
0001
,
0200
0000
0310
1000
,
0002
0000
2000
3003
,
1001
0000
1001
0000
,
0110
0000
0110
0000
,
1010
0000
1010
0000
,
0101
0000
0101
0000
,
1002
0000
0013
0000
,
2001
0000
3010
0000
,
1002
0000
0103
0000
,
2001
0000
3100
0000
,
0001
0100
0010
0100
,
0001
1000
0100
0010
,
0100
0100
1000
1000
,
0001
0000
0001
0100
0001
0000
0001
0000
,
1000
1000
0001
0001
,
0010
0100
1000
1000
,
0100
0010
0001
0001
,
2000
0001
0001
3001
,
1000
0010
0100
0001
,
0100
0010
1000
0100
,
0010
0010
0001
0001
,
1000
0000
0001
0000
1000
0001
1000
0000
,
0001
0010
0001
0010
,
0100
1000
0100
1000
,
0010
1000
0010
1000
,
0001
0100
0001
0100
,
0010
0010
0100
0100
,
0001
0001
1000
1000
,
0001
0010
0100
1000
,
0001
1000
0001
1000
0001
1000
0001
0000
,
1000
0100
0010
0000
,
0001
0010
0100
0000
,
1000
0001
0100
0000
,
0001
1000
0100
0000
,
0010
0000
0110
0000
,
0001
0000
1001
0000
,
2000
0000
0000
0001
0002
0000
3003
0000
,
0002
0000
0000
1000
2000
0000
3003
0000
,
0000
0000
0000
0010
,
0100
0000
0000
0000
;

//---------------dance-single - ----------------
#NOTES:
     dance-single:
     :
     Beginner:
     2:
     0.130,0.157,0.060,0.060,0.000:
0000
0000
0000
0000
,
0000
0000
0000
0000
,
0000
0000
0000
0000
,
0000
0000
0000
0000
,
1000
0000
0000
0000
,
1000
0000
0000
0000
,
0001
0000
0000
0000
,
0001
0000
0000
0000
,
1000
0000
1000
0000
,
1000
0000
0000
0000
,
0100
0000
0100
0000
,
0100
0000
0000
0000
,
0010
0000
0010
0000
,
0010
0000
0000
0000
,
0001
0000
0001
0000
,
0001
0000
0001
0001
,
0002
0000
0000
0003
,
0000
0000
0010
0010
,
0020
0000
0000
0030
,
0000
0000
0100
0100
,
0200
0000
0000
0300
,
0000
0000
1000
1000
,
2000
0000
0000
3000
,
0000
0000
0001
0001
,
0001
0001
0001
0000
,
0001
0000
0000
0000
,
1000
1000
1000
0000
,
1000
0000
0000
0000
,
0010
0010
0010
0000
,
0010
0000
0000
0000
,
0100
0100
0100
0000
,
0100
0000
0000
0000
,
0001
0000
0001
0000
,
1001
0000
0000
0000
,
1000
0000
1000
0000
,
1001
0000
0000
0000
,
1001
0000
0000
0000
,
0110
0000
0000
0000
,
1001
0000
0000
0000
,
0110
0000
0000
0000
,
2002
0000
0000
3003
,
0000
0000
0000
0000
,
0001
0000
1000
0000
,
0001
0001
0001
0000
,
0001
0000
0001
0000
,
0010
0000
0000
0000
,
0100
0000
0100
0000
,
1000
0000
0000
0000
,
1000
0000
0010
0000
,
0010
0000
0000
0000
,
0001
0000
0100
0000
,
0100
0100
0100
0000
,
1000
0000
0000
0001
,
0001
0000
0000
0010
,
0010
0000
0000
0100
,
0100
0000
0000
1000
,
1000
0000
0000
0001
,
0001
0000
0000
1000
,
1000
0000
1000
0000
,
0001
0000
0002
0000
,
0000
0000
0000
0000
,
0003
0000
0000
0000
;

//---------------dance-single - ----------------
#NOTES:
     dance-single:
     :
     Easy:
     5:
     0.209,0.210,0.034,0.043,0.000:
0000
0000
0000
0000
,
0000
0000
0000
0000
,
0000
0000
0000
0000
,
0000
0000
0000
0000
,
1000
1000
1000
0000
,
0001
0001
0001
0000
,
1000
1000
1000
0000
,
0001
0001
0001
0000
,
1000
1000
0010
0010
,
0100
0100
0001
0000
,
0001
0001
0010
0010
,
0100
0100
1000
0000
,
0001
0000
0001
0000
,
0001
0001
0001
0000
,
1000
0000
1000
0000
,
1000
1000
1000
0000
,
0010
0010
0010
0010
,
0010
0000
0110
0000
,
0100
0100
0100
0100
,
0100
0000
0110
0000
,
0001
1000
0001
1000
,
0001
0000
1001
0000
,
1000
0001
1000
0001
,
1000
0000
1001
0000
,
0001
0001
0001
0000
,
0010
0010
0010
0000
,
0100
0100
0100
0000
,
2000
0000
3001
0000
,
1000
1000
1000
0000
,
0010
0010
0010
0000
,
0100
0100
0100
0000
,
0002
0000
1003
0000
,
1000
0001
1000
0001
,
1000
0010
1000
0000
,
0010
0100
0010
0100
,
0001
0100
0001
0000
,
0001
0010
0010
0000
,
0100
1000
1000
0000
,
0010
0100
0100
0000
,
0001
0100
0100
0000
,
0010
1000
0010
1000
,
0010
1000
0010
0000
,
0100
0001
0100
0001
,
0100
0001
0100
0000
,
0001
0000
0010
0000
,
0100
0000
1000
0000
,
0001
0010
0100
1000
,
0002
0000
1003
0000
,
1000
0000
0100
0000
,
0010
0000
0001
0000
,
1000
0100
0010
0001
,
2000
0000
3001
0000
,
1000
0000
1000
0000
,
0001
0000
0001
0000
,
0010
0000
0010
0000
,
0100
0000
0100
0000
,
0010
0000
1000
0000
,
0001
0000
0100
0000
,
1000
1000
1000
0000
,
0001
0000
0002
0000
,
0000
0000
0000
1000
,
1003
0000
0000
0000
;

//---------------dance-single - ----------------
#NOTES:
     dance-single:
     :
     Hard:
     11:
     0.511,0.559,0.258,0.112,0.017: // measure 1
0000
0000
0000
0000
,  // measure 2
0000
0000
0000
0000
,  // measure 3
0000
0000
0000
0000
,  // measure 4
0000
0000
0000
0000
,  // measure 5
1000
0100
0010
0000
1000
0100
0010
0000
,  // measure 6
0001
0010
0100
0000
0001
0010
0100
0000
,  // measure 7
1000
0010
0100
0000
1000
0010
0100
0000
,  // measure 8
0001
0010
0100
0000
0001
0010
0100
0000
,  // measure 9
1000
0001
0100
0001
1000
0001
0100
0000
,  // measure 10
0001
1000
0100
1000
0001
1000
0100
0000
,  // measure 11
1000
0100
0010
0100
1000
0100
0010
0001
,  // measure 12
0200
0302
2003
3001
,  // measure 13
0001
0010
0100
0010
0001
0010
0100
1000
,  // measure 14
0010
0100
0001
0100
0010
0100
0001
1000
,  // measure 15
0100
0100
0010
0010
0001
0000
1001
0000
,  // measure 16
1000
1000
0100
0100
0010
0000
0110
0000
,  // measure 17
0001
0010
0100
0010
0001
0010
0100
1000
,  // measure 18
0100
0010
0100
1000
0100
0010
0100
1000
,  // measure 19
0010
0100
0001
0100
0010
0100
0001
0100
,  // measure 20
0010
1000
0010
1000
0100
0010
0001
0000
,  // measure 21
0010
0100
1000
0010
1000
0100
1000
0010
,  // measure 22
1000
0100
0001
0100
1000
0100
0001
0100
,  // measure 23
1000
0010
0100
0001
0100
0010
0100
0001
,  // measure 24
0010
0100
1000
0001
1000
0100
1000
0000
,  // measure 25
0001
0001
0010
0100
2000
0010
3010
0000
,  // measure 26
0100
0100
0001
0010
0200
1000
1300
0000
,  // measure 27
0001
0100
0010
0100
0002
0010
0013
0000
,  // measure 28
0001
1000
0001
0100
0020
1000
1030
0000
,  // measure 29
0001
0010
1000
0010
0002
0100
0103
0000
,  // measure 30
0010
1000
0100
0010
0200
1000
1300
0000
,  // measure 31
0010
1000
0010
0000
0100
0001
0100
0000
,  // measure 32
1010
0000
0101
0000
0001
0010
0100
1000
,  // measure 33
0001
1100
1000
0101
,  // measure 34
0001
0010
0100
1000
0100
0010
0001
1000
,  // measure 35
0010
0101
0010
1100
,  // measure 36
1000
0001
1000
0000
0010
0100
0010
0000
,  // measure 37
1000
0100
0010
0001
0000
1000
0000
0001
,  // measure 38
1000
0100
0010
0001
0000
1000
0000
0010
,  // measure 39
0100
0001
0100
0010
0000
1000
0000
0100
,  // measure 40
0010
0001
0010
0100
1000
0010
0100
0001
,  // measure 41
1001
1100
1001
0101
,  // measure 42
1001
1010
1001
0011
,  // measure 43
0001
0010
0100
1000
1001
0000
0110
0000
,  // measure 44
1000
0100
0010
0001
1001
0000
0110
0000
,  // measure 45
0010
1000
0100
1000
0010
1000
0100
0000
,  // measure 46
0010
0001
0100
0001
0010
0001
0100
0000
,  // measure 47
0001
0100
1000
0000
1000
0100
0001
0000
,  // measure 48
0001
0010
1000
0010
0001
0100
1000
0000
,  // measure 49
0100
0001
0010
0100
1000
0100
0010
0001
,  // measure 50
0100
0010
0100
0001
1000
0100
1000
0001
,  // measure 51
0100
0010
0100
1000
0100
0010
0001
0010
,  // measure 52
1000
0100
0010
0001
1000
1000
0001
0001
,  // measure 53
0110
0110
1001
1001
,  // measure 54
0011
1100
0110
1001
,  // measure 55
0001
0010
0100
0000
1000
0100
0010
0000
,  // measure 56
0001
0100
0010
0000
1000
0100
0010
0000
,  // measure 57
0001
0010
0001
0000
1000
0000
1000
0000
0010
1000
0010
0000
0100
0000
0100
0000
,  // measure 58
0001
0010
0001
0000
0100
0000
0100
0000
0010
0100
0010
0000
1000
0000
1000
0000
,  // measure 59
0001
0100
1000
0100
0002
0000
0000
0000
,  // measure 60
1003
0100
0001
0100
2000
0000
0000
0000
,  // measure 61
0000
0000
3000
0011
,  // measure 62
2200
0000
0000
0000
,  // measure 63
3300
0000
0000
0000
;
