#TITLE:Promise for Life;
#SUBTITLE:;
#ARTIST:TЁЯRA WORKS;
#TITLETRANSLIT:;
#SUBTITLETRANSLIT:;
#ARTISTTRANSLIT:TERRA WORKS;
#CREDIT:;
#BANNER:Promise for Life.png;
#BACKGROUND:Promise for Life-bg.png;
#LYRICSPATH:;
#CDTITLE:cdtitle.png;
#MUSIC:Promise for Life.mp3;
#OFFSET:-0.428;
#SAMPLESTART:73.234;
#SAMPLELENGTH:13.000;
#SELECTABLE:YES;
#BPMS:0.000=70.000;
#STOPS:;
#BGCHANGES:;

//---------------dance-single - ----------------
#NOTES:
     dance-single:
     :
     Hard:
     11:
     0.425,0.374,0.231,0.131,0.339: // measure 1
0000
0000
0000
0000
,  // measure 2
1000
0000
0001
0100
0001
0000
0001
0000
0010
0000
0001
0000
0010
0000
0100
0000
,  // measure 3
1000
0000
0100
0010
0000
0100
0000
1000
0000
0100
1000
0000
0020
0000
0130
0000
,  // measure 4
0001
0000
0010
0100
0000
0010
0001
0010
0100
0000
1000
0000
1000
0000
0100
0000
,  // measure 5
0010
0000
0001
0100
0000
0001
0100
0010
1000
0000
0100
0000
0010
0000
0002
0000
,  // measure 6
0103
0000
0010
0000
1000
0000
0001
1000
0001
0000
2000
0000
3010
0000
0100
0000
,  // measure 7
0001
0000
1000
0001
0000
1000
0000
0001
0000
1000
0100
0000
0010
0000
0100
0000
,  // measure 8
1000
0000
0001
0000
1000
0000
0100
0010
0001
0000
1000
0000
0100
0000
0010
0000
,  // measure 9
0001
0100
0010
1000
1010
0010
0100
0001
,  // measure 10
0101
0000
0100
0000
0001
0000
1000
0001
0100
0000
0010
0000
1000
0000
0001
0000
,  // measure 11
1001
0000
0001
0000
0100
0000
0010
0000
0100
0000
0001
0000
0010
0100
1000
0001
,  // measure 12
1001
0000
1000
0000
0010
0000
0100
0001
0100
0000
0010
0000
1000
0000
0010
0000
,  // measure 13
0110
0100
0001
0010
0110
0100
1100
1000
,  // measure 14
1001
0001
0100
0010
0000
1000
0001
0000
0010
0000
0100
1000
0100
0000
0010
0000
,  // measure 15
0101
0100
0010
2002
3003
0000
1000
0001
,  // measure 16
1001
0000
1000
0000
0001
0000
0100
0010
0100
0000
0001
0000
0010
0000
0100
1000
,  // measure 17
0100
0000
0000
0110
0000
0000
0001
0000
1001
0000
1010
0000
0110
0000
0101
0000
,  // measure 18
2001
0000
0000
0000
3020
0000
0000
0000
0130
0000
0001
0010
0000
0001
0100
0010
,  // measure 19
1000
0000
0010
0000
0100
0000
0001
0000
1000
0000
0001
0100
0000
0001
0000
0100
,  // measure 20
0000
0001
0010
0100
1000
0000
0001
0100
0001
0000
1000
0000
0001
0000
1000
0100
,  // measure 21
1000
0000
0001
0000
1000
0000
0010
0000
0110
0000
0001
1000
0000
0001
0010
0100
,  // measure 22
1000
0010
0100
0001
0100
0010
1000
0100
0010
0000
0001
0100
0000
0001
0010
0100
,  // measure 23
1000
0000
0001
0100
0001
0000
1000
0000
0010
0000
0100
0001
0000
1000
0000
1001
,  // measure 24
0000
0010
0100
1000
0010
0000
0100
0001
0100
0000
0020
0000
1030
0000
0100
0001
,  // measure 25
0100
0000
2000
0000
3010
0000
0001
0100
0001
0000
0010
1000
0000
0001
0100
0000
,  // measure 26
1001
0000
0001
0000
1000
0001
1000
0010
0100
0000
0001
0010
0100
0000
1000
0001
,  // measure 27
0100
0000
1000
0010
0100
0010
1000
0001
0010
0000
2000
0000
3001
0000
0010
0001
,  // measure 28
0100
0000
0010
1000
0100
1000
0010
0100
0001
0000
1000
0100
1000
0000
0001
0010
,  // measure 29
0001
0000
1000
0010
0100
0000
0001
0000
1000
0000
0001
0010
0100
0000
1000
0000
,  // measure 30
0002
0000
0203
0000
0320
0000
1030
0000
1001
0000
1000
0100
1000
0000
0001
0100
,  // measure 31
0001
0000
1000
0000
0010
0100
0001
0100
0010
0000
1000
0100
1000
0000
0001
0010
,  // measure 32
0100
0000
1000
0000
0001
0011
0000
1100
1000
0000
1000
0010
1000
0000
0002
0000
,  // measure 33
0103
0000
1000
0010
0100
0000
0002
0000
0013
0000
1000
0000
1001
0000
0010
0000
,  // measure 34
0110
0000
0001
0000
1001
0000
1000
0000
1100
0000
1000
0001
0100
0000
0010
0000
,  // measure 35
0110
0000
0001
0010
0001
0000
1000
0000
0110
0000
0001
0010
0100
0000
1000
0000
,  // measure 36
1002
0000
0010
0000
0010
0000
1000
1000
2000
0000
0000
0000
0000
0000
0000
0000
,  // measure 37
3003
0000
0000
0000
;

//---------------dance-single - ----------------
#NOTES:
     dance-single:
     :
     Medium:
     6:
     0.262,0.236,0.069,0.185,0.000:
0000
0000
0000
0000
,
1000
0001
0100
0010
0100
0001
1000
0000
,
0002
0000
0023
0000
0130
0100
0100
0000
,
1000
0010
1000
0000
0001
0100
0001
0000
,
1000
0010
0100
0001
0010
0100
1000
0000
,
0001
0001
0001
0000
1000
1000
1000
0000
,
0020
0230
0302
2003
,
3001
0100
0001
0000
1000
0100
1000
0000
,
0001
0010
0100
0000
1000
0100
0010
0000
,
1001
1000
0001
0000
1000
0001
1001
0000
,
0010
1000
0100
1000
0010
0100
0001
0000
,
1000
0001
0100
0000
0001
1000
0100
0000
,
0010
0001
1000
0100
1000
0001
0010
0000
,
1000
0010
1010
0000
0001
0100
0101
0000
,
1000
0000
0001
1001
0000
0000
1000
0010
,
1000
0000
0001
0100
0001
0000
1000
0010
,
0200
0000
0302
0000
1003
0001
1000
0001
,
2001
0000
3020
0000
0130
0001
0100
0000
,
0010
1000
0100
0000
0010
0001
0100
0001
,
0020
0000
0230
0000
1300
0001
0100
0000
,
0001
0001
1000
1000
0010
0100
0001
0010
,
0100
0100
0010
0010
0200
0000
1300
0000
,
0002
0000
0103
0000
0010
1000
0010
0000
,
0100
0001
0100
0000
0001
0001
1000
0000
,
1000
1000
0001
0000
2000
0000
3002
0000
,
0103
0010
0100
0010
0110
0000
1001
0000
,
1000
0010
0100
0000
0001
0010
0001
1000
,
0100
0010
0001
0000
1000
0100
0001
0000
,
1000
0010
0001
0000
1000
0010
0100
0001
,
0100
0010
1000
0000
0002
0000
0013
0000
,
2000
0000
3100
0000
0010
1000
0100
0000
,
0010
0001
0100
0000
0001
1000
0001
0000
,
1000
0001
1000
0000
0020
0000
0230
0000
,
0302
0000
2003
0000
3001
0010
0100
0000
,
1000
0100
0010
0000
1000
0010
0100
0000
,
0001
0010
0100
0000
2002
0000
0000
0000
,
3003
0000
0000
0000
;

//---------------dance-single - ----------------
#NOTES:
     dance-single:
     :
     Easy:
     3:
     0.154,0.180,0.092,0.177,0.000:
0000
0000
0000
0000
,
1000
0010
1000
0000
,
0001
0010
0001
0000
,
2000
3000
0002
0003
,
1000
0001
0200
0300
,
0010
0010
0010
0000
,
0100
0100
0100
0000
,
1000
0001
1000
0010
,
0200
0000
0300
0000
,
1001
0000
0110
0000
,
1000
0010
0100
0001
,
2000
3000
0002
0003
,
1000
0001
1000
0010
,
0100
0100
0010
0010
,
1000
0000
0000
1001
0000
0000
1000
0000
,
0002
0003
2000
3000
,
0020
0130
0010
0100
,
0002
2003
3010
0100
,
0001
1000
0001
1000
,
1001
0000
0110
0000
,
1000
0100
0001
0100
,
1000
0010
0110
0000
,
1001
0000
2000
3020
,
0230
0302
1003
0000
,
1001
0000
0010
1000
,
0010
0100
0002
0003
,
2000
3000
0010
0100
,
0110
0000
1000
0001
,
1000
0010
0100
0001
,
0100
0010
0200
0300
,
0020
0030
2000
3000
,
0002
0003
1000
1000
,
0001
0000
0100
0100
,
0010
0000
0110
0000
,
1001
0000
1000
0100
,
0010
0001
2002
0000
,
3003
0000
0000
0000
;

//---------------dance-single - ----------------
#NOTES:
     dance-single:
     :
     Beginner:
     1:
     0.055,0.055,0.039,0.023,0.000:
0000
0000
0000
0000
,
1000
0000
0000
0000
,
0001
0000
0000
0000
,
0100
0000
0000
0000
,
0010
0000
0000
0000
,
1000
0000
1000
0000
,
1000
0000
0000
0000
,
0001
0000
0001
0000
,
0001
0000
0000
0000
,
1001
0000
0000
0000
,
0000
0000
0000
0000
,
0110
0000
0000
0000
,
0000
0000
0000
0000
,
1000
0000
1000
0000
,
1000
0000
0000
0000
,
0001
0000
0001
0000
,
0001
0000
0000
0000
,
1000
0000
0002
0003
,
0000
0000
0200
0300
,
0000
0000
0020
0030
,
0000
0000
1000
0000
,
1000
0000
1000
0000
,
0000
0000
1000
0000
,
0000
0000
0001
0000
,
0000
0000
0100
0000
,
0000
0000
0100
0000
,
0000
0000
0010
0000
,
0000
0000
0010
0000
,
0010
0000
0010
0000
,
0000
0000
1001
0000
,
0000
0000
1001
0000
,
0000
0000
1000
0000
,
1000
0000
1000
0000
,
0000
0000
0001
0000
,
0001
0000
0001
0000
,
0000
0000
1001
0000
;
