#TITLE:Programmed Sun;
#SUBTITLE:;
#ARTIST:kors k;
#TITLETRANSLIT:;
#SUBTITLETRANSLIT:;
#ARTISTTRANSLIT:;
#GENRE:;
#CREDIT:;
#MENUCOLOR:;
#METERTYPE:DDR;
#BANNER:Programmed Sun.png;
#BACKGROUND:Programmed Sun-bg.png;
#LYRICSPATH:;
#CDTITLE:cdtitle.png;
#MUSIC:Programmed Sun.mp3;
#OFFSET:-0.032;
#SAMPLESTART:81.687;
#SAMPLELENGTH:14.000;
#SELECTABLE:YES;
#LISTSORT:;
#BPMS:0.000=144.000;
#STOPS:;
#BGCHANGES:;
#ATTACKS:;

//---------------dance-single - ----------------
#NOTES:
     dance-single:
     :
     Challenge:
     13:
     0.604,0.671,0.248,0.136,0.388: // measure 1
0000
0000
0000
0000
,  // measure 2
0000
0000
0000
0000
,  // measure 3
0000
0000
0000
0000
,  // measure 4
0000
0000
0000
0000
,  // measure 5
0000
0000
0000
0000
,  // measure 6
0001
0100
0000
0100
0000
0100
0000
0100
,  // measure 7
0010
1000
0000
1000
0000
1000
0000
1000
,  // measure 8
0001
0010
0000
0010
0000
0010
0000
0010
,  // measure 9
0100
0000
1000
0000
0001
0100
0001
0100
0000
0000
0010
0000
0110
0000
0000
0000
,  // measure 10
0001
0010
0100
1001
0000
0001
0100
0010
,  // measure 11
0100
0001
0010
1000
0000
0010
0100
1000
,  // measure 12
0001
0100
0010
1000
0000
0010
0100
0001
,  // measure 13
0010
0000
1000
0000
0010
0000
0001
0000
1000
0100
1000
0000
0100
0000
0001
0000
,  // measure 14
0100
1000
0010
0100
0000
0001
0010
1000
,  // measure 15
0010
0100
1000
0010
0000
0100
0001
0010
,  // measure 16
0100
1000
0010
0100
0010
0001
0010
0100
,  // measure 17
0001
0000
1000
0000
1001
0000
0000
0110
0000
0000
1100
0000
0101
0000
0000
0000
,  // measure 18
0001
0100
0010
1001
0000
1000
0010
0100
,  // measure 19
0001
0010
0100
1000
0000
0010
0100
0001
,  // measure 20
0100
0010
1000
0100
0000
0001
0100
1000
,  // measure 21
0010
0000
0001
0000
1000
0000
0100
0000
0001
0010
0001
0000
0010
0000
0100
0000
,  // measure 22
1001
0000
1001
0000
0000
0000
0000
0110
0000
0000
1001
0000
0000
0000
0110
0000
,  // measure 23
0000
0000
0001
0000
0101
0000
0000
1010
0000
0000
0110
0000
0001
1000
0001
1000
,  // measure 24
0001
0000
0100
0000
1000
0000
0100
0000
0001
0000
0010
0000
1000
0000
0010
0001
,  // measure 25
0020
0000
0100
0000
0130
0000
0100
0000
1001
0000
1001
0000
1000
0100
0001
0000
,  // measure 26
0200
0000
1000
0000
0000
1000
0000
1000
,  // measure 27
0000
1000
1000
0000
1000
0000
1000
0000
,  // measure 28
2300
0000
0001
0000
0000
0001
0000
0001
,  // measure 29
3002
0100
0100
0100
,  // measure 30
0203
0000
0010
0000
0000
0010
0000
0010
,  // measure 31
0320
1000
1000
1000
,  // measure 32
2030
0000
0001
0000
0000
0001
0000
0001
,  // measure 33
3002
0010
0010
0010
,  // measure 34
0013
0100
2000
0002
0000
3003
0000
0110
,  // measure 35
0000
0010
0010
0000
1100
0000
0011
0000
,  // measure 36
0001
0100
2000
0200
0000
3300
0000
0101
,  // measure 37
0000
0001
0001
0000
0011
0000
1100
0000
,  // measure 38
0010
1000
0200
0020
0000
0330
0000
1001
,  // measure 39
0000
0010
0010
0000
0101
0000
1010
0000
,  // measure 40
1002
0000
0100
0000
0100
0000
0103
0001
,  // measure 41
0020
0100
0100
0130
,  // measure 42
1000
0001
0000
0000
1000
0000
0000
0000
0001
0000
0010
0000
1000
0000
0000
0000
,  // measure 43
0001
1000
0000
0000
0001
0000
0000
0000
1000
0000
0010
0000
0001
0000
0000
0000
,  // measure 44
0010
0100
0000
0000
0010
0000
0000
0000
0100
0000
0001
0000
0010
0000
0000
0000
,  // measure 45
0100
0010
0000
0000
0010
0000
0000
0000
0100
0000
1000
0000
0010
0000
0000
0000
,  // measure 46
0001
0100
0000
0000
0001
0000
0000
0010
0000
0000
0001
0000
0100
0000
0010
0000
,  // measure 47
1000
0100
0000
0000
0001
0000
0000
0100
0000
0000
1000
0000
0010
0000
0100
0000
,  // measure 48
0001
0010
0000
0000
0001
0000
0000
0100
0000
0000
1000
0000
0100
0000
0001
0010
,  // measure 49
0002
0000
0000
1000
0000
0000
1000
0000
0000
1003
0000
0000
0001
0000
0010
0000
0100
0000
1000
0000
0000
0010
0000
0000
,  // measure 50
0010
1000
0000
0000
0100
0000
0000
0010
0000
0100
1000
0000
0001
0000
0100
0010
,  // measure 51
0000
1000
0000
0000
0001
0000
0000
0100
0000
0001
0010
0000
0001
0000
1000
0100
,  // measure 52
0000
0010
0000
0000
0100
0000
0000
1000
0000
0001
0100
0000
0001
0010
0000
0001
,  // measure 53
0100
0001
0000
0000
0010
0000
0000
1000
0000
0010
0001
0000
0100
0000
0001
0010
,  // measure 54
0000
0100
0000
0000
1000
0000
0000
0010
0000
0010
0100
0000
0001
0000
1000
0100
,  // measure 55
0000
1000
0000
0000
0010
0000
0000
0100
0000
0001
0100
0000
0010
0000
1000
0100
,  // measure 56
0000
1000
0000
0000
0010
0000
0000
0100
0000
0001
0100
0000
1000
0000
0100
0001
,  // measure 57
0100
0000
0110
0000
1000
0001
1000
0001
1000
0000
0010
0000
0100
0000
0001
1000
,  // measure 58
0001
0010
0100
1000
0001
0100
0010
1000
,  // measure 59
0100
0001
0100
1000
0010
0100
0001
0010
,  // measure 60
0100
0001
0100
1000
0100
0010
0001
0100
,  // measure 61
0010
0000
1000
0000
0010
0000
0001
0000
0010
0000
1000
0001
1000
0000
0000
0000
,  // measure 62
0010
0100
0001
1000
0100
0001
0100
1000
,  // measure 63
0010
0001
1000
0100
0001
0010
0001
0100
,  // measure 64
1000
0001
1000
0100
0001
1000
0001
0010
,  // measure 65
0100
0000
1000
0000
0001
0000
0100
0000
0001
0000
0010
0100
0010
0000
0000
0000
,  // measure 66
0001
0000
1000
0100
0000
0100
0000
0100
0010
0000
0001
0100
0000
0100
0000
0100
,  // measure 67
0010
0000
1000
0010
0000
0010
0000
0010
0100
0000
0001
0010
0000
0010
0000
0010
,  // measure 68
0100
0000
1000
0001
0000
0001
0000
0001
0100
0000
0001
1000
0000
1000
0000
1000
,  // measure 69
0100
0000
0010
0001
0000
0001
0000
0001
1000
0000
0001
1000
0001
0000
0000
0000
,  // measure 70
1000
0000
0001
0100
0000
0001
0000
0001
0010
0000
0100
1000
0000
0100
0010
0100
,  // measure 71
1000
0000
0001
0010
0000
0001
0000
0001
0010
0000
0100
1000
0000
0010
1000
0100
,  // measure 72
1000
0000
0001
0100
0001
0000
1000
0000
0010
0000
0100
0001
0100
0000
0010
0000
,  // measure 73
1001
0000
0001
0010
0100
1000
0001
0100
0010
0000
1000
0000
0101
0000
0001
0000
,  // measure 74
1100
0000
0000
0000
;

//---------------dance-single - ----------------
#NOTES:
     dance-single:
     :
     Hard:
     11:
     0.468,0.525,0.128,0.200,0.100:
0000
0000
0000
0000
,
0000
0000
0000
0000
,
0000
0000
0000
0000
,
0000
0000
0000
0000
,
0000
0000
0000
0000
,
0000
1000
0000
0010
0000
0100
0000
0101
,
0000
0001
0000
0010
0000
0100
0000
1100
,
0000
1000
0000
0001
0000
0100
0000
0110
,
0001
0100
0100
0010
0000
0100
0110
0000
,
0001
0010
0001
0100
0000
0001
0010
0000
,
0100
1000
0010
1000
0000
0010
0100
0000
,
0001
0010
0100
0001
0000
0100
1000
0000
,
0010
0100
0001
1000
0000
0100
1000
0000
,
0001
0010
0100
1000
0000
0001
0010
0000
,
1000
0010
0100
0001
0000
1000
0010
0000
,
0001
0100
1000
0000
0001
0010
1000
0000
,
0010
0000
0100
0000
0010
0000
0000
0010
0000
0000
0010
0000
0110
0000
0000
0000
,
0001
0010
0100
0100
0000
1000
0010
0000
,
0010
0100
0001
0001
0000
1000
0100
0000
,
0100
1000
0001
0001
0000
0100
0001
0000
,
0010
0001
0100
1000
0000
0100
0001
0000
,
0010
0000
0010
0000
0110
0000
0000
0010
0000
0000
0010
0000
0000
0000
0001
0000
,
0000
0000
1000
0000
1001
0000
0000
0010
0000
0000
0010
0000
0100
0010
0100
0010
,
0100
0001
0010
0100
1000
0001
0100
0010
,
1000
0001
0100
0100
0001
0001
0100
0010
,
2001
0000
0000
0000
,
3020
0000
0000
0000
,
0230
0000
0000
0000
,
0302
0000
0000
0000
,
0023
0000
0000
0000
,
0230
0000
0000
0000
,
2300
0000
0000
0000
,
3002
0000
0000
0000
,
1003
0100
2000
0000
0000
0000
0000
3002
,
0000
0100
0100
0103
,
0001
0010
0002
0000
0000
0000
0000
2003
,
0000
0001
0001
3001
,
1000
0010
2000
0000
0000
0000
0000
3002
,
0000
0100
0100
0103
,
0020
0000
0100
0000
0100
0000
0130
0002
,
1000
1000
1000
1003
,
0001
0000
0000
0000
0001
0000
0000
0001
0000
0000
0001
0000
1000
0000
0000
0000
,
1000
0000
0000
0000
1000
0000
0000
1000
0000
0000
1000
0000
0010
0000
0000
0000
,
0010
0000
0000
0000
0010
0000
0000
0010
0000
0000
0010
0000
0100
0000
0000
0000
,
0100
0000
0000
0000
0100
0000
0000
0100
0000
0000
0100
0000
0001
0000
0000
0000
,
0001
0000
0000
0000
0010
0000
0000
0100
0000
0000
0001
0000
0100
0000
0000
0000
,
1000
0000
0000
0000
0010
0000
0000
0100
0000
0000
0010
0000
1000
0000
0000
0000
,
0001
0000
0000
0000
0010
0000
0000
0100
0000
0000
0001
0000
0100
0000
0000
0000
,
1000
0001
0010
0100
1000
0001
1001
0000
,
0020
0000
1030
0001
0010
0100
1000
0020
,
0100
0000
1030
0001
0010
0100
1000
0002
,
0100
0000
0013
0100
0010
0001
0100
0020
,
1000
0000
0130
0001
0100
1000
0100
0002
,
0010
0000
1003
0100
0001
0100
1000
0020
,
0100
0000
1030
0001
0010
0100
0010
0002
,
1000
0000
0103
0001
0010
0100
1000
0010
,
1001
0120
0100
1030
0001
1000
1001
0000
,
0010
0100
0001
0000
0010
0100
1000
0000
,
0001
1000
0100
0000
1000
0001
0100
0000
,
0001
0100
1000
0000
0001
0010
1000
0000
,
0001
0000
0010
0000
0100
0000
0000
0000
1000
0000
0100
0010
0100
0000
0000
0000
,
0001
1000
0100
0000
1000
0001
0100
0000
,
0010
0100
0001
0000
0010
0100
1000
0000
,
0001
0010
0001
0000
1000
0100
1000
0000
,
0001
0000
0100
0000
0010
0000
1000
0000
0100
0000
0010
0100
0010
0000
0000
0000
,
1001
0000
0000
0001
0100
0000
0001
0000
0010
0000
0100
0000
1000
0000
0000
0000
,
0010
0000
0000
0100
0001
0000
0010
0000
0100
0000
1000
0000
0001
0000
0100
0000
,
1000
0000
0000
0100
0001
0000
0010
0000
0100
0000
1000
0000
0001
0000
0000
0000
,
0100
0000
0000
0010
0100
0000
0001
0000
1000
0000
0100
0010
0100
0000
0000
0000
,
1000
0000
0000
0001
0100
0000
0001
0000
0010
0000
0100
0000
1000
0000
0000
0000
,
0001
0000
0000
1000
0100
0000
1000
0000
0010
0100
0000
0000
0110
0000
0000
0000
,
1000
0000
0000
0001
0100
0000
0001
0000
0100
0000
0000
1000
0100
0000
1000
0000
,
0100
0000
0001
0000
0010
0100
0010
0000
0120
0000
0100
0000
0031
0000
1000
0000
,
0110
0000
0000
0000
;

//---------------dance-single - ----------------
#NOTES:
     dance-single:
     :
     Medium:
     8:
     0.386,0.467,0.064,0.192,0.000:
0000
0000
0000
0000
,
0000
0000
0000
0000
,
0000
0000
0000
0000
,
0000
0000
0000
0000
,
0000
0000
0000
0000
,
0000
0010
0000
0100
0000
0010
0000
0010
,
0000
0100
0000
0010
0000
0100
0000
0100
,
0000
0001
0000
0010
0000
0100
0000
1000
,
0000
0001
0100
0010
0000
1000
1001
0000
,
0010
0000
1000
0002
0000
0100
0000
0103
,
0000
0001
0000
0001
0000
0010
0000
0010
,
0000
0100
0000
1000
0000
0010
0000
0100
,
0000
0001
0010
0100
0000
1000
0010
0100
,
0000
0001
0000
0010
0000
0100
0000
1000
,
0000
0001
0000
0100
0000
0001
0000
0010
,
0000
0100
0000
1000
0000
0010
0000
0100
,
0001
0100
0001
0000
1000
0001
1001
0000
,
0010
0000
1000
0020
0000
0100
0000
0130
,
0000
0001
0000
0100
0000
1000
0000
0100
,
0000
0001
0000
0010
0000
0100
0000
1000
,
0000
0001
0100
0010
0000
1000
0100
0010
,
0001
1000
0001
0000
1000
0010
0100
0000
,
0010
0000
1001
0000
0100
0010
0100
0010
,
0100
0100
0001
0001
1000
1000
0010
0010
,
0200
0000
0001
0000
1300
0100
0001
0100
,
0020
0000
0000
0000
,
0000
0000
0000
0030
,
2000
0000
0000
3000
,
0002
0000
0000
0003
,
0020
0000
0000
0030
,
0200
0000
0000
0300
,
2000
0000
0000
3000
,
0020
0000
0000
0030
,
1000
0001
2000
0000
0000
0000
0000
0002
,
0000
0000
0000
3003
,
0010
0100
0010
2000
0000
0000
0000
0002
,
0000
0000
0000
3003
,
0001
0010
0200
0000
0000
0000
0000
2000
,
0000
0000
3300
0001
,
2001
0000
0000
0000
0000
0000
3000
0010
,
0200
0000
0000
0300
,
0001
0000
1000
0000
0001
0010
0001
0000
,
1000
0000
0001
0000
1000
0100
1000
0000
,
0001
0000
1000
0000
0001
0100
0001
0000
,
1000
0000
0001
0000
1000
0010
1000
0000
,
0001
0000
0010
0000
0100
1000
0010
0000
,
0100
0000
0001
0000
0010
0100
1000
0000
,
0100
0010
0001
0000
1000
0010
0100
0001
,
0120
0000
1000
0000
0100
0100
0130
0000
,
1000
0100
1000
0000
0001
0100
0001
0000
,
2000
0010
0001
3100
,
0001
0010
0001
0000
1000
0100
1000
0000
,
0002
0010
1000
0103
,
0010
1000
0100
0000
0010
0001
0100
0000
,
0020
1000
0001
1030
,
0010
0100
0001
0000
0010
0100
1000
0000
,
0100
1000
0001
1000
0001
0100
0110
0000
,
0001
0001
0100
0000
1000
1000
0100
0000
,
0001
0010
0100
0000
1000
0100
0010
0000
,
0001
0001
0010
0000
1000
1000
0010
0000
,
0001
0100
0010
0100
1000
0100
0001
0000
,
1000
0100
0010
0000
0001
0100
1000
0000
,
0100
0001
0010
0010
0100
0100
1000
0000
,
0002
0010
2003
0100
,
3010
0000
1001
0000
0100
0100
0100
0000
,
0001
1000
0100
0000
0100
1000
0001
0000
,
0001
0100
0010
0000
0010
0100
0001
0000
,
0001
1000
0100
0000
0100
0010
0001
0000
,
0001
1000
0010
0000
0010
0100
0001
0000
,
0001
0010
0100
0000
0100
1000
0010
0000
,
0010
0100
1000
0000
1000
0100
0001
0000
,
0001
0010
0100
0000
0100
1000
0001
0000
,
1000
0001
0010
0100
1000
0001
0100
0010
,
0110
0000
0000
0000
;

//---------------dance-single - ----------------
#NOTES:
     dance-single:
     :
     Easy:
     5:
     0.207,0.263,0.064,0.056,0.000:
0000
0000
0000
0000
,
0000
0000
0000
0000
,
0000
0000
0000
0000
,
0000
0000
0000
0000
,
0000
0000
0000
0000
,
0000
0010
0000
0010
,
0000
0100
0000
0100
,
0000
0001
0000
0001
,
0000
1000
0001
1001
,
0010
0000
0010
0000
,
0100
0001
0010
0000
,
0100
0000
0100
0000
,
0100
1000
0010
0000
,
0100
0000
0001
0000
,
1000
0100
1000
0000
,
0001
0000
0010
0000
,
0100
0010
0100
0010
,
0100
0000
1000
0000
,
0010
0001
0100
0000
,
1000
0000
0010
0000
,
0001
0100
1000
0000
,
0010
0000
0001
0000
,
0100
1000
0010
0000
,
0001
0100
1000
0000
,
0001
0001
1000
1000
,
2002
0000
3003
0000
,
0010
0000
0000
0000
,
0200
0000
0300
0000
,
0001
0000
0000
0000
,
0020
0000
0030
0000
,
0100
0000
0000
0000
,
2000
0000
3000
0000
,
0001
0000
0000
0000
,
1000
1001
0000
0010
,
0000
0100
0001
0010
,
0000
0100
0000
0100
,
0000
0010
1000
0100
,
0000
0010
0000
0010
,
0000
0001
0100
0010
,
2000
0000
0000
3000
,
0002
0000
0000
0003
,
1000
1000
1000
0000
,
0010
0010
0010
0000
,
0100
0100
0100
0000
,
0001
0001
0001
0000
,
1000
0100
0010
0000
,
0001
0010
0100
0000
,
1000
0100
0001
0000
,
0001
0100
1000
0001
,
0100
0100
0001
0000
,
1000
0000
1001
0000
,
0001
0001
0100
0000
,
0010
0000
0110
0000
,
0100
0100
0001
0000
,
1000
0000
1001
0000
,
1000
0100
0010
0000
,
0001
0001
1000
1001
,
0100
0000
0001
0000
,
0010
0000
0100
0000
,
1000
0000
0010
0000
,
0100
0000
0001
0000
,
1000
0000
0100
0000
,
0001
0000
1000
0000
,
0010
0000
0001
0000
,
0100
0000
0010
0000
,
1000
0001
0000
0001
,
0000
0100
0000
0100
,
0010
1000
0000
1000
,
0000
0001
0000
0001
,
0010
0100
0000
0100
,
1000
0001
0000
0001
,
0010
0100
1000
0100
,
0010
0001
1000
0001
,
1001
0000
0000
0000
;

//---------------dance-single - ----------------
#NOTES:
     dance-single:
     :
     Beginner:
     1:
     0.091,0.146,0.016,0.072,0.000:
0000
0000
0000
0000
,
0000
0000
0000
0000
,
0000
0000
0000
0000
,
0000
0000
0000
0000
,
0000
0000
0000
0000
,
1000
0000
0000
0000
,
0010
0000
0000
0000
,
0100
0000
0000
0000
,
0002
0000
0000
0003
,
0001
0000
0000
0000
,
0100
0000
0000
0000
,
0010
0000
0000
0000
,
0100
0000
0000
0000
,
0001
0000
0000
0000
,
1000
0000
0000
0000
,
0100
0000
0000
0000
,
1000
0000
0000
0000
,
0001
0000
0000
0000
,
0100
0000
0000
0000
,
1000
0000
0000
0000
,
0001
0000
0000
0000
,
0200
0000
0000
0000
,
0300
0000
0000
0000
,
0020
0000
0000
0000
,
0030
0000
0000
0000
,
2000
0000
0000
0000
,
3000
0000
0000
0000
,
0020
0000
0000
0000
,
0030
0000
0000
0000
,
0200
0000
0000
0000
,
0300
0000
0000
0000
,
0002
0000
0000
0000
,
0003
0000
0000
0000
,
1000
0000
0000
0000
,
0000
0000
0000
0000
,
1000
0000
0000
0000
,
0000
0000
0000
0000
,
0001
0000
0000
0000
,
0000
0000
0000
0000
,
0001
0000
0000
0000
,
1001
0000
0000
0000
,
0010
0000
0000
0000
,
0010
0000
0000
0000
,
0010
0000
0000
0000
,
0010
0000
0000
0000
,
0100
0000
0000
0000
,
0100
0000
0000
0000
,
0100
0000
0100
0000
,
0200
0000
0000
0300
,
0001
0000
0001
0000
,
0001
0000
0000
0000
,
1000
0000
1000
0000
,
1000
0000
0000
0000
,
0010
0000
0010
0000
,
0010
0000
0000
0000
,
0100
0000
0100
0000
,
0200
0000
0000
0300
,
0100
0000
0000
0000
,
0001
0000
0000
0000
,
1000
0000
0000
0000
,
0100
0000
0000
0000
,
0100
0000
0000
0000
,
1000
0000
0000
0000
,
0001
0000
0000
0000
,
0100
0000
0000
0000
,
0010
0000
0010
0000
,
0010
0000
0000
0000
,
1000
0000
1000
0000
,
1000
0000
0000
0000
,
0001
0000
0001
0000
,
0001
0000
0000
0000
,
0010
0000
0010
0000
,
0010
0000
0000
0000
,
1001
0000
0000
0000
;

//---------------dance-double - ----------------
#NOTES:
     dance-double:
     :
     Challenge:
     13:
     0.596,0.642,0.168,0.104,0.400:
00000000
00000000
00000000
00000000
,
00000000
00000000
00000000
00000000
,
00000000
00000000
00000000
00000000
,
00000000
00000000
00000000
00000000
,
00000000
00000000
00000000
00000000
,
00001000
00100000
00000000
00100000
00000000
01000000
00000000
01000000
,
10000000
00010000
00000000
00010000
00000000
00100000
00000000
00100000
,
00001000
00010000
00000000
00010000
00000000
00000100
00000000
00000100
,
00000010
00000000
00000001
00000000
00000100
00000001
00000100
00000001
00000000
00000000
00001000
00000000
00000010
00010000
00000010
00000000
,
00001000
00000010
00000100
00010000
00000000
00000100
00000010
00000001
,
00000010
00001000
00000100
00010000
00000000
00000100
00001000
00010000
,
00100000
10000000
00100000
01000000
00000000
10000000
00010000
01000000
,
00001000
00000000
00010000
00000000
00001000
00100000
00001000
00000000
00010000
00000000
00000010
00001000
00000010
00000000
00010000
00000000
,
00001000
00010000
00000100
00001000
00000000
00000010
00000100
00000010
,
00001000
00000100
00000001
00000100
00000000
00010000
00001000
00100000
,
00010000
01000000
00100000
10000000
00000000
00010000
01000000
00001000
,
00010000
00000000
00001000
00000000
01001000
00000000
00000000
00011000
00000000
00000000
00010100
00000000
00001100
00000000
00000000
00000000
,
00001000
00000100
00010000
00000100
00000000
00000010
00000100
00001000
,
00000001
00000100
00001000
00010000
00000000
00001000
00010000
00100000
,
01000000
10000000
01000000
00010000
00000000
00100000
01000000
00010000
,
00001000
00000000
00000010
00000000
00000100
00001000
00000100
00000000
00010000
00000000
00001000
00100000
00001000
00000000
00010000
00000000
,
01000000
00000000
10000000
00000000
10010000
00000000
00000000
01010000
00000000
00000000
00110000
00000000
00000000
00000000
00011000
00000000
,
00000000
00000000
00001000
00000000
00001100
00000000
00000000
00000110
00000000
00000000
00000100
00000000
00001000
00000001
00000100
00000001
,
00001000
00000000
00001000
00000000
00000100
00000000
00000100
00000000
00010000
00000000
00010000
00000000
00001000
00000000
01000000
00010000
,
02000000
00000000
03001000
00000000
00010000
00001000
00100000
00001000
00010000
00000000
00000010
00000000
00000100
00000000
00000001
00000010
,
00000200
00001000
00001000
00001000
,
00010000
00010000
00010000
00010000
,
00020300
00001000
00001000
00001000
,
00032000
01000000
01000000
01000000
,
02003000
00100000
00100000
00100000
,
03200000
10000000
10000000
10000000
,
20300000
01000000
01000000
01000000
,
32000000
00010000
00010000
00010000
,
03010000
01000000
00200000
00000000
00000000
00001000
00000000
00301000
,
00000100
00000010
00000010
00000000
00000101
00000000
00001010
00000000
,
00000010
00010000
00001000
00200000
00000000
00001000
00000000
00301000
,
00100000
00010000
00010000
00000000
10010000
00000000
00011000
00000000
,
00001000
00010000
02000000
00000000
00000000
10000000
00000000
13000000
,
01000000
00100000
00100000
00000000
00110000
00000000
00001100
00000000
,
00000100
00000000
00000100
00000000
00000100
00000000
00000100
00001000
,
00000002
00000010
00001000
00000103
,
00000001
00000100
00000000
00000000
00000001
00000000
00000000
00000010
00000000
00000000
00000100
00000000
00001000
00000000
00000001
00000000
,
00000100
00001000
00000000
00000000
00010000
00000000
00000000
00001000
00000000
00000000
00010000
00000000
01000000
00000000
10000000
00000000
,
00010000
01000000
00000000
00000000
00010000
00000000
00000000
00100000
00000000
00000000
00001000
00000000
00010000
00000000
00001000
00000000
,
01000000
00010000
00000000
00000000
00100000
00000000
00000000
00001000
00000000
00000000
00010000
00000000
00000100
00000000
00001000
00000000
,
00000010
00000100
00000000
00000000
00000001
00000000
00000000
00000010
00000000
00000000
00000100
00000000
00000001
00000000
00000100
00000000
,
00001000
00000010
00000000
00000000
00010000
00000000
00000000
00001000
00000000
00000000
00100000
00000000
00010000
00000000
01000000
00000000
,
00100000
00010000
00000000
00000000
00100000
00000000
00000000
10000000
00000000
00000000
01000000
00000000
00100000
00000000
00001000
00010000
,
00001000
00000000
00000000
00010000
00000000
00000000
00000010
00000000
00000000
00001000
00000000
00000000
00000100
00000000
00010000
00000000
00001000
00000000
00010000
00000000
00000000
00001000
00000000
00000000
,
00100000
00010000
00000000
01000000
00010000
00000000
00100000
00010000
00000000
01000000
00010000
00000000
00100000
00000000
00010000
00000000
,
00100000
01000000
00000000
10000000
01000000
00000000
00100000
01000000
00000000
10000000
01000000
00000000
00100000
00000000
01000000
00000000
,
10000000
00010000
00000000
01000000
00010000
00000000
10000000
00010000
00000000
01000000
00010000
00000000
10000000
00000000
00010000
00000000
,
00100000
00001000
00000000
00010000
00001000
00000000
00100000
00001000
00000000
00010000
00001000
00000000
00101000
00000000
00000000
00000000
,
00010000
00000010
00000000
00001000
00000010
00000000
00010000
00000010
00000000
00001000
00000010
00000000
00010000
00000000
00000010
00000000
,
00001000
00000001
00000000
00000100
00000001
00000000
00001000
00000001
00000000
00000100
00000001
00000000
00001000
00000000
00000100
00000000
,
00000010
00000100
00000000
00001000
00000100
00000000
00000010
00000100
00000000
00001000
00000100
00000000
00000010
00000000
00000100
00000000
,
00001100
00000000
00001100
00000000
00000100
00000000
00000001
00000000
00000100
00001000
00000010
00000000
00020000
00000000
00031000
00010000
,
00001000
00010000
00100000
00000000
00010000
00001000
00000010
00000000
,
00001000
00010000
01000000
00000000
00010000
00001000
00000100
00000000
,
00001000
01000000
00001000
00010000
00100000
10000000
01000000
00010000
,
00001000
00000000
00000010
00000000
00000001
00000000
00001000
00000000
00000010
00000000
00000100
00000001
00000100
00000000
00000000
00000000
,
00000010
00001000
00000100
00000000
00010000
00001000
01000000
00000000
,
00100000
10000000
01000000
00000000
00100000
00010000
01000000
00000000
,
10000000
01000000
00010000
10000000
01000000
00001000
01000000
00010000
,
00001000
00000000
00000010
00000000
00000001
00000000
00000100
00000000
00000010
00000000
00010000
00001000
00010000
00000000
00000000
00000000
,
00011000
00000000
00000000
00001000
00000000
00100000
00000000
00001000
00010000
00000000
00000000
00001000
00000000
00010000
00000000
00000100
,
00001000
00000000
00000000
00000010
00000000
00001000
00000000
00000100
00000010
00000000
00000000
00000001
00000000
00000100
00000000
00000001
,
00000010
00000000
00000000
00000100
00000000
00001000
00000000
00000100
00010000
00000000
00000000
00001000
00000000
00100000
00000000
00010000
,
01000000
00000000
00000000
00100000
00000000
10000000
00000000
00010000
00100000
00000000
01000000
10000000
01000000
00000000
00000000
00000000
,
10000000
00000000
01000000
00100000
00000000
01000000
00100000
00010000
00100000
00000000
00010000
00100000
00000000
00010000
00100000
00001000
,
00010000
00000000
00001000
00010000
00000000
00001000
00010000
00000000
00000100
00001000
00000000
00000100
00001000
00000000
00000010
00001000
,
00000100
00000001
00000100
00001000
00010000
00100000
10000000
00100000
,
00001000
00000000
01000000
00000000
00010000
01000000
00001000
00100000
01000000
00000000
00100000
00000000
00001000
00000000
00010000
00000000
,
00011000
00000000
00000000
00000000
;

//---------------dance-double - ----------------
#NOTES:
     dance-double:
     :
     Hard:
     11:
     0.488,0.554,0.160,0.160,0.032:
00000000
00000000
00000000
00000000
,
00000000
00000000
00000000
00000000
,
00000000
00000000
00000000
00000000
,
00000000
00000000
00000000
00000000
,
00000000
00000000
00000000
00000000
,
00000000
10000000
00000000
01000000
00000000
00010000
00000000
00001000
,
00000000
00000010
00000000
00000001
00000000
00000100
00000000
00001000
,
00000000
00010000
00000000
00100000
00000000
10000000
00000000
00010000
,
01000000
00001000
00010000
00001000
00000000
00010000
00011000
00000000
,
00001000
00010000
01000000
10000000
00000000
00100000
01000000
00000000
,
00010000
00100000
00001000
00010000
00000000
00000100
00001000
00000000
,
00000001
00000100
00001000
00000100
00000000
00000001
00000010
00000000
,
00000100
00001000
00000100
00010000
00000000
00001000
01000000
00000000
,
00100000
10000000
01000000
00010000
00000000
01000000
10000000
00000000
,
00010000
01000000
00100000
00010000
00000000
00001000
00000100
00000000
,
00000001
00000010
00000100
00000000
00001000
00000100
00010000
00000000
,
00001000
00000000
00010000
00000000
00011000
00000000
00000000
01010000
00000000
00000000
11000000
00000000
00020000
00000000
00000000
00000000
,
10030000
01000000
00010000
01000000
00000000
10000000
00010000
00000000
,
00100000
00001000
00010000
00001000
00000000
00010000
00000100
00000000
,
00001000
00000010
00000100
00000001
00000000
00000010
00000100
00000000
,
00001000
00000100
00001000
00000100
00001000
00000010
00001000
00000000
,
00000100
00000000
00010000
00000000
00011000
00000000
00000000
00010000
00000000
00000000
00001000
00000000
00000000
00000000
01010000
00000000
,
00000000
00000000
11000000
00000000
00100000
00000000
00000000
01010000
00000000
00000000
00100000
00000000
10000000
00010000
10000000
00010000
,
10000000
00100000
01000000
00010000
00100000
00001000
00010000
00000010
,
00000010
00001000
00000001
00010000
00001000
00001000
00010000
00010000
,
00012000
00010000
00000000
00010000
,
00023000
01000000
00000000
01000000
,
02030000
10000000
00000000
10000000
,
23000000
00100000
00000000
00100000
,
30200000
00010000
00000000
00010000
,
00320000
00001000
00000000
00001000
,
00032000
00000100
00000000
00000100
,
00003200
00000001
00000000
00000001
,
00000301
00000010
00000200
00000000
00000000
00000000
00000000
00002300
,
00000000
00000010
00000010
00003010
,
00010000
00001000
00100000
00020000
00000000
00000000
00000000
02030000
,
00000000
00100000
00100000
03100000
,
10000000
01000000
00020000
00000000
00000000
00000000
00000000
00032000
,
00000000
01000000
01000000
00013000
,
00002002
00000000
00000000
00000000
00000000
00000000
00003003
00000220
,
00000000
00000000
00000000
00000330
,
00011000
00000000
00001000
00010000
01000000
10000000
00100000
00000000
,
01100000
00000000
01000000
00010000
00100000
00001000
00010000
00000000
,
00011000
00000000
00001000
00010000
00000100
00001000
00000010
00000000
,
00000110
00000000
00000100
00000001
00001000
00000100
00010000
00000000
,
00001000
00010000
00001000
01000000
00010000
00100000
01000000
00000000
,
10000000
01000000
10000000
00010000
01000000
00001000
00010000
00000000
,
00000100
00001000
00000010
00000001
00001000
00000100
00000001
00001000
,
00000100
00000000
00010100
00000000
00001000
00010000
00011000
00000000
,
00001000
00010000
01000000
10000000
00010000
01000000
00100000
00000000
,
00100000
10000000
01000000
00100000
00010000
01000000
00100000
00000000
,
10000000
01000000
00010000
00001000
00000010
00000001
00000100
00000000
,
00000010
00001000
00000100
00010000
00000100
00001000
00000010
00000000
,
00001000
00000010
00000100
00001000
00000100
00000001
00000010
00000000
,
00000100
00010000
00000010
00001000
00000001
00000010
00000100
00000000
,
00010000
00001000
00100000
00001000
00010000
01000000
10000000
00010000
,
01000000
01100000
00200000
00000000
10000000
00000000
01300000
00010000
,
00100000
01000000
10000000
00000000
00010000
00100000
01000000
00000000
,
00010000
00001000
00100000
00000000
00001000
00010000
00000100
00000000
,
00000010
00000100
00001000
00000000
00000001
00000010
00000100
00000000
,
00001000
00000000
00000001
00000000
00000100
00000000
00000001
00000000
00000010
00000000
00000100
00001000
00000100
00000000
00000000
00000000
,
00010000
00001000
00100000
00000000
00010000
10000000
01000000
00000000
,
00100000
01000000
10000000
00000000
00010000
01000000
00100000
00000000
,
10000000
01000000
00010000
00000000
00001000
00000010
00000001
00000000
,
00010000
00000000
00001000
00000000
00100000
00000000
01000000
00000000
10000000
00000000
00010000
01000000
00010000
00000000
00000000
00000000
,
10000000
01000000
00100000
00010000
10000000
01000000
00100000
00000000
,
00010000
00100000
00001000
00010000
00000010
00001000
00000100
00000000
,
00001000
00000100
00000010
00001000
00000010
00000001
00001000
00000000
,
00000010
00000000
00001000
00000000
00000100
00000000
00010000
00000000
00001000
00000000
00100000
00001000
00100000
00000000
00000000
00000000
,
00001000
00010000
01000000
10000000
00100000
00010000
00001000
00000000
,
00000100
00000001
00000010
00001000
00010000
01000000
10000000
00000000
,
10000000
00100000
01000000
00001000
00010000
00000010
00000100
00001000
,
00010000
00010000
00001000
00001000
00101000
00000000
00010000
00000100
,
00010100
00000000
00000000
00000000
;

//---------------dance-double - ----------------
#NOTES:
     dance-double:
     :
     Medium:
     7:
     0.326,0.438,0.056,0.176,0.000:
00000000
00000000
00000000
00000000
,
00000000
00000000
00000000
00000000
,
00000000
00000000
00000000
00000000
,
00000000
00000000
00000000
00000000
,
00000000
00000000
00000000
00000000
,
00000000
10000000
00000000
01000000
00000000
10000000
00000000
00100000
,
00000000
10000000
00000000
01000000
00000000
10000000
00000000
00010000
,
00000000
01000000
00000000
00001000
00000000
01000000
00000000
00010000
,
00000000
01000000
00000000
00001000
00000000
01000000
00001000
00000000
,
00000000
00100000
00000000
00001000
00000000
00010000
00000000
00000100
,
00000000
00010000
00000000
00001000
00000000
00100000
00000000
00001000
,
00000000
00010000
00000000
00001000
00000000
00010000
00000000
00000100
,
00000000
00010000
00000000
00001000
00000000
00010000
00000000
00000100
,
00000000
00001000
00000000
00000100
00000000
00000010
00000000
00000100
,
00000000
00001000
00000000
00000100
00000000
00000010
00000000
00000001
,
00000000
00000100
00000000
00000010
00000000
00000100
00000000
00000001
,
00002000
00000000
00003001
00000000
00000010
00000100
00000110
00000000
,
00000000
00000001
00000000
00000100
00000000
00000001
00000000
00000100
,
00000000
00001000
00000000
00000100
00000000
00001000
00000000
00000100
,
00000000
00001000
00000000
00010000
00000000
00001000
00000000
00010000
,
00000000
01000000
00000000
00010000
00000000
01000000
00000000
00010000
,
01000000
00000000
10000000
00000000
00010000
01000000
01010000
00000000
,
10000000
00000000
00100000
00000000
01000000
00010000
01010000
00000000
,
10000000
01000000
10000000
01000000
00100000
00010000
00100000
00010000
,
00200000
00001000
00010000
00301000
,
00020000
00000000
00000000
00000000
,
00000000
00000000
00000000
00030000
,
00000200
00000000
00000000
00000300
,
00002000
00000000
00000000
00003000
,
00000020
00000000
00000000
00000030
,
00000200
00000000
00000000
00000300
,
00000002
00000000
00000000
00000003
,
00000020
00000000
00000000
00000030
,
00000100
00001000
00000200
00000000
00000000
00000000
00000000
00001300
,
00000000
00000001
00000001
00000001
,
00001000
00000100
00002000
00000000
00000000
00000000
00000000
00003100
,
00000000
00010000
00010000
00010000
,
00001000
00010000
00002000
00000000
00000000
00000000
00000000
00013000
,
00000000
01000000
01000000
01000000
,
20000000
00000000
00000000
00000000
00000000
00000000
00000000
00020000
,
00000000
00000000
00000000
30030000
,
00100000
00100000
10000000
10000000
,
01000000
01000000
00010000
00010000
,
00001000
00001000
00000010
00000010
,
00000001
00000001
00000100
00000100
,
00001000
00001000
00010000
00010000
,
00100000
00100000
10000000
10000000
,
01000000
01000000
00010000
00010000
,
00001000
00010000
00001000
00011000
,
00002000
00000000
00013000
00000000
00010000
00000000
00001000
00020000
,
00000100
00000000
00031000
00000000
01000000
00000000
00010000
00200000
,
01000000
00000000
00310000
00000000
10000000
00000000
00100000
20000000
,
01000000
30100000
01000000
10010000
,
20000000
00000000
31000000
00000000
00100000
00000000
01000000
20000000
,
00010000
00000000
30100000
00000000
01000000
00000000
00010000
00200000
,
00001000
00310000
00100000
00001000
,
00010000
00001000
00000000
00000000
00001000
00000000
00011000
00000000
,
00010000
00001000
00010000
00001000
,
00010000
00000100
00010000
00000100
,
00001000
00000100
00001000
00000100
,
00000010
00000000
00000001
00000000
00000010
00000001
00000001
00000000
,
00000100
00000001
00000100
00000001
,
00001000
00000100
00001000
00000100
,
00010000
00001000
00010000
00001000
,
00100000
00000000
00010000
00000000
00100000
00010000
00010000
00000000
,
10000000
01000000
00100000
01000000
,
10000000
01000000
00010000
01000000
,
10000000
00010000
01000000
00010000
,
01000000
00000000
00001000
00000000
00010000
00001000
00001000
00000000
,
00010000
00001000
00010000
00000100
,
00010000
00001000
00010000
00000010
,
00010000
00000100
00001000
00000010
,
00000200
00000000
00000301
00000100
00000100
00000000
00000010
00000100
,
00000110
00000000
00000000
00000000
;

//---------------dance-double - ----------------
#NOTES:
     dance-double:
     :
     Easy:
     4:
     0.187,0.233,0.064,0.040,0.000:
00000000
00000000
00000000
00000000
,
00000000
00000000
00000000
00000000
,
00000000
00000000
00000000
00000000
,
00000000
00000000
00000000
00000000
,
00000000
00000000
00000000
00000000
,
00000000
00000010
00000000
00000010
,
00000000
00000100
00000000
00000100
,
00000000
00000010
00000000
00000010
,
00000000
00001000
00000000
00001001
,
00000000
00000010
00000000
00000100
,
00000000
00000001
00000000
00000100
,
00000000
00000010
00000000
00001000
,
00000000
00000100
00000000
00001000
,
00000000
00000100
00000000
00010000
,
00000000
00000100
00000000
00010000
,
00000000
00001000
00000000
00010000
,
00001000
00001000
00001000
00002000
,
00003000
01000000
00000000
01000000
,
00000000
00001000
00000000
00001000
,
00000000
01000000
00000000
01000000
,
00000000
00010000
00000000
00010000
,
20000000
00000000
30010000
00000000
,
00020000
00000000
10030000
00000000
,
01000000
01000000
00010000
00010000
,
00200000
00000000
01300000
10000000
,
00010000
00000000
00000000
00000000
,
00011000
00000000
00000000
00000000
,
00001000
00000000
00000000
00000000
,
00011000
00000000
00000000
00000000
,
00100000
00000000
00000000
00000000
,
00011000
00000000
00000000
00000000
,
00000100
00000000
00000000
00000000
,
00011000
00000000
00000000
00000000
,
00001000
00001000
00000000
00010000
,
00000000
00001000
00000000
00100000
,
00001000
00010000
00000000
00001000
,
00000000
00010000
00000000
00000010
,
00010000
00001000
00000000
00010000
,
00000000
00001000
00000000
01000000
,
00001000
00010000
00000000
00001000
,
00000000
00010000
00000000
00001000
,
00010000
00000000
00000100
00000000
,
00001000
00000000
00000100
00000000
,
00000010
00000000
00000001
00000000
,
00000100
00000000
00000001
00000000
,
00000010
00000100
00001000
00000000
,
00000010
00000100
00001000
00000000
,
00000010
00000100
00000001
00000000
,
00000010
00001000
00000001
00001001
,
00000010
00000000
00000010
00000000
,
00000001
00000100
00001000
00000000
,
00000100
00000000
00000100
00000000
,
00000010
00001000
00000100
00000000
,
00010000
00000000
00010000
00000000
,
00001000
00100000
00010000
00000000
,
01000000
00000000
01000000
00000000
,
00020000
00000000
01030000
01100000
,
10000000
00010000
00000000
01000000
,
00000000
00100000
00000000
10000000
,
00000000
00010000
00000000
00100000
,
00000000
00010000
00000000
00100000
,
00000000
00001000
00000000
00010000
,
00000000
00001000
00000000
00010000
,
00000000
00000100
00000000
00010000
,
00000000
00000100
00000000
00001000
,
00000100
00000000
00000010
00000000
,
00000001
00000000
00000100
00000000
,
00000010
00000000
00001000
00000000
,
00000001
00000001
00000001
00000000
,
00000010
00000000
00000100
00000000
,
00001000
00000000
00000100
00000000
,
00010000
00000000
00001000
00000000
,
00010000
00001000
00010000
00010000
,
00011000
00000000
00000000
00000000
;
