#TITLE:Never Fade Away;
#SUBTITLE:;
#ARTIST:Sota Fujimori feat. dj MAX STEROID;
#TITLETRANSLIT:;
#SUBTITLETRANSLIT:;
#ARTISTTRANSLIT:;
#CREDIT:;
#BANNER:Never Fade Away.png;
#BACKGROUND:Never Fade Away-bg.png;
#LYRICSPATH:;
#CDTITLE:cdtitle.png;
#MUSIC:Never Fade Away.mp3;
#OFFSET:-0.393;
#SAMPLESTART:66.740;
#SAMPLELENGTH:12.000;
#SELECTABLE:YES;
#BPMS:0.000=170.000,104.000=85.000,136.000=170.000;
#STOPS:;
#BGCHANGES:;

//---------------dance-single - ----------------
#NOTES:
     dance-single:
     :
     Hard:
     12:
     0.659,0.806,0.718,0.295,0.247:
0000
0000
0000
0000
,
0000
0000
0000
0000
,
1100
0000
0001
0101
0000
1001
0000
1010
,
0000
0110
0000
0101
0000
0001
0010
0100
,
1001
0000
0100
0110
0000
0010
0100
0110
,
0000
2001
0000
3002
0000
0103
0010
1000
,
1010
0000
0001
0101
0000
1100
0000
0110
,
0000
1001
0000
1010
0000
0001
1000
0010
,
1010
0000
0001
1001
0000
1000
0010
0110
,
0000
0101
0000
2002
0000
0000
3003
0000
,
1000
0000
0001
0000
0100
0000
0001
0000
1000
0100
0000
0100
0000
0000
1000
0000
,
0001
0000
0010
0000
0100
0000
1000
0000
0001
0100
0000
0100
0000
0000
0001
0000
,
1000
0000
0010
0000
0100
0000
0001
0000
0010
0100
0000
0100
0000
0000
0010
0000
,
0001
0000
0000
1000
0000
0000
2002
0000
0000
0000
0000
0000
3003
0000
0000
0000
,
1000
0000
0010
0000
0100
0000
0001
0000
0010
0100
0000
0100
0000
0000
0010
0000
,
0001
0000
0100
0000
0010
0000
1000
0000
0100
0010
0000
0010
0000
0000
0100
0000
,
1000
0000
0100
0000
0001
0000
0100
0000
1000
0010
0000
0010
0000
0000
0100
0000
,
0010
0000
0000
0100
0000
0000
0220
0000
0000
0000
0000
0000
0330
0000
0000
0000
,
0001
0000
1000
0000
0010
0000
0100
0000
0001
0010
0000
0100
0000
0010
0001
0000
,
1000
0000
0010
0000
0100
0000
0001
0000
0100
0010
0000
1000
0000
0010
0100
0000
,
0001
0000
0010
0000
1000
0000
0010
0000
0001
0100
0000
0010
0000
1000
0100
0000
,
1000
0000
0000
0100
0000
0000
2200
0000
0000
0000
0000
0000
3300
0000
0000
0000
,
1000
0000
0010
0000
0100
0000
0001
0000
1000
0010
0000
0100
0000
0001
0010
0000
,
0100
0000
1000
0000
0100
0000
0010
0000
0001
0100
0000
1000
0000
0100
0001
0000
,
0010
0000
0100
0000
1000
0000
0010
0000
0100
0001
0000
0010
0000
0001
0100
0000
,
0010
0000
0000
1000
0000
0000
2020
0000
0000
0000
0000
0000
3030
0000
0000
0000
,
1002
0000
0203
0010
,
0302
1000
0203
1000
,
0320
0000
0000
0000
,
2030
0000
0000
0002
0000
0000
3003
0000
,
1000
0010
0100
0000
0002
0000
0013
0000
0100
1000
0100
0000
0020
0000
0031
0000
,
0100
0001
0010
0000
0200
0000
1300
0000
0010
1000
0010
0000
0200
0000
0301
0000
,
1000
0001
0100
0000
0020
0000
1030
0000
0100
1000
0001
0000
0200
0000
0310
0000
,
0001
0100
0001
0000
1000
0100
1000
0000
0001
0010
0100
1000
0001
0100
0010
1000
,
0001
0000
0000
1000
0000
0000
0001
0000
0000
0000
1000
0001
1000
0000
0001
0000
,
1001
0000
0001
0100
0000
0100
0010
0000
1000
0000
0010
0000
0100
0000
0001
0000
,
1000
0000
0100
1000
0000
1000
0001
0000
1000
0000
0001
0000
0110
0000
0000
0000
,
0001
0000
1000
0010
0000
0010
0100
0000
0001
0000
0010
0000
0100
0000
1000
0000
,
0001
0000
0000
1000
0000
0000
0110
0000
0000
0000
0001
0000
1001
0000
0000
0000
,
1000
0010
0100
0001
0000
1000
0100
1000
,
0000
0001
0100
0001
0000
1000
0010
0100
,
0010
0000
1000
1000
0000
0001
1000
1001
,
0000
1000
0010
0100
0001
0000
1000
0001
,
0001
0000
0001
0100
0000
1000
0100
1000
,
0000
0001
0010
0100
0000
1000
0010
0100
,
0000
0000
1001
0000
1000
0001
1000
0020
,
0000
0230
0000
0302
0000
1003
0010
0100
,
0001
0010
0100
1000
0000
0001
0010
0100
,
0000
2000
0000
3002
0000
0203
0000
0310
,
0110
0000
0001
1001
0000
1100
0000
0101
,
0000
0001
0010
0100
1000
0000
0001
0100
,
0001
0000
1000
0010
0000
0010
0100
0000
,
0001
0100
0001
0000
1001
0000
0101
0000
,
1000
0010
0100
0001
0010
0100
1000
0000
,
0001
0100
0010
1000
0100
0010
0100
0100
,
0110
0000
0001
0101
0000
1010
0000
0110
,
0000
0001
1001
0000
1010
0000
0110
0000
,
0101
0000
1000
1001
0000
0110
0000
0201
,
0000
0302
0000
2003
0000
3010
0100
0001
,
1001
0000
1000
0110
0000
0101
0000
1001
,
0000
0001
1010
0000
0110
0000
0101
0000
,
1001
0000
0010
0110
0000
1000
0010
0110
,
0000
1001
0000
1100
0000
0001
0010
0100
,
1100
0000
1000
0101
0000
1001
0000
1100
,
0000
0100
0110
0000
1001
0000
0011
0000
,
1001
0000
0100
0110
0000
1010
0000
0102
,
0000
0023
0000
0230
0000
1300
0010
0100
,
1001
0000
0100
0101
0000
1010
0000
0110
,
0000
0100
1100
0000
1001
0000
0110
0000
,
1001
0000
0001
0101
0000
0010
0100
1001
,
0000
0110
0001
0010
0100
1000
0001
0100
,
1001
0000
0001
0100
0000
0010
0100
0000
0001
0000
1000
0000
0100
0000
0010
0000
,
0001
0000
1000
0010
0000
0100
0010
0000
1000
0000
0001
0000
1001
0000
0000
0000
,
0110
0000
0100
0001
0000
0010
0001
0000
1000
0000
0010
0000
0100
0000
0010
0000
,
0110
0000
0000
0110
0000
0000
0110
0000
0000
0000
0001
0000
1000
0000
1001
0000
;

//---------------dance-single - ----------------
#NOTES:
     dance-single:
     :
     Medium:
     10:
     0.537,0.568,0.176,0.535,0.048:
0000
0000
0000
0000
,
0000
0000
0000
0000
,
1001
0000
1000
0002
0000
0203
0000
0320
,
0000
2030
0000
3020
0000
0130
0001
1000
,
1001
0000
1000
0020
0000
0130
0010
0002
,
0000
0023
0000
2030
0000
3001
0010
0100
,
0110
0000
0010
0200
0000
2300
0000
3002
,
0000
0203
0000
0320
0000
1030
0001
0100
,
0110
0000
0010
2000
0000
3001
0010
0200
,
0000
2300
0000
3002
0000
0000
0003
0000
,
1000
0100
1000
0000
0001
0100
0001
0000
,
1000
0010
0100
0001
0010
0100
0010
0000
,
0001
0010
0001
0000
1000
0100
1000
0000
,
0001
0000
0000
1000
0000
0000
0002
0000
0000
0000
0000
0000
0003
0000
0000
0000
,
1000
0010
0100
0000
0001
0100
0010
0000
,
1000
0001
1000
0100
0010
0001
1000
0000
,
0001
0010
0001
1000
0001
0010
0001
0000
,
1000
0000
0000
0010
0000
0000
0200
0000
0000
0000
0000
0000
0300
0000
0000
0000
,
1000
0010
0100
0000
0010
0100
0000
0100
,
0001
0010
0100
0000
0010
0100
0000
1000
,
0001
0100
0010
0000
0100
0010
0000
1000
,
0001
0000
0000
0100
0000
0000
0020
0000
0000
0000
0000
0000
0030
0000
0000
0000
,
1000
0000
0001
0000
1000
0000
0000
0000
0001
0000
0000
0001
1000
0000
0001
0000
,
0100
0000
0010
0000
0100
0000
0000
0000
0100
0000
0000
0010
0100
0000
0001
0000
,
1000
0000
0100
0000
0010
0000
0000
0000
0100
0000
0000
1000
0001
0000
0100
0000
,
0010
0000
0000
0010
0000
0000
0220
0000
0000
0000
0000
0000
0330
0000
0000
0000
,
1002
0000
0000
0003
0200
0000
0010
0300
,
0020
0000
0100
0030
0200
0000
0001
0300
,
0002
0000
0000
0000
0000
0000
0000
0003
,
0200
0000
0300
0020
0000
0000
0000
0030
,
1000
0100
1000
0100
0010
0001
0010
0001
,
1000
0010
1000
0010
0100
0001
0100
0001
,
0200
0302
2003
3020
,
1030
0000
1000
0000
0001
0000
0001
0000
1000
0010
1000
0000
0001
0100
0001
0000
,
1000
0000
0000
0100
0000
0000
1000
0000
0000
0000
0001
0000
0100
0000
0000
0000
,
1000
0010
0100
0000
0001
0010
0100
0000
,
1000
0001
1000
0000
0001
0001
0001
0000
,
1000
0010
0100
0000
0001
0010
0100
0000
,
1001
0000
0000
1001
0000
0000
1001
0000
0000
0000
1000
0000
0001
0000
1000
0000
,
0010
0100
0001
0000
0010
0100
1000
0000
,
0001
0100
0001
0000
1000
0100
1000
0000
,
0001
0010
0001
0010
0100
1000
0100
0010
,
0000
0000
0001
0000
1000
0000
0001
0100
,
0001
0000
1000
0200
0000
0300
1000
0002
,
0000
0003
0010
0002
0000
0003
1000
0200
,
0000
0300
0010
0000
0001
1000
0001
1000
,
0000
1000
1001
0010
,
0010
0100
0010
0100
0000
0000
0001
2000
,
0000
3000
0010
0100
0000
0001
0010
0100
,
1000
0000
0001
0010
0000
0100
1000
0100
,
0000
0010
0001
0000
2000
0000
3001
0000
,
0100
0010
0200
0301
,
2000
0000
3100
0000
0001
0010
0100
0000
,
1000
0001
0100
0010
,
2000
3100
0002
0103
,
1001
0000
0001
0020
0000
0230
0000
2300
,
0000
3010
0200
0000
0302
0000
0013
0000
,
1001
0000
0100
0002
0000
0023
0000
0230
,
0000
2300
0000
3002
0000
0103
0010
1000
,
1001
0000
0010
0002
0000
0203
0000
0320
,
0000
1030
0002
0000
0203
0000
0310
0000
,
0110
0000
0100
0002
0000
1003
0010
0200
,
0000
0302
0000
0023
0000
0130
1000
0001
,
1001
0000
1000
0001
0000
1000
0001
0000
,
1000
0010
0200
0000
0302
0000
1003
0000
,
1001
0000
0010
0100
0000
0010
0100
0000
,
1000
0001
0100
0000
1001
0000
1001
0000
,
0100
0000
0001
1000
0000
0001
1000
0000
,
0001
0010
0200
0000
2300
0000
3001
0000
,
1001
0000
0001
1001
0000
0010
0100
0010
,
0000
0110
0000
1001
0000
1000
0100
0010
,
0001
0010
0001
0000
1000
0100
1000
0000
,
0001
0010
0100
1000
0001
0001
0001
0000
,
0010
1000
0100
0000
0010
0001
0100
0000
,
0001
0000
0000
1000
0000
0000
0010
0000
0000
0000
0100
0000
0010
0000
1000
0000
;

//---------------dance-single - ----------------
#NOTES:
     dance-single:
     :
     Easy:
     6:
     0.303,0.328,0.048,0.359,0.000:
0000
0000
0000
0000
,
0000
0000
0000
0000
,
1000
0001
1000
0001
,
2000
0000
3001
0000
,
0100
0010
0100
0010
,
0200
0000
0301
0000
,
1000
0100
0001
0100
,
2000
0000
3010
0000
,
0100
0100
0100
0000
,
0010
0010
0010
0000
,
2000
3000
0002
0003
,
0200
0300
0020
0030
,
2000
3000
0002
0003
,
1000
1000
1000
0000
,
0002
0003
0020
0030
,
0200
0300
2000
3000
,
0020
0030
0200
0300
,
0001
0001
0001
0000
,
2000
0010
3010
0000
,
0002
0100
0103
0000
,
2000
0001
3001
0000
,
0002
1000
1003
0000
,
1000
0010
0100
0001
,
0010
0100
1000
0000
,
0001
0010
0100
1000
,
0001
0100
0010
0000
,
2000
3000
0001
0100
,
0010
1000
0001
0100
,
0020
0000
0000
0030
,
1001
0000
0000
1001
0000
0000
0000
0000
,
1000
0010
0100
0001
,
1000
0001
1000
0001
,
0100
0100
0010
0010
,
1000
0000
0001
0000
1000
0010
0100
0001
,
1000
1000
0001
0001
,
2000
3000
0002
0003
,
1000
0001
0010
0100
,
2000
3000
0002
0003
,
1000
0010
0100
0001
,
1000
1000
0001
0000
,
0001
0001
1000
0000
,
0010
1000
0100
0010
,
0002
0000
0003
0000
,
1000
0001
1000
0010
,
0100
0001
0010
0000
,
0001
0100
0010
0100
,
0001
1000
0100
0010
,
0002
0003
2000
3000
,
0020
0030
0200
0300
,
0001
0100
0001
0000
,
1000
0100
1000
0000
,
0001
0001
1000
1000
,
0001
1000
0001
0000
,
2000
3001
0002
1003
,
0010
0100
0010
0000
,
2000
3000
0020
0030
,
0200
0300
0002
0003
,
0020
0030
0200
0300
,
2000
3000
0002
0003
,
1000
0001
1000
0000
,
0001
1000
0001
0000
,
1001
0000
0110
0000
,
1000
0010
0200
0300
,
0001
0010
0100
1000
,
0100
0010
0001
0000
,
1000
0100
0010
0001
,
0010
0100
1000
0000
,
0001
0100
0010
1000
,
0010
0100
0001
0000
,
1000
0010
0100
0001
,
0100
0010
1000
0000
,
2002
0000
0000
0000
,
3003
0000
0001
1000
,
2002
0000
0000
0000
,
3003
0000
1000
0001
;

//---------------dance-single - ----------------
#NOTES:
     dance-single:
     :
     Beginner:
     2:
     0.132,0.175,0.048,0.112,0.000: // measure 1
0000
0000
0000
0000
,  // measure 2
0000
0000
0000
0000
,  // measure 3
1000
0000
0000
0000
,  // measure 4
0001
0000
0000
0000
,  // measure 5
1000
0000
0000
0000
,  // measure 6
0001
0001
0001
0000
,  // measure 7
0100
0000
0000
0000
,  // measure 8
0010
0000
0000
0000
,  // measure 9
0100
0000
0000
0000
,  // measure 10
0010
0010
0010
0000
,  // measure 11
1000
0000
0001
0000
,  // measure 12
1000
0000
0001
0000
,  // measure 13
0100
0000
0010
0000
,  // measure 14
0200
0000
0300
0000
,  // measure 15
0001
0000
1000
0000
,  // measure 16
0001
0000
1000
0000
,  // measure 17
0010
0000
0100
0000
,  // measure 18
0020
0000
0030
0000
,  // measure 19
1000
0000
1000
0000
,  // measure 20
1000
0000
0000
0000
,  // measure 21
0001
0000
0001
0000
,  // measure 22
0001
0000
0000
0000
,  // measure 23
0010
0000
0100
0000
,  // measure 24
0010
0000
0000
0000
,  // measure 25
0100
0000
0010
0000
,  // measure 26
0100
0000
0000
0000
,  // measure 27
1001
0000
0000
0000
,  // measure 28
0000
0000
0000
0000
,  // measure 29
0110
0000
0000
0000
,  // measure 30
0000
0000
0000
0000
,  // measure 31
1000
0000
0000
0000
,  // measure 32
0001
0000
0000
0000
,  // measure 33
0100
0000
0000
0000
,  // measure 34
0010
0000
0000
0000
,  // measure 35
1000
0000
0000
0000
,  // measure 36
0001
0000
0001
0000
,  // measure 37
0001
0000
0000
0000
,  // measure 38
1000
0000
1000
0000
,  // measure 39
1000
0000
0000
0000
,  // measure 40
0020
0000
0030
0000
,  // measure 41
0200
0000
0300
0000
,  // measure 42
0002
0000
0003
0000
,  // measure 43
2000
0000
3000
0000
,  // measure 44
0001
0000
0001
0000
,  // measure 45
0001
0000
0000
0000
,  // measure 46
1000
0000
1000
0000
,  // measure 47
1000
0000
0000
0000
,  // measure 48
2002
0000
0000
3003
,  // measure 49
0000
0000
0000
0000
,  // measure 50
0220
0000
0000
0330
,  // measure 51
0000
0000
0000
0000
,  // measure 52
1000
0000
0001
0000
,  // measure 53
1000
0000
0000
0000
,  // measure 54
0001
0000
1000
0000
,  // measure 55
0001
0000
1000
0000
,  // measure 56
0001
0000
0000
0000
,  // measure 57
1000
0000
0000
0000
,  // measure 58
0010
0000
0010
0000
,  // measure 59
0010
0010
0010
0000
,  // measure 60
1000
0000
0000
0000
,  // measure 61
0001
0000
0000
0000
,  // measure 62
0100
0000
0100
0000
,  // measure 63
0100
0100
0100
0000
,  // measure 64
0010
0000
0010
0000
,  // measure 65
0100
0000
0000
0000
,  // measure 66
0001
0000
0001
0000
,  // measure 67
1000
0000
0000
0000
,  // measure 68
0002
0000
0003
0000
,  // measure 69
2000
0000
3000
0000
,  // measure 70
0020
0000
0030
0000
,  // measure 71
0200
0000
0300
0000
,  // measure 72
1001
0000
0000
0000
,  // measure 73
0000
0000
0000
0000
,  // measure 74
0110
0000
0000
0000
;
