#TITLE:Lovely;
#SUBTITLE:;
#ARTIST:Kim Jong Kook;
#TITLETRANSLIT:;
#SUBTITLETRANSLIT:;
#ARTISTTRANSLIT:;
#GENRE:;
#CREDIT:;
#MENUCOLOR:;
#METERTYPE:DDR;
#BANNER:Lovely.png;
#BACKGROUND:Lovely-bg.png;
#LYRICSPATH:;
#CDTITLE:cdtitle.png;
#MUSIC:Lovely.mp3;
#OFFSET:-0.040;
#SAMPLESTART:12.155;
#SAMPLELENGTH:12.000;
#SELECTABLE:YES;
#LISTSORT:;
#BPMS:0.000=188.000,284.000=94.000;
#STOPS:;
#BGCHANGES:;
#ATTACKS:;

//---------------dance-single - ----------------
#NOTES:
     dance-single:
     :
     Hard:
     11:
     0.458,0.534,0.068,0.147,0.567:
0000
0000
0000
0000
,
0000
0000
0000
0000
,
0000
0000
0000
0000
,
0000
0000
0000
0000
,
0000
0000
0000
0000
,
0000
0000
0000
0000
,
1000
0000
1000
0000
0100
0000
0010
0001
,
0100
0100
0001
0001
,
0010
0000
0010
0000
0100
0000
1000
0100
,
0020
0000
0100
0130
,
1000
0000
0000
0001
0000
0000
1000
0000
0000
0001
0000
0100
,
0000
0000
0100
0000
0000
0100
0010
0000
0000
0010
0000
0000
,
1000
0000
0000
0100
0000
0000
0010
0000
0000
0100
0000
1000
,
0000
0000
0001
0100
0000
0001
0100
0000
0000
0110
0000
0000
,
1000
0000
0000
1000
0000
0000
0001
0000
0000
0001
0000
0010
,
0000
0000
0010
0000
0000
0010
0100
0000
0000
0100
0000
0000
,
1000
0000
0000
0001
0000
0000
1000
0000
0000
0010
0000
0100
,
0000
0000
0100
0001
0000
0100
0001
0000
0010
0001
0000
1000
,
0200
2300
3002
0203
,
0310
0000
0000
0100
0000
0100
0000
0000
0001
0000
0000
1000
,
0200
2300
3002
0023
,
0130
0000
0000
1000
0000
1000
0000
0000
0000
0000
0000
0000
,
0002
0000
0000
2003
0000
0000
3001
0000
1000
0000
0000
0002
,
0000
0000
0000
0000
0000
0003
0100
0000
0000
0010
0000
1000
,
0000
0000
0001
0100
0000
0100
0001
0000
0000
1000
0000
0001
,
0000
0000
0001
0010
0000
0100
1000
0000
0000
1000
0000
0000
,
0001
0000
0000
0100
0000
0000
0001
0000
0000
0010
0000
0100
,
0000
0000
0100
0000
0000
0100
1000
0000
0000
0001
0000
0000
,
0100
0000
0000
0001
0000
0000
0010
0000
0000
0100
0000
1000
,
0000
0000
1000
0000
0000
1000
0100
0000
0000
0010
0000
0000
,
0100
0000
0000
1000
0000
0000
0001
0000
0000
0100
0000
0001
,
0000
0000
0001
0000
0000
0001
0010
0000
0000
0001
0000
0000
,
0100
0000
0000
0010
0000
0000
1000
0000
0000
0001
0000
0100
,
0000
0000
0100
0000
0000
0100
0010
0000
0000
1000
0000
0000
,
0001
0000
0000
0010
0000
0000
0100
0000
0000
1000
0000
0001
,
0000
0000
0001
0000
0000
0001
0100
0000
0000
0001
0000
0000
,
0010
0000
0000
0100
0000
0000
1000
0000
0000
0001
0000
0100
,
0000
0000
0100
0000
0000
0100
0010
0000
0000
1000
0000
0000
,
0001
0000
0000
1000
0000
0000
0001
0000
0000
0010
0000
0100
,
0000
0000
0100
0000
0000
0100
1000
0000
0000
0001
0000
0000
,
1000
0000
0000
0100
0000
0000
0010
0000
0000
0100
0000
1001
,
0000
0000
0001
1000
0000
0001
1000
0000
0010
0100
0010
0100
,
0010
0000
0000
0100
0000
0000
0001
0000
0100
0000
0000
0010
,
0000
0000
1000
0000
0000
0001
0000
0000
1000
0000
0000
0100
,
0000
0000
0010
0000
1001
0000
0000
0220
,
0000
0000
0000
0330
0000
0000
1000
0000
0000
0000
0000
0000
0001
0000
0000
0000
0100
0000
0000
0000
0000
0000
0000
0000
,
0001
0000
0000
1000
0000
0000
0100
0000
1000
0000
0000
0001
,
0000
0000
0010
0000
0000
0100
0000
0000
0010
0000
0000
0001
,
0000
1000
0001
1000
,
0010
0000
0100
0001
0000
1000
0100
0000
0010
0001
0000
0100
,
0010
0000
0000
0100
0000
0000
0001
0000
0010
0000
0000
0100
,
0000
0000
1000
0000
0000
0001
0000
0000
0100
0000
0000
0000
,
1000
0000
0000
0100
0000
0000
0010
0000
0001
0000
0000
1001
,
0000
0000
0001
1000
0000
1000
0001
0000
0001
0010
0000
0010
,
0100
0000
0000
1000
0000
0000
0100
0000
0010
0000
0000
0001
,
0000
0000
0000
1000
0000
0000
0010
0000
0100
0000
0000
0001
,
0000
0000
1000
0001
0000
0100
0001
0000
0100
0010
0100
0020
,
0000
0000
0100
0130
,
1000
0000
0000
0100
0000
0000
0010
0000
0000
0001
0000
0100
,
0000
0000
0001
0000
0000
1000
0100
0000
0000
1100
0000
0000
,
0001
0000
0000
1000
0000
0000
0001
0000
0000
1000
0000
0001
,
0000
0000
0100
0001
0000
1000
0100
0000
0010
0100
0000
0000
,
1000
0000
0000
0010
0000
0000
0100
0000
0000
0001
0000
0010
,
0000
0000
0001
0000
0000
0100
0010
0000
0000
0110
0000
0000
,
0100
0000
0000
0001
0000
0000
0010
0000
0000
0001
0000
1000
,
0000
0000
0001
0100
0000
1000
0100
0000
0001
0010
0000
1000
,
0010
0100
0001
0010
,
0100
0000
0000
1000
0000
0001
0000
0000
0001
0000
0000
1000
,
0100
0000
0000
1000
0000
0000
0010
0000
0100
0000
0000
0001
,
0000
0000
0000
0000
,
0000
0000
0000
0000
,
1000
0000
0000
0000
0000
0000
0000
0000
0100
0000
0000
0000
0000
0000
0000
0000
0010
0000
0000
0000
0000
0001
0000
0000
0000
0000
0000
0000
0000
0000
1000
0000
0000
0000
0000
0000
0000
0000
0000
0000
0000
0000
0010
0000
0000
0000
0000
0000
,
0000
0000
0000
0000
0100
0000
0000
0000
0000
0001
0000
0000
0000
0000
0000
0000
0000
0000
0000
0000
0000
0000
0000
0000
0000
0000
0000
0000
0000
0000
0000
0000
0000
0000
0000
0000
0000
0000
0000
0000
1000
0000
0000
0000
0000
0000
0000
0000
;

//---------------dance-single - ----------------
#NOTES:
     dance-single:
     :
     Medium:
     7:
     0.303,0.321,0.049,0.029,0.039:
0000
0000
0000
0000
,
0000
0000
0000
0000
,
0000
0000
0000
0000
,
0000
0000
0000
0000
,
0000
0000
0000
0000
,
0000
0000
0000
0000
,
1000
1000
0100
0000
,
0001
0001
0100
0000
,
1000
1000
0100
0100
,
0020
0000
0100
0130
,
1000
1000
1000
0000
,
0001
0001
0001
0000
,
1000
0000
0100
0000
0010
0000
0100
1000
,
0000
0000
0010
0010
,
1000
1000
0001
0000
,
0001
0001
1000
0000
,
0001
0000
0100
0000
0010
0000
1000
0100
,
0000
1000
0010
0100
,
0001
0010
0100
1000
,
0010
0010
0000
0100
,
0100
0001
0010
0100
,
1000
1000
0000
0001
,
0001
0000
0000
1000
0000
0000
0001
0000
0000
0000
0000
1001
,
0000
0000
0100
0010
,
0100
0000
1000
1000
,
1000
0000
0001
0001
,
0001
0100
0001
0000
,
0100
0100
0001
0100
,
0010
0010
1000
0000
,
0100
0100
0010
0100
,
0100
1000
0001
0000
,
0001
0001
0010
0001
,
0100
0010
1000
0000
,
0100
0100
0010
0001
,
1000
0010
0100
0000
,
0001
0001
0100
0001
,
0010
0100
1000
0000
,
0100
0100
0010
0001
,
0100
0010
1000
0000
,
0010
0010
0100
0001
,
1000
0010
0100
0000
,
0001
1000
0001
0000
,
1000
0100
0010
0000
,
0001
0010
0100
0000
,
0010
0000
0000
0000
0100
0000
0000
0220
,
0000
0000
0330
0000
,
0001
1000
0100
0000
,
1000
0001
0100
0000
,
0010
1000
0001
1000
,
0010
0010
0010
0000
,
0100
0001
0010
0000
,
0100
0010
1000
0100
,
0010
0001
0100
0000
,
0010
0100
1000
0010
,
0100
0001
0100
0000
,
0010
0010
0010
0000
,
0100
0000
0000
0100
0000
0000
0100
0000
0000
0000
0000
0110
,
0000
0000
0100
0100
,
0100
0000
0001
0000
,
0100
0001
0100
0010
,
1000
0000
0000
1000
0000
0000
1000
0000
0000
0000
0000
1001
,
0000
0000
0001
0001
,
1000
0000
0010
0000
,
1000
0001
0100
0001
,
0010
0000
0000
0010
0000
0000
0010
0000
0000
0000
0000
0110
,
0000
0001
0001
0001
,
1000
0100
0010
0000
,
1000
0100
0010
0001
,
0100
0000
0000
0001
0000
0000
0010
0000
0100
0000
0000
0100
,
0000
0000
0000
0000
,
0000
0000
0000
0000
,
1000
0000
0000
0000
0000
0000
0000
0000
0100
0000
0000
0000
,
0000
0000
0000
0000
0000
0000
0000
0000
0000
0000
0010
0000
;

//---------------dance-single - ----------------
#NOTES:
     dance-single:
     :
     Easy:
     4:
     0.211,0.278,0.049,0.264,0.000:
0000
0000
0000
0000
,
0000
0000
0000
0000
,
0000
0000
0000
0000
,
0000
0000
0000
0000
,
0000
0000
0000
0000
,
0000
0000
0000
0000
,
2000
0000
3100
0000
,
0002
0000
0103
0000
,
2000
0000
3010
0000
,
2002
0000
0000
3003
,
0010
0000
0010
0000
,
0100
0000
0100
0000
,
0001
0000
0001
0000
,
1000
0000
0000
0000
,
0010
0000
0010
0000
,
0100
0000
0100
0000
,
0001
0000
1000
0000
,
0100
0000
0000
0000
,
0010
0000
0010
0000
,
0100
0000
0100
0000
,
0010
0000
0100
0000
,
1000
0000
0000
0000
,
0001
0000
0100
0000
,
0220
0000
0330
0000
,
0001
0000
0001
0000
,
1000
0000
1000
0000
,
0020
0000
0130
0000
,
0200
0000
0301
0000
,
0002
0000
0013
0000
,
0020
0000
0130
0000
,
0200
0000
1300
0000
,
2000
0000
3100
0000
,
0200
0000
0310
0000
,
0020
0000
0031
0000
,
0002
0000
1003
0000
,
2000
0000
3010
0000
,
0020
0000
0130
0000
,
0200
0000
0301
0000
,
0002
0000
1003
0000
,
2000
0000
3001
0000
,
0002
0000
1003
0000
,
2000
0000
3001
0000
,
1000
0000
0100
0000
,
0010
0000
0010
0000
,
0001
0000
0100
0000
,
0020
0000
0030
0000
,
0100
0000
0001
0000
,
0010
0000
0010
0000
,
0100
0000
1000
0000
,
0020
0000
0030
0000
,
1000
0000
0001
0000
,
1000
0000
1000
0000
,
0001
0000
1000
0000
,
0001
0000
0001
0000
,
1000
0000
0100
0000
,
0010
0000
0001
0000
,
1001
0000
0000
0000
,
0220
0000
0000
0330
,
1000
0000
1000
0000
,
0001
0000
0001
0000
,
1000
0000
1000
0000
,
0001
0000
1000
0000
,
0010
0000
0100
0000
,
0001
0000
0001
0000
,
1000
0000
1000
0000
,
0001
0000
0100
0000
,
0010
0000
1000
0000
,
0001
0000
0010
0000
,
0100
0000
0000
0000
1000
0000
0000
0001
,
0000
0000
0000
0000
,
0000
0000
0000
0000
,
1001
0000
0000
0000
;

//---------------dance-single - ----------------
#NOTES:
     dance-single:
     :
     Beginner:
     1:
     0.103,0.139,0.010,0.000,0.000: // measure 1
0000
0000
0000
0000
,  // measure 2
0000
0000
0000
0000
,  // measure 3
0000
0000
0000
0000
,  // measure 4
0000
0000
0000
0000
,  // measure 5
0000
0000
0000
0000
,  // measure 6
0000
0000
0000
0000
,  // measure 7
1000
0000
0000
0000
,  // measure 8
0001
0000
0000
0000
,  // measure 9
1000
0000
0000
0000
,  // measure 10
1001
0000
0000
0000
,  // measure 11
0010
0000
0010
0000
,  // measure 12
0010
0000
0000
0000
,  // measure 13
0100
0000
0100
0000
,  // measure 14
0100
0000
0000
0000
,  // measure 15
0001
0000
0001
0000
,  // measure 16
0001
0000
0000
0000
,  // measure 17
1000
0000
1000
0000
,  // measure 18
1000
0000
0000
0000
,  // measure 19
0001
0000
0000
0000
,  // measure 20
0000
0000
0000
0000
,  // measure 21
1000
0000
0000
0000
,  // measure 22
0000
0000
0000
0000
,  // measure 23
0001
0000
0000
0000
,  // measure 24
1000
0000
0000
0000
,  // measure 25
0001
0000
0000
0000
,  // measure 26
1000
0000
0000
0000
,  // measure 27
0010
0000
0000
0000
,  // measure 28
0100
0000
0000
0000
,  // measure 29
0001
0000
0000
0000
,  // measure 30
0010
0000
0000
0000
,  // measure 31
0100
0000
0000
0000
,  // measure 32
1000
0000
0000
0000
,  // measure 33
0001
0000
0000
0000
,  // measure 34
1000
0000
0000
0000
,  // measure 35
0001
0000
0000
0000
,  // measure 36
0100
0000
0000
0000
,  // measure 37
0010
0000
0000
0000
,  // measure 38
0100
0000
0000
0000
,  // measure 39
0001
0000
0000
0000
,  // measure 40
1000
0000
0000
0000
,  // measure 41
0010
0000
0000
0000
,  // measure 42
0100
0000
0100
0000
,  // measure 43
0100
0000
0000
0000
,  // measure 44
0010
0000
0000
0000
,  // measure 45
0001
0000
0000
0000
,  // measure 46
1000
0000
0000
0000
,  // measure 47
0100
0000
0000
0000
,  // measure 48
0001
0000
0000
0000
,  // measure 49
1000
0000
0000
0000
,  // measure 50
0010
0000
0000
0000
,  // measure 51
0000
1000
0000
1000
,  // measure 52
0000
1000
0000
0000
,  // measure 53
0000
0001
0000
0001
,  // measure 54
0000
0001
0000
0000
,  // measure 55
1000
0000
0000
0000
,  // measure 56
0001
0000
0000
0000
,  // measure 57
0010
0000
0000
0000
,  // measure 58
0100
0000
0000
0000
,  // measure 59
1000
0000
0000
0000
,  // measure 60
0001
0000
0000
0000
,  // measure 61
1000
0000
1000
0000
,  // measure 62
1000
0000
0000
0000
,  // measure 63
0010
0000
0000
0000
,  // measure 64
0100
0000
0000
0000
,  // measure 65
0001
0000
0001
0000
,  // measure 66
0001
0000
0000
0000
,  // measure 67
1000
0000
0000
0000
,  // measure 68
0001
0000
0000
0000
,  // measure 69
0100
0000
0100
0000
,  // measure 70
0100
0000
0000
0000
,  // measure 71
0000
0000
0000
0000
,  // measure 72
0100
0000
0000
0000
;
