#TITLE:かげぬい ~Ver.BENIBOTAN~;
#SUBTITLE:;
#ARTIST:CULTVOICE by S.S.D.PRODUCTS;
#TITLETRANSLIT:KAGENUI ~Ver.BENIBOTAN~;
#SUBTITLETRANSLIT:;
#ARTISTTRANSLIT:;
#CREDIT:;
#BANNER:KAGENUI (Ver.BENIBOTAN).png;
#BACKGROUND:KAGENUI (Ver.BENIBOTAN)-bg.png;
#LYRICSPATH:;
#CDTITLE:cdtitle.png;
#MUSIC:KAGENUI (Ver.BENIBOTAN).mp3;
#OFFSET:0.450;
#SAMPLESTART:11.190;
#SAMPLELENGTH:15.000;
#SELECTABLE:YES;
#BPMS:0.000=186.000;
#STOPS:92.000=1.613
;
#BGCHANGES:;

//---------------dance-single - ----------------
#NOTES:
     dance-single:
     :
     Hard:
     12:
     0.653,0.632,0.361,0.230,0.779:
0000
0000
0000
0000
,
0000
1000
0100
1000
,
0100
1000
0001
1000
,
0001
0100
0001
0100
,
0001
0010
0001
0100
,
0010
1000
0010
0100
,
0010
1000
0010
0100
,
0001
0100
0010
0100
,
0001
0100
0010
0100
,
0001
0000
0000
1000
0000
0000
0001
0000
0100
0000
0000
0010
,
0000
0000
1000
0000
0000
0001
0100
0000
0000
1001
0000
0000
,
1000
0000
0000
0001
0000
0000
0100
0000
0010
0000
0000
0100
,
0000
0000
0001
0000
0000
1000
0010
0000
0000
0110
0000
0000
,
0001
0000
0000
1000
0000
0000
0010
0000
1000
0000
0000
0001
,
0000
0000
1000
0000
0000
0010
0100
0000
0000
1001
0000
0000
,
1000
0000
0000
0001
0000
0000
0100
0000
0001
0000
0000
0010
,
0000
0000
0001
0000
0000
0100
0010
0000
0000
0110
0000
0000
,
1000
1000
0001
0001
,
0100
0000
0000
0100
0000
0000
0010
0000
0000
0010
0000
0100
,
0000
0000
0000
0001
0000
0000
0100
0000
0000
0101
0000
0001
,
0100
0000
0000
0010
0000
0000
1000
0000
0000
0002
0000
2000
,
0000
0000
0000
3003
0000
0000
0001
0000
0000
1000
0000
0001
,
0010
0000
0000
1000
0000
0100
1000
0000
0000
1000
0000
0002
,
2000
0000
0000
3003
0000
0000
1000
0000
0000
0000
0001
0000
1000
0000
0000
0000
1001
0000
0000
0000
0000
0000
0001
0000
,
1000
0000
1000
0100
0000
0100
0010
0000
0010
0001
0000
0001
,
0100
0000
0100
0010
0000
0010
1000
0000
1001
0000
0000
0001
,
0100
0000
0100
0010
0000
0010
1000
0000
1000
0100
0000
0100
,
0001
0000
0001
0100
0000
0100
1000
0000
0000
1001
0000
1000
,
0001
0000
1000
0001
0000
1000
0010
0000
1000
0010
0000
1000
,
0001
0000
1000
0001
0000
0100
0001
0000
0100
0000
0000
0001
,
1000
0000
0001
1000
0000
0001
0100
0000
0001
0100
0000
0001
,
1000
0000
0001
1000
0000
0001
0100
0000
0001
0000
0000
0010
,
1000
0000
1000
0001
0000
0001
0100
0000
0100
0010
0000
0010
,
0100
0000
0100
0001
0000
0001
1000
0000
1001
0000
0000
1000
,
0010
0000
0010
0100
0000
0100
0001
0000
0001
1000
0000
1000
,
0001
0000
0001
0010
0000
0010
0100
0000
0110
0000
0000
0010
,
0100
0000
0010
1000
0000
0010
0100
0000
0010
0001
0000
0010
,
0100
0000
0010
1000
0000
0010
0100
0000
0010
0000
0000
1000
,
0001
0000
1000
0001
0000
0001
1000
0000
0001
1000
0000
1000
,
0001
0000
0000
0010
0000
0000
1100
0000
0000
0001
0000
1000
,
0001
0000
0000
0100
0000
0001
0010
0000
0000
0100
0000
1000
,
0010
0000
0000
0100
0000
0001
0100
0000
0110
0000
0000
0001
,
1000
0000
0000
0010
0000
1000
0001
0000
0000
0100
0000
0010
,
1000
0000
0000
0100
0000
0010
0001
0000
1001
0000
0000
0010
,
1000
0000
0000
0001
0000
0010
0001
0000
0000
1000
0000
0010
,
1000
0000
0000
0010
0000
0100
0010
0000
1010
0000
0000
1000
,
0001
0000
0000
0100
0000
0010
1000
0000
0001
0100
0000
0110
,
0000
0000
0110
0000
0000
0001
1000
0000
1000
0001
0000
0000
,
0110
0000
0000
0001
0000
1000
0000
0000
1000
0000
0000
0001
,
1000
0000
0000
0001
0000
1000
0001
0000
0100
0010
0000
0000
,
0110
0000
0000
1000
0000
0001
0000
0000
0001
0000
0000
1000
,
0010
0200
0310
0001
,
1100
0000
0000
1000
0000
0001
0000
0000
1001
0000
0000
0010
,
1000
0002
0103
0110
,
1000
0000
0000
0010
0000
0100
0000
0000
0110
0000
0000
0001
,
0100
0000
1000
0100
0000
0000
1001
0000
0010
1000
0000
0000
,
0010
0000
0000
0100
0000
0001
0000
0000
0101
0000
0000
0010
,
1000
0000
0000
0001
0000
0010
0100
0000
0000
1000
0000
0001
,
0100
0000
0000
0101
0000
0010
0000
0000
1010
0000
0000
1000
,
0001
0000
0000
0010
0000
0001
1000
0000
0010
2000
0000
0000
,
0001
0000
0001
0000
,
0001
0000
0000
3000
0000
1000
0010
0000
1000
0002
0000
0000
,
1000
0000
1000
0000
,
1000
0000
0000
0003
0000
1000
0010
0000
0100
0002
0000
0000
,
1000
0000
0000
0003
0000
0100
0010
0000
1000
0200
0000
0000
,
0010
0000
0000
0300
0000
0010
0001
0000
0100
0020
0000
0000
,
0130
0000
0010
0100
0000
0000
0100
0000
0010
0100
0000
0010
,
0100
0000
0010
0100
0000
0010
0100
0000
0010
0200
0000
0000
,
0320
0000
0000
2030
0000
0000
3002
0000
0010
0003
0000
0000
,
1000
0002
0103
0001
,
1100
0000
0000
0001
0000
0000
1100
0000
1100
0000
0000
0001
,
0100
0000
0010
0100
0000
0010
1000
0000
0100
2000
0000
0000
,
3200
0000
0000
0320
0000
0000
0032
0000
0100
0003
0000
0000
,
0110
1000
0001
0110
,
0110
0000
0000
1000
0000
0000
0110
0000
0110
0000
0000
1000
,
0001
0000
1000
0010
0000
0100
0010
0000
0100
0002
0000
0000
,
2003
0000
0000
3020
0000
0000
0230
0000
0001
0300
0000
0000
,
1001
0000
0000
0010
0000
0000
0001
0000
1010
0000
0000
0000
,
0002
0000
0000
0203
0000
0000
0301
0000
1000
0010
0000
0000
,
0110
0000
0000
0001
0000
0000
1001
0000
2002
0000
0000
0000
,
3003
0001
1000
1001
,
1000
0000
0001
0000
0000
0001
0100
0000
0010
1000
0000
0000
,
0000
0000
0000
0000
0000
0000
0000
0000
0001
0000
0000
0000
,
1000
0000
0000
0010
0000
0000
0100
0000
0000
0001
0000
1000
,
0001
0000
0000
1000
0000
0001
1000
0000
0001
1000
0000
0001
,
1000
0000
0010
1000
0000
0010
0100
0000
0110
0000
0000
1000
,
0001
0000
0000
0010
0000
0001
0100
0000
0001
0100
0000
0010
,
0100
0000
0010
0100
0000
0010
1000
0000
0110
0000
0000
1000
,
0001
0000
0000
0100
0000
0010
1000
0000
0001
0100
0000
0001
,
0010
0000
0100
0010
0000
0100
1000
0000
1001
0000
0000
0001
,
1000
0000
0000
1001
0000
0001
1000
0000
0001
1000
0000
0000
;

//---------------dance-single - ----------------
#NOTES:
     dance-single:
     :
     Medium:
     10:
     0.513,0.632,0.180,0.361,0.008:
0000
0000
0000
0000
,
0000
0001
0001
1000
,
1000
0010
0010
0100
,
0100
0001
1000
0001
,
1000
1001
0000
0110
,
0000
1000
0010
0100
,
0001
1000
0010
0100
,
0001
1000
0100
0010
,
0001
1000
0100
0010
,
0110
0000
0100
0000
1000
0001
1000
0000
,
0100
0000
1000
0010
0000
0010
1000
0000
,
0001
0000
0100
0010
0100
0000
0001
0000
,
0010
0000
0100
1000
0000
1000
0100
0000
,
0010
0000
0001
0100
0010
0000
1000
0000
,
0001
0000
0100
0010
0000
0010
1000
0000
,
0001
0000
1000
0100
0010
0000
0100
0000
,
1000
0000
0010
0100
0000
0100
0001
0000
,
2000
3002
0023
0230
,
1300
0001
0100
0000
0001
0010
0100
0000
,
2000
3020
0230
0302
,
1003
0001
1000
0001
1000
0000
0001
0000
,
2001
0010
0000
3010
,
1002
0100
0000
0103
,
0110
0000
1000
0001
1000
0000
1001
0000
,
0001
0010
0100
1000
,
0010
0000
0100
0001
0100
0000
1001
0000
,
1000
0010
0100
0001
,
0010
0100
0110
0001
,
0100
0000
0001
0000
0100
0000
0001
0100
,
0001
0100
0010
0000
0100
0000
0010
0000
,
1000
0000
0010
0000
1000
0000
0010
1000
,
0010
1000
0100
0000
0010
0000
0001
0000
,
1000
0010
0100
0001
,
0010
0000
0100
1000
0010
0000
0110
0000
,
0100
0001
0010
0100
,
1000
0000
0001
1000
0100
0000
0110
0000
,
0001
1000
0001
1000
0001
0000
1000
0001
,
1000
0001
1000
0000
0001
0000
0200
0000
,
0000
0320
0000
2030
,
0000
3002
0000
1003
,
0010
0000
1000
0000
0010
0000
1000
0001
,
1000
0001
1000
0001
1000
0001
0000
0000
,
0100
0001
0100
0001
,
1000
0001
1000
0001
1000
0001
0000
0000
,
1000
0010
1000
0010
,
0100
0010
0100
0010
0100
0010
0000
0000
,
1000
0001
1001
1001
,
0000
0110
0000
2000
,
3020
0230
0302
2003
,
3200
0320
0032
1003
,
1001
0001
1001
1000
,
0001
0010
0100
2000
,
3002
0203
0320
0230
,
0302
2003
3020
1030
,
1000
0000
0001
0000
0001
0000
1000
0001
,
1000
1001
0000
1000
,
1000
0000
0010
0100
0010
0100
0000
0000
,
0001
0100
0010
1000
,
1000
0000
0001
0100
0001
0100
0000
0000
,
0010
0100
0010
0210
,
0010
0000
0001
0000
,
0010
0000
0301
1002
,
1000
0000
0100
0000
,
1000
0000
0103
0101
,
0001
0000
1000
1010
,
0010
0000
0100
0002
,
0000
2003
0000
3010
,
0100
0001
1000
0001
,
0100
0001
0100
0010
,
1000
0010
1000
0002
,
2003
3020
0230
0301
,
1000
0001
1000
0001
1000
0001
1000
0000
,
0001
0100
0010
0100
,
0001
0010
0100
2000
,
3002
0000
0203
0000
0320
0000
1030
0001
,
1000
0001
0100
0001
0100
0001
0010
0000
,
0100
1000
0010
0100
,
0001
0100
1000
0200
,
0000
0000
0310
0010
,
1000
0100
0001
0200
,
0000
0000
0300
0001
,
0100
0010
1000
1001
,
0000
0000
0000
0000
,
0000
0000
0000
0001
,
0001
1000
1000
0001
,
0001
0000
1000
0010
1000
0010
0000
0000
,
0001
0001
1000
1000
,
0001
0000
0100
0010
0100
0010
0000
0000
,
0100
0100
0001
0001
,
1000
0000
0010
1000
0010
1000
0000
0000
,
0001
0000
0000
0001
0000
1000
0001
0000
1000
0001
0000
0000
;

//---------------dance-single - ----------------
#NOTES:
     dance-single:
     :
     Easy:
     7:
     0.378,0.372,0.221,0.246,0.000: // measure 1
0000
0000
0000
0000
,  // measure 2
0000
0001
0001
0001
,  // measure 3
0000
1000
1000
1000
,  // measure 4
0000
0010
0010
0010
,  // measure 5
0000
0110
0000
1001
,  // measure 6
0000
0010
0010
0010
,  // measure 7
0000
0100
0100
0100
,  // measure 8
0000
0001
0001
0001
,  // measure 9
0000
1001
0000
0110
,  // measure 10
0100
0001
0100
0010
,  // measure 11
1000
0010
0200
0000
,  // measure 12
0301
1000
0001
0001
,  // measure 13
0010
0100
2000
0000
,  // measure 14
3001
0100
0001
0100
,  // measure 15
0010
1000
0010
1000
,  // measure 16
0100
0010
0001
0010
,  // measure 17
0100
1000
0020
0030
,  // measure 18
1001
0000
0110
0000
,  // measure 19
1100
0000
0101
0000
,  // measure 20
1000
0010
1000
0010
,  // measure 21
0100
0001
0100
0001
,  // measure 22
2000
0000
0001
0000
,  // measure 23
0001
0000
0001
0000
,  // measure 24
3001
0000
0000
1000
,  // measure 25
0100
0010
0001
1000
,  // measure 26
0100
0010
0000
0001
,  // measure 27
0010
0100
1000
0001
,  // measure 28
0010
0100
0000
1000
,  // measure 29
0010
0100
0010
1000
,  // measure 30
0001
0100
0110
0000
,  // measure 31
1000
0010
0100
0001
,  // measure 32
0010
0100
1000
2000
,  // measure 33
0000
0001
0000
0001
,  // measure 34
0000
3001
1000
0002
,  // measure 35
0000
1000
0000
1000
,  // measure 36
0000
1000
0000
1003
,  // measure 37
0001
0100
0001
0100
,  // measure 38
0010
1000
1001
0000
,  // measure 39
1000
0010
0100
0001
,  // measure 40
0010
0100
1001
0000
,  // measure 41
0001
0001
0010
0010
,  // measure 42
0100
0100
2000
0000
,  // measure 43
3010
0010
0100
0100
,  // measure 44
0001
0001
2000
0000
,  // measure 45
3001
0001
1000
1000
,  // measure 46
0010
0010
0200
0000
,  // measure 47
0310
1000
0100
1000
,  // measure 48
0000
0001
0000
1000
,  // measure 49
0010
0100
0001
2000
,  // measure 50
0000
3002
0000
1003
,  // measure 51
0001
0010
0100
2000
,  // measure 52
0000
3002
0000
0103
,  // measure 53
0010
0100
0001
0020
,  // measure 54
0000
0230
0000
1300
,  // measure 55
0001
1000
0001
0100
,  // measure 56
0010
0100
0000
1001
,  // measure 57
0000
1001
0000
0110
,  // measure 58
0000
0110
0000
1000
,  // measure 59
0010
0100
0001
1001
,  // measure 60
0000
1001
0000
2002
,  // measure 61
0000
0000
0000
0000
,  // measure 62
3003
1001
0000
0220
,  // measure 63
0000
0000
0000
0000
,  // measure 64
0330
0110
0000
1001
,  // measure 65
0000
0100
0000
1001
,  // measure 66
0000
0010
0000
1001
,  // measure 67
0000
1001
0000
0001
,  // measure 68
1000
0001
1000
0010
,  // measure 69
0010
0100
0100
0001
,  // measure 70
0001
1000
0000
1000
,  // measure 71
0001
1000
0020
0100
,  // measure 72
0030
0100
0000
0100
,  // measure 73
0001
0100
0010
1000
,  // measure 74
0000
0001
1000
0010
,  // measure 75
0000
0100
0001
1000
,  // measure 76
0000
1001
0000
0001
,  // measure 77
1000
0001
1000
0010
,  // measure 78
0000
1000
0001
0100
,  // measure 79
0000
0001
0010
0100
,  // measure 80
1000
0100
0010
0002
,  // measure 81
0000
2003
0000
3020
,  // measure 82
0000
0230
0000
0301
,  // measure 83
0000
0000
0000
0000
,  // measure 84
1000
1000
1000
0001
,  // measure 85
1000
0001
1000
0020
,  // measure 86
0000
0230
0000
0301
,  // measure 87
1000
0001
1000
0200
,  // measure 88
0000
0320
0000
0031
,  // measure 89
1000
0001
1000
0020
,  // measure 90
0000
0230
0000
0301
,  // measure 91
1000
0100
0010
1001
;

//---------------dance-single - ----------------
#NOTES:
     dance-single:
     :
     Beginner:
     5:
     0.246,0.298,0.123,0.164,0.000:
0000
0000
0000
0000
,
0000
0001
0000
0001
,
0000
1000
0000
1000
,
0000
0010
0000
0010
,
0000
0100
0000
0000
,
0000
1000
0000
0001
,
0000
1000
0000
0001
,
0000
0100
0000
0010
,
0000
0100
0000
0000
,
0010
0000
0010
0000
,
0100
0000
0100
0000
,
0001
0000
0001
0000
,
1000
0000
1000
0000
,
0010
0000
0100
0000
,
0001
0000
1000
0000
,
0010
0000
0100
0000
,
0001
0000
1000
0000
,
0001
0001
0001
0000
,
1000
1000
1000
0000
,
0010
0010
0010
0000
,
0100
0100
0100
0000
,
2002
0000
0000
3003
,
0020
0030
0200
0300
,
0000
0000
0000
1001
,
0000
1000
0000
0001
,
0000
0100
0000
0110
,
0000
0010
0000
1000
,
0000
0001
0000
0100
,
0000
0100
0000
0010
,
0000
0010
0000
1000
,
0000
1000
0000
0001
,
0000
0001
0000
0110
,
0000
0000
0000
0001
,
0000
1000
0000
1001
,
0000
1000
0000
0010
,
0000
0100
0000
0110
,
0000
1000
0000
0001
,
0000
0200
0000
0300
,
0000
0001
0000
1000
,
0000
0020
0000
0030
,
0010
0000
0100
0000
,
0010
0000
0100
0000
,
0001
0000
1000
0000
,
0001
0000
1000
0000
,
0010
0000
0100
0000
,
0010
0000
0100
0000
,
0001
0001
0001
0001
,
0000
0000
0000
1000
,
0000
0010
0000
0100
,
0000
0100
0000
0001
,
0000
0010
0000
0100
,
0000
0100
0000
1000
,
0000
0010
0000
0100
,
0000
0001
0000
1000
,
1000
1000
1000
2000
,
0000
3000
0000
0001
,
0000
1000
0000
1001
,
0000
0000
0000
0001
,
0000
1000
0000
1001
,
0000
0000
2002
3003
,
1000
0000
0001
0000
,
1000
0000
2002
3003
,
0001
0000
1000
0000
,
0001
0000
2002
3003
,
0000
0000
2002
3003
,
0000
0000
2002
3003
,
0000
0100
0000
0010
,
0000
0110
0000
1000
,
1000
1000
0000
0001
,
0001
0001
0000
0100
,
0000
0100
0000
0200
,
0000
0300
0000
0001
,
0001
0001
0000
1000
,
1000
1000
0000
0010
,
0000
0010
0000
0020
,
0000
0030
0000
0100
,
0000
0001
0000
0100
,
0000
0010
0000
1000
,
0000
0010
0000
0100
,
0100
0100
0100
0200
,
0000
0300
0000
0010
,
0000
0100
0000
0110
,
0000
0000
0000
0000
,
0000
0000
0000
0000
,
1000
0000
0001
0000
,
0100
0000
0010
0000
,
1000
0000
0001
0000
,
1000
0000
0010
0000
,
1000
0000
0001
0000
,
0100
0000
0001
0000
,
0010
0000
0100
0100
;
