#TITLE:I Heart You (ARP Remix);
#SUBTITLE:;
#ARTIST:Remixed by ARP;
#TITLETRANSLIT:;
#SUBTITLETRANSLIT:;
#ARTISTTRANSLIT:;
#CREDIT:;
#BANNER:I Heart You (ARP Remix).png;
#BACKGROUND:I Heart You (ARP Remix)-bg.png;
#LYRICSPATH:;
#CDTITLE:cdtitle.png;
#MUSIC:I Heart You (ARP Remix).mp3;
#OFFSET:-0.062;
#SAMPLESTART:44.444;
#SAMPLELENGTH:12.500;
#SELECTABLE:YES;
#BPMS:0.000=135.000;
#STOPS:;
#BGCHANGES:;

//---------------dance-single - ----------------
#NOTES:
     dance-single:
     :
     Hard:
     9:
     0.454,0.470,0.086,0.229,0.000:
0000
0000
0000
0000
,
0000
0000
0000
0000
,
0000
0000
0000
0000
,
0000
0000
0000
0000
,
1000
0100
0001
0100
,
1000
0100
0001
0100
,
1000
0010
0001
0010
,
1000
0000
0100
0000
0010
0000
0001
0001
,
1001
1000
0100
1000
0000
0001
0100
0000
,
0010
1000
0100
0010
0001
0000
1000
0000
,
0010
1000
0010
0100
0000
0001
0100
0000
,
0010
1000
0010
0100
0001
0000
1000
0000
,
0001
0010
0100
1000
0000
0001
0010
0000
,
0100
1000
0010
0100
0001
0000
1000
0000
,
0001
0010
0001
1000
0000
0010
1000
0000
,
0010
1000
0010
0001
0010
0000
1000
0000
,
0001
0010
0001
0000
1000
0100
1000
0000
,
0001
0100
1000
0100
0001
0010
0100
0000
,
1000
0010
1000
0000
0001
0010
0001
0000
,
1000
0100
0001
0100
1000
0010
0100
0000
,
0001
0010
0100
0000
1000
0010
0100
0000
,
0001
0100
0010
0100
0001
0010
0100
0000
,
1000
0100
0001
0000
0001
0100
1000
0000
,
0100
1000
0100
1000
0001
0010
0100
0000
,
2001
3010
1002
0013
,
0001
1000
0001
0000
1000
0000
0100
0010
,
0000
0001
0010
0100
1000
0000
0001
0100
,
0002
0023
0230
2300
,
3001
0100
0001
0000
1000
0100
1000
0000
,
0002
0203
0320
2030
,
3001
0010
0100
0000
1000
0010
0100
0000
,
0002
2003
3200
0320
,
0031
0010
0100
1000
0100
0010
0001
0000
,
1000
0100
0001
0100
1000
0100
0001
0000
,
0100
1000
0010
0100
0001
0010
0100
0000
,
1000
0100
0100
0000
0001
0100
0100
0000
,
1000
0010
0100
0001
0020
0100
0130
0000
,
1000
0001
0100
0010
2000
0100
3100
0000
,
1000
0010
0001
0000
1000
0100
0001
0000
,
2001
3100
1002
0103
,
1001
0000
0001
0010
0100
1000
0001
0010
,
0000
1000
0100
0010
0001
1000
1001
0000
,
0110
0000
0001
0010
0100
1000
0100
0010
,
0001
0000
0010
0100
0000
0100
1000
0010
,
0100
0000
0001
0100
0001
0000
1000
0100
,
1000
0000
0001
0100
0000
0100
0010
0000
,
0010
1000
0100
0010
0001
0010
0100
0000
,
1000
0001
0100
0000
0001
1000
0100
0000
,
0002
0010
0010
0013
,
2000
0010
0010
3010
,
0010
1000
0010
0000
0100
0001
0100
0000
,
0010
1000
0010
0000
0100
0001
0100
0000
,
0020
1000
0100
1030
,
0200
0001
0010
0301
,
1000
0100
0001
0000
1000
0010
0001
0000
,
0010
0001
0100
0010
1000
0001
0100
0010
,
2002
0000
0000
0000
,
0000
0000
0000
0000
,
3003
0000
0000
0000
;

//---------------dance-single - ----------------
#NOTES:
     dance-single:
     :
     Medium:
     6:
     0.282,0.387,0.086,0.276,0.000:
0000
0000
0000
0000
,
0000
0000
0000
0000
,
0000
0000
0000
0000
,
0000
0000
0000
0000
,
1000
1000
0100
0100
,
0010
0010
0001
0001
,
1000
0100
0010
0001
,
1000
0100
0010
0001
,
2001
0000
0000
0000
,
3020
0000
0000
0000
,
0230
0000
0000
0000
,
0302
0000
0000
0000
,
0023
0000
0000
0000
,
0230
0000
0000
0000
,
2300
0000
0000
0000
,
3020
0000
0000
0000
,
0130
0100
0100
0100
,
0001
0001
0001
0001
,
1000
1000
1000
1000
,
0010
0010
0010
0010
,
0100
0001
0100
0001
,
1000
0010
1000
0010
,
1000
0100
0010
0001
,
2002
0000
0000
3003
,
2001
0001
0001
3001
,
1000
0010
0100
0001
,
1002
1000
1000
1003
,
1000
0100
0010
0000
0100
0010
0001
0000
,
2010
0010
0010
3010
,
0001
0010
0100
1000
,
0102
0100
0100
0103
,
0001
0100
0001
0000
1000
0010
1000
0000
,
0210
0010
0010
0310
,
0100
0010
1000
0001
,
0120
0100
0100
0130
,
1000
0100
0010
0000
0001
0010
0100
0000
,
1000
0100
0010
0001
,
0001
0010
0100
1000
,
0002
0010
0010
0013
,
2000
0100
0100
3100
,
1000
0100
1000
0100
,
0010
0001
0010
0001
,
1000
0100
1000
0000
0001
0010
0001
0000
,
1000
0000
0001
0100
0001
0000
1000
0000
,
0010
0010
0100
0100
,
0010
1000
0100
0000
0010
0001
0100
0000
,
0200
0001
0010
0301
,
0020
1000
0100
1030
,
2001
0000
0000
3000
,
0020
0000
0000
0030
,
0200
0000
0000
0300
,
0002
0000
0000
0003
,
0020
0000
0000
0030
,
0200
0000
0000
0300
,
2000
0000
0000
3000
,
0002
0000
0000
0000
,
2000
0000
0000
0000
,
0000
0000
0000
0000
,
3003
0000
0000
0000
;

//---------------dance-single - ----------------
#NOTES:
     dance-single:
     :
     Easy:
     4:
     0.156,0.249,0.067,0.105,0.000: // measure 1
0000
0000
0000
0000
,  // measure 2
0000
0000
0000
0000
,  // measure 3
0000
0000
0000
0000
,  // measure 4
0000
0000
0000
0000
,  // measure 5
1000
0000
1000
0000
,  // measure 6
0010
0000
0010
0000
,  // measure 7
0100
0000
0100
0000
,  // measure 8
0001
0000
0001
0000
,  // measure 9
2002
0000
0000
3003
,  // measure 10
0000
0000
0000
0000
,  // measure 11
0020
0000
0000
0030
,  // measure 12
0000
0000
0000
0000
,  // measure 13
0200
0000
0000
0300
,  // measure 14
0000
0000
0000
0000
,  // measure 15
0002
0000
0000
0003
,  // measure 16
0000
0000
0000
0000
,  // measure 17
1000
0000
0000
0000
,  // measure 18
1000
0000
0000
0000
,  // measure 19
0001
0000
0000
0000
,  // measure 20
0001
0000
0000
0000
,  // measure 21
0010
0000
0000
0000
,  // measure 22
0010
0000
0000
0000
,  // measure 23
0100
0000
0100
0000
,  // measure 24
0100
0100
0100
0100
,  // measure 25
0100
0000
0010
0000
,  // measure 26
0100
0000
0110
0000
,  // measure 27
0001
0000
1000
0000
,  // measure 28
0001
0000
1001
0000
,  // measure 29
0100
0000
0010
0000
,  // measure 30
0100
0000
0110
0000
,  // measure 31
1000
0000
0001
0000
,  // measure 32
1000
0000
1001
0000
,  // measure 33
1000
0000
0100
0000
,  // measure 34
0001
0000
0100
0000
,  // measure 35
1000
0000
0010
0000
,  // measure 36
0001
0000
0010
0000
,  // measure 37
1000
0000
0100
0000
,  // measure 38
0010
0000
0001
0000
,  // measure 39
1000
0000
0100
0000
,  // measure 40
0010
0001
1000
0100
,  // measure 41
0010
0001
0010
0001
,  // measure 42
1000
0100
1000
0100
,  // measure 43
0020
0000
0000
0030
,  // measure 44
0002
0000
0000
0003
,  // measure 45
2000
0000
0000
3000
,  // measure 46
0200
0000
0000
0300
,  // measure 47
0010
0010
0010
0010
,  // measure 48
0001
0000
1000
0000
,  // measure 49
1001
1000
0000
0001
,  // measure 50
0000
1000
0000
0010
,  // measure 51
0010
0010
0000
0100
,  // measure 52
0000
0001
0000
1000
,  // measure 53
1000
1000
0000
0010
,  // measure 54
0000
0100
0000
0001
,  // measure 55
0001
0001
0000
1000
,  // measure 56
0000
0100
0000
0010
,  // measure 57
0220
0000
0000
0000
,  // measure 58
0000
0000
0000
0000
,  // measure 59
0330
0000
0000
0000
;

//---------------dance-single - ----------------
#NOTES:
     dance-single:
     :
     Beginner:
     2:
     0.132,0.193,0.048,0.152,0.000: // measure 1
0000
0000
0000
0000
,  // measure 2
0000
0000
0000
0000
,  // measure 3
0000
0000
0000
0000
,  // measure 4
0000
0000
0000
0000
,  // measure 5
1000
0000
0000
0000
,  // measure 6
0010
0000
0000
0000
,  // measure 7
0100
0000
0000
0000
,  // measure 8
0001
0000
0000
0000
,  // measure 9
1001
0000
0000
0000
,  // measure 10
0000
0000
0000
0000
,  // measure 11
0110
0000
0000
0000
,  // measure 12
0000
0000
0000
0000
,  // measure 13
1001
0000
0000
0000
,  // measure 14
0000
0000
0000
0000
,  // measure 15
0110
0000
0000
0000
,  // measure 16
0000
0000
0001
0000
,  // measure 17
0002
0000
0003
0000
,  // measure 18
0010
0000
0010
0000
,  // measure 19
0020
0000
0030
0000
,  // measure 20
0100
0000
0100
0000
,  // measure 21
0200
0000
0300
0000
,  // measure 22
1000
0000
1000
0000
,  // measure 23
2000
0000
3000
0000
,  // measure 24
0000
0001
0001
0001
,  // measure 25
0001
0000
0000
0000
,  // measure 26
0010
0000
0010
0000
,  // measure 27
0010
0000
0000
0000
,  // measure 28
0100
0000
0100
0000
,  // measure 29
0100
0100
0000
0000
,  // measure 30
0010
0010
0000
0000
,  // measure 31
1000
1000
0000
0000
,  // measure 32
0001
0000
0001
0001
,  // measure 33
0000
0000
0000
0000
,  // measure 34
1000
0000
1000
0000
,  // measure 35
1000
0000
0000
0000
,  // measure 36
0010
0000
0010
0010
,  // measure 37
0000
0000
0100
0100
,  // measure 38
0000
0000
0001
0001
,  // measure 39
0000
0000
1000
1000
,  // measure 40
2000
3000
0002
0003
,  // measure 41
1000
0000
1000
0000
,  // measure 42
0001
0000
0001
0000
,  // measure 43
1000
0000
1000
0000
,  // measure 44
0001
0000
0001
0000
,  // measure 45
0100
0000
0100
0000
,  // measure 46
0010
0000
0010
0000
,  // measure 47
0100
0000
0100
0000
,  // measure 48
0010
0000
0000
0010
,  // measure 49
0020
0000
0030
0000
,  // measure 50
2000
0000
3000
0000
,  // measure 51
0002
0000
0003
0000
,  // measure 52
0200
0000
0300
0000
,  // measure 53
0020
0000
0030
0000
,  // measure 54
2000
0000
3000
0000
,  // measure 55
0002
0000
0003
0000
,  // measure 56
0200
0000
0300
0000
,  // measure 57
2002
0000
0000
0000
,  // measure 58
0000
0000
0000
0000
,  // measure 59
3003
0000
0000
0000
;
