#TITLE:Hello Hello;
#SUBTITLE:;
#ARTIST:FTIsland;
#TITLETRANSLIT:;
#SUBTITLETRANSLIT:;
#ARTISTTRANSLIT:;
#CREDIT:;
#BANNER:Hello Hello.png;
#BACKGROUND:Hello Hello-bg.png;
#LYRICSPATH:;
#CDTITLE:cdtitle.png;
#MUSIC:Hello Hello.mp3;
#OFFSET:-0.039;
#SAMPLESTART:46.820;
#SAMPLELENGTH:15.000;
#SELECTABLE:YES;
#BPMS:0.000=100.000;
#STOPS:;
#BGCHANGES:0.000=Hello Hello.avi=1.000=1=1=0,
99999=-nosongbg-=1.000=0=0=0 // don't automatically add -songbackground-
;

//---------------dance-single - ----------------
#NOTES:
     dance-single:
     :
     Hard:
     8:
     0.349,0.344,0.104,0.139,0.012: // measure 1
0000
0000
0000
0000
,  // measure 2
0000
0000
0000
0000
,  // measure 3
0000
0000
0000
0000
,  // measure 4
2002
0000
0000
3003
,  // measure 5
1000
0001
0000
0010
0000
0100
0000
1000
,  // measure 6
0001
1000
0000
0010
0000
0100
0000
0001
,  // measure 7
0010
0001
0000
0010
0000
0100
0000
1000
,  // measure 8
0100
0001
0100
0010
0001
0000
1001
0000
,  // measure 9
0010
0100
0000
0001
0000
0100
0000
0010
,  // measure 10
1000
0100
0000
1000
0000
0010
0000
0100
,  // measure 11
0001
0010
0000
0100
0000
1000
0000
0010
,  // measure 12
0200
0000
0020
0330
,  // measure 13
1000
1000
0100
0000
0010
0010
0001
0000
,  // measure 14
0100
0100
0001
0010
0100
0000
0110
0000
,  // measure 15
1000
1000
0001
0000
0001
0001
1000
0000
,  // measure 16
0010
0100
0001
0000
0110
0000
1001
0000
,  // measure 17
1000
0100
0010
0000
1000
0100
0010
1000
,  // measure 18
0001
0100
0010
0000
0001
0100
0010
0000
,  // measure 19
1000
0010
0100
0010
1000
0100
0010
0100
,  // measure 20
1000
0001
1001
0000
1000
0100
0010
0100
,  // measure 21
1000
0001
0010
0100
1000
0001
0001
0000
,  // measure 22
0001
0010
0100
1000
0001
1000
1000
0000
,  // measure 23
0010
1000
0100
0000
0010
0001
0100
0000
,  // measure 24
0020
2030
3002
0203
,  // measure 25
0310
1000
0100
0010
0001
0010
0010
0000
,  // measure 26
0100
1000
0010
0100
0001
0100
0100
0000
,  // measure 27
0001
1000
0100
0000
1000
0001
0100
0000
,  // measure 28
0010
1000
0010
1000
0001
0100
0001
0100
,  // measure 29
0010
1000
0100
1000
0010
0100
0001
0000
,  // measure 30
0010
0100
0010
0001
0100
0010
0001
1000
,  // measure 31
0200
0320
2030
3002
,  // measure 32
0013
0100
0010
0001
0100
0010
0010
0000
,  // measure 33
1000
0100
1000
0010
0100
1000
1000
0000
,  // measure 34
0100
0001
0010
0000
0100
1000
0001
0000
,  // measure 35
1001
0000
0000
0000
0010
0000
0100
0000
0110
0000
0000
0000
0001
0010
0100
1000
,  // measure 36
1001
0000
0000
0000
;

//---------------dance-single - ----------------
#NOTES:
     dance-single:
     :
     Medium:
     5:
     0.218,0.223,0.023,0.116,0.000:
0000
0000
0000
0000
,
0000
0000
0000
0000
,
0000
0000
0000
0000
,
0000
0000
0000
0000
,
1000
0000
0010
0000
0100
0001
0010
0000
,
0100
0000
0100
0000
1000
0100
1000
0000
,
0001
0001
0100
0001
,
0010
0100
2000
3000
,
0001
0010
0100
1000
,
0001
0010
0100
0000
1000
0000
0001
0000
,
0100
0100
0010
0100
,
0220
0000
0000
0330
,
1000
1000
0100
0100
,
0010
0001
0010
0000
0010
0000
0000
0000
,
0100
0100
1000
1000
,
0010
0100
0010
0000
0010
0000
0000
0000
,
0001
1000
0001
0000
,
0100
1000
0001
0000
,
0010
0010
0010
0010
,
1000
0200
0010
0300
,
0010
0000
0001
0000
1000
0001
0000
0000
,
0010
0000
0010
0000
0100
0001
0000
0000
,
0010
0100
0010
0100
,
0002
1003
2000
3001
,
1000
0000
0010
0000
0100
0100
0000
0000
,
0001
0000
0100
0000
0010
0010
0000
0000
,
1000
1000
0001
0001
,
0010
0100
1000
0100
,
0010
0010
0002
0003
,
0010
0001
1000
0100
,
0020
0130
0200
0310
,
0001
0100
0010
0100
,
0001
1000
0200
0300
,
1000
0000
0001
0000
1000
0001
1000
0000
,
0001
1000
1000
0100
,
0110
0000
0000
0000
;

//---------------dance-single - ----------------
#NOTES:
     dance-single:
     :
     Beginner:
     1:
     0.096,0.121,0.012,0.023,0.000:
0000
0000
0000
0000
,
0000
0000
0000
0000
,
0000
0000
0000
0000
,
0000
0000
0000
0000
,
1000
0000
1000
0000
,
0001
0000
0001
0000
,
0010
0000
0010
0000
,
0100
0000
0000
0000
,
1000
0000
0000
0000
,
0100
0000
0000
0000
,
0001
0000
0000
0000
,
0100
0000
0000
0000
,
1000
1000
1000
0000
,
1000
0000
0000
0000
,
0001
0001
0001
0000
,
0001
0000
0000
0000
,
1000
0000
1000
0000
,
0100
0000
0100
0000
,
0010
0000
0010
0000
,
0001
0000
0000
0000
,
0001
0000
0000
0001
,
0001
0000
0000
0010
,
0010
0000
0000
0100
,
0100
0000
0000
1000
,
1000
0000
0100
0000
,
0001
0000
0100
0000
,
1000
0000
0010
0000
,
0100
0000
0001
0000
,
0100
0000
0010
0000
,
1000
0000
0010
0000
,
0100
0000
0100
0000
,
0010
0000
0010
0000
,
1000
0000
1000
0000
,
0001
0000
0001
0000
,
2002
0000
0000
0000
,
3003
0000
0000
0000
;

//---------------dance-single - ----------------
#NOTES:
     dance-single:
     :
     Easy:
     3:
     0.183,0.182,0.035,0.023,0.000:
0000
0000
0000
0000
,
0000
0000
0000
0000
,
0000
0000
0000
0000
,
0000
0000
0000
0000
,
1000
1000
1000
0100
,
0010
0010
0010
0000
,
0100
0100
0100
1000
,
0001
0001
0001
0000
,
1000
1000
0100
0010
,
0010
0100
1000
0001
,
0001
0010
0100
1000
,
2002
0000
3003
0000
,
1000
1000
0010
0010
,
0100
0100
0001
0000
,
0010
0010
0100
0100
,
1000
1000
0001
0000
,
1000
0010
0100
0000
,
0001
0010
0100
0000
,
1000
1000
0001
0001
,
1001
0000
0010
0000
,
0100
0100
0001
0001
,
1000
0001
1000
0000
,
0010
0100
0001
0010
,
1000
1000
1000
1000
,
0100
0010
0001
0001
,
0010
0100
1000
0000
,
0001
0100
0010
0010
,
1000
0100
0010
0000
,
1000
0100
0010
0000
,
0001
0010
0100
0000
,
0001
0010
0100
0000
,
1000
0001
1000
0000
,
0010
0100
0010
0000
,
0001
0010
0100
1000
,
0001
0001
1000
1000
,
1001
0000
0000
0000
;

//---------------dance-single - ----------------
#NOTES:
     dance-single:
     :
     Challenge:
     9:
     0.349,0.344,0.035,0.162,0.434:
0000
0000
0000
0000
,
0000
0000
0000
0000
,
0000
0000
0000
0000
,
2002
0000
0000
3003
,
1000
0000
0000
0010
0100
0000
0000
0000
0000
0000
0001
0010
0100
0000
1000
0000
,
0010
0000
0000
0100
0001
0000
0000
0000
0000
0000
1000
0010
0100
0000
0001
0000
,
0010
0000
0000
0100
1000
0000
0000
0000
0000
0000
0001
0100
0001
0000
0010
0000
,
0100
0000
0100
0000
1000
0100
0000
0100
0000
0000
0000
0000
0000
0000
0000
0000
,
0010
0000
0000
0001
0010
0000
0000
0000
0000
0000
0010
0100
1000
0000
0100
0000
,
0010
0000
0010
0000
0001
0010
0000
0010
0000
0000
0000
0000
1000
0100
0000
0100
,
0000
0000
0000
0000
0010
0001
0000
0001
0000
0000
0001
0000
0010
0000
0100
1000
,
0000
0010
0220
0330
,
1000
0000
0000
1000
0010
0000
0000
0010
0100
0000
0000
0100
0001
0000
0000
0001
,
0010
0000
0100
0000
1000
0010
0000
0100
0000
0000
0000
0000
0000
0000
0000
0000
,
0001
0000
0000
0001
1000
0000
0000
1000
0100
0000
0000
0100
0001
0000
0000
0001
,
0100
0000
1000
0000
0010
0100
0000
0001
0000
0000
0000
0000
0000
0000
0000
0000
,
1000
0000
0000
0100
1000
0000
0000
0000
0000
0000
0100
0010
0001
0000
0010
0000
,
0100
0000
0000
1000
0010
0000
0000
0000
0000
0000
0000
0000
0001
0010
0000
0010
,
0000
0000
0000
0000
0100
1000
0000
1000
0000
0000
0010
0000
0100
0001
0000
0010
,
0000
0000
0000
0000
0200
0000
0000
0000
0310
0000
0001
0010
0000
0100
0000
1000
,
0000
0000
0000
0000
0010
0100
0000
0010
0000
0000
0100
0000
0000
0000
0001
0000
,
0010
0000
0000
0000
0100
1000
0000
0010
0000
0000
0100
0000
0000
0000
0000
0000
,
0001
0000
0100
0000
0001
0100
0000
0010
0000
0000
0100
0000
0001
0000
0010
0000
,
0200
2300
3020
0230
,
0301
0000
0000
0000
0010
0100
0000
0010
0000
0000
0100
0000
0000
0000
1000
0000
,
0010
0000
0000
0000
0100
0010
0000
0100
0000
0000
0001
0000
0000
0000
0000
0000
,
0010
0100
1000
0001
0100
0010
0000
0100
0000
0000
0001
0000
1000
0010
0000
0100
,
0000
0000
0000
0000
0001
0010
0000
0001
0000
0000
0010
0000
0000
0000
0100
0000
,
1000
0000
0000
0000
0010
0100
0000
0010
0000
0000
0100
0000
0000
0000
0000
0000
,
0001
1000
0100
0010
0001
1000
0000
0010
0000
0000
0100
0000
0001
0000
0010
0000
,
0200
2300
3002
0203
,
0310
0000
0000
0000
1000
0010
0000
1000
0000
0000
0010
0000
0000
0000
0001
0000
,
1000
0000
0000
0000
0001
0100
0000
0010
0000
0000
0100
0000
0000
0000
0000
0000
,
0001
1000
0100
0010
0001
0010
0000
0100
0000
0000
1000
0000
0100
0010
0000
0002
,
0000
0000
0000
0003
,
1001
0000
0000
0000
;
