#TITLE:Hancur Hatiku;
#SUBTITLE:;
#ARTIST:Olga Syahputra;
#TITLETRANSLIT:;
#SUBTITLETRANSLIT:;
#ARTISTTRANSLIT:;
#GENRE:;
#CREDIT:;
#MENUCOLOR:;
#METERTYPE:DDR;
#BANNER:Hancur Hatiku.png;
#BACKGROUND:Hancur Hatiku-bg.png;
#LYRICSPATH:;
#CDTITLE:cdtitle.png;
#MUSIC:Hancur Hatiku.mp3;
#OFFSET:-0.040;
#SAMPLESTART:76.405;
#SAMPLELENGTH:12.400;
#SELECTABLE:YES;
#LISTSORT:;
#BPMS:0.000=148.058;
#STOPS:120.000=0.810
;
#BGCHANGES:;
#ATTACKS:;

//---------------dance-single - ----------------
#NOTES:
     dance-single:
     :
     Hard:
     10:
     0.482,0.464,0.176,0.362,0.014: // measure 1
0000
0000
0000
0000
,  // measure 2
0000
0000
0000
0000
,  // measure 3
0000
0000
0000
0000
,  // measure 4
0000
0000
0000
0000
,  // measure 5
0000
0000
0000
0000
,  // measure 6
1000
0000
0000
0110
0000
0000
0001
0000
,  // measure 7
0100
0000
0000
0110
0000
0000
0010
0000
,  // measure 8
1000
0000
0000
0000
0000
0000
0001
0100
0001
0000
1000
0000
0100
0000
0010
0000
,  // measure 9
0001
0000
0000
0002
,  // measure 10
1003
0000
0010
1000
0000
0100
0000
1000
,  // measure 11
0010
0000
0100
0001
0000
0010
0000
0100
,  // measure 12
1000
0000
0001
0100
0000
0010
0000
0100
,  // measure 13
0010
0000
1000
0100
0000
0100
0010
0001
,  // measure 14
0010
0000
0001
0100
0000
0010
0000
1000
,  // measure 15
0010
0000
0100
0010
0000
0100
0000
0001
,  // measure 16
2000
0000
0000
0001
3000
0000
1000
0000
,  // measure 17
0001
0000
0000
1000
0000
0001
0001
0000
,  // measure 18
0010
0100
1000
0100
0000
0010
0000
0001
,  // measure 19
0010
0100
1000
0100
0000
0000
0010
0000
,  // measure 20
0100
1000
0001
0010
0000
0001
0000
1000
,  // measure 21
0010
0001
0010
0100
0000
0000
0002
0000
,  // measure 22
1003
0000
0000
0000
0000
0000
0001
1000
0001
0000
0010
0000
0100
0000
1000
0000
,  // measure 23
2002
0000
3003
2000
,  // measure 24
3010
0000
0100
0001
0000
0001
0100
0000
,  // measure 25
0010
1000
0010
0100
0000
0100
0001
0000
,  // measure 26
0010
0000
0100
1000
0000
1000
0100
0000
,  // measure 27
0010
0001
0010
0100
0000
1000
0010
0000
,  // measure 28
0100
0000
0001
0100
0000
0010
1000
0000
,  // measure 29
1000
0010
0100
0001
0000
0001
0100
0000
,  // measure 30
0010
0000
1000
0100
0000
0100
0010
0000
,  // measure 31
0110
0000
2000
0000
3001
0000
0010
0001
,  // measure 32
0000
0010
0100
0000
0100
1000
0100
0010
,  // measure 33
0000
0010
0100
0000
1000
0000
1000
0100
,  // measure 34
0000
0100
0001
0000
0001
0100
1000
0010
,  // measure 35
0000
0100
0001
0000
0100
0000
0010
1000
,  // measure 36
0000
1000
0100
0000
0010
0001
0010
0100
,  // measure 37
0000
1000
0001
0000
0100
0000
0001
1000
,  // measure 38
0000
0100
0010
0000
0001
1000
0100
1000
,  // measure 39
0000
0010
0010
2000
0000
3020
0000
0230
,  // measure 40
0000
0302
0000
0023
0000
0230
0000
2300
,  // measure 41
0000
3002
0000
1003
0000
1001
0000
1001
,  // measure 42
0000
1000
0001
0000
0001
1000
0100
0010
,  // measure 43
0000
0001
0001
2000
0000
3020
0000
0230
,  // measure 44
0000
0302
0000
0203
0000
2300
0000
3200
,  // measure 45
0000
0302
0000
0023
0000
0230
0000
2300
,  // measure 46
0000
0000
0000
3001
1001
0000
0110
0000
,  // measure 47
1100
0000
0101
0000
0001
2000
0000
3100
,  // measure 48
0010
0100
0010
0001
0020
0000
0130
0100
,  // measure 49
0000
1000
0100
0010
0001
0002
0000
0013
,  // measure 50
0100
0010
0100
1000
0200
0000
0310
0010
,  // measure 51
0000
0001
0100
1000
0100
0200
0000
0301
,  // measure 52
0010
0001
0010
0100
2000
0000
3001
1000
,  // measure 53
0000
0010
0100
0001
0010
0200
0000
0310
,  // measure 54
0010
0000
1001
0000
0001
0010
0100
1000
,  // measure 55
0000
0001
0010
0100
1000
0200
0000
0310
,  // measure 56
0001
0010
0001
1000
0200
0000
0310
0110
,  // measure 57
0000
0001
0010
0100
1000
2000
0000
3010
,  // measure 58
0100
0001
0100
0010
2000
0000
3001
1001
,  // measure 59
0000
0001
1000
0100
0010
0002
0000
0013
,  // measure 60
0100
1000
0100
0010
0002
0000
0103
0101
,  // measure 61
0000
0010
1000
0001
0100
0110
0000
0010
,  // measure 62
0110
0000
0000
0000
1001
0000
0000
0000
0110
0000
0000
0000
0000
0000
0010
1000
,  // measure 63
0010
0100
0001
1000
1001
0000
0000
0000
;

//---------------dance-single - ----------------
#NOTES:
     dance-single:
     :
     Medium:
     7:
     0.352,0.348,0.093,0.019,0.000:
0000
0000
0000
0000
,
0000
0000
0000
0000
,
0000
0000
0000
0000
,
0000
0000
0000
0000
,
0000
0000
0000
0000
,
1000
0000
0000
1000
0000
0000
0000
0000
,
0001
0000
0000
0001
0000
0000
1000
0000
,
0001
0000
0000
0010
0000
0000
0001
0000
,
1000
0000
0000
0001
,
0100
0000
0000
0010
0000
1000
0000
0100
,
0000
0000
0000
0000
0000
1000
0000
0010
,
0000
0000
0000
0100
0000
0000
0001
0000
,
1000
0000
0000
0100
0000
0000
0010
0000
,
0001
0000
0000
1000
0000
0001
0000
0010
,
0000
0000
0000
0000
0000
0100
0000
1000
,
0000
0000
0000
0001
0000
0000
0100
0000
,
0110
0000
0000
0000
0000
0010
0010
0000
,
1000
0000
0000
0000
1000
0100
0010
0000
,
0100
0000
0000
0000
1000
0010
0100
0000
,
0001
0000
0000
0000
0010
0100
1000
0000
,
0001
0000
0000
0000
0100
0010
1000
0000
,
0100
0000
0000
0010
0001
1000
0001
1000
,
0100
0000
0000
0010
,
0001
0000
1000
0100
0000
0100
0000
0100
,
0010
0000
0010
0001
0000
0001
0000
0001
,
0100
0000
0100
0010
0000
0010
0000
0000
,
1000
0000
1000
0001
0000
0001
0000
0000
,
1000
0000
0010
0100
0000
0100
0000
0100
,
0001
0000
0001
0010
0000
0010
0000
0010
,
0100
0000
0100
1000
0000
1000
0001
0000
,
1001
0000
0001
0000
1000
0000
1000
0100
,
0000
0100
0000
0100
0010
0000
0010
0001
,
0000
0001
0000
0001
0100
0000
0100
0010
,
0000
0010
0000
0010
1000
0000
1000
0100
,
0000
0100
0010
0100
1000
0000
1000
0001
,
0000
0001
0000
0001
0100
0000
0100
0010
,
0000
0010
0000
0010
1000
0000
1000
0001
,
0000
1000
0001
0000
1000
0001
1000
0001
,
0000
1000
0001
1000
0000
0010
0000
0100
,
0000
0001
0000
1000
0000
1100
0000
0001
,
0000
0101
0000
0001
0000
0010
0000
0100
,
0000
1000
0100
0000
1000
0000
0100
0000
,
0010
0001
0100
0001
0000
1000
0000
0010
,
0000
0100
0000
0001
0000
1100
0000
1000
,
0000
0101
0000
0010
0000
0100
0000
0001
,
0000
0000
0000
1000
0100
0000
1000
0000
,
0001
0000
0100
0000
0010
1000
0000
0001
,
0100
0001
0100
0001
0100
0000
0010
1000
,
0000
1000
0000
0000
0010
0100
0000
0001
,
0100
0001
0100
0001
0100
0000
0010
0100
,
0000
0100
0000
0000
0001
1000
0000
0100
,
0010
0100
0010
0100
0010
0000
0001
0100
,
0000
0100
0000
0000
0010
1000
0000
0001
,
0100
0110
0220
0000
,
0330
0000
0000
0000
0010
1000
0000
0001
,
0100
0001
0100
0001
0100
0000
0010
1000
,
0000
0100
0010
0000
0001
0100
0000
0001
,
1000
0001
1000
0001
1000
0000
0100
0010
,
0000
0001
0100
0000
0010
1000
0000
0100
,
1000
0100
1000
0100
1000
0000
0010
1000
,
0000
0001
0100
0000
0010
0100
0000
0001
,
0010
0000
0100
0000
1001
0000
0000
0001
,
0010
0100
1000
0001
1001
0000
0000
0000
;

//---------------dance-single - ----------------
#NOTES:
     dance-single:
     :
     Easy:
     4:
     0.201,0.261,0.046,0.019,0.000:
0000
0000
0000
0000
,
0000
0000
0000
0000
,
0000
0000
0000
0000
,
0000
0000
0000
0000
,
0000
0000
0000
0000
,
0010
0000
0100
0000
,
0010
0000
0001
0000
,
2000
0000
0000
0000
,
3000
0000
0000
0001
,
0100
0000
0010
0000
,
1000
0000
0100
0000
,
0010
0000
0001
0000
,
0100
0010
1000
0000
,
0100
0000
0010
0000
,
0001
0000
0010
0000
,
0100
0000
1000
0000
,
1001
0000
0000
0000
,
1000
0000
0001
0000
,
1000
0100
0010
0000
,
0001
0000
1000
0000
,
0001
0010
0100
0000
,
1000
0000
0001
0000
,
1001
0000
0000
1000
,
0100
0000
0010
0000
,
0001
0100
0010
0000
,
1000
0000
0010
0000
,
0100
0001
0100
0000
,
0010
0000
1000
0000
,
0100
0010
0001
0000
,
1000
0000
0001
0000
,
1001
0000
1000
0000
,
0001
0000
0010
0100
,
1000
0000
0001
0000
,
0100
0000
0010
1000
,
0100
1000
0010
0000
,
0100
0000
0001
0010
,
0100
0000
1000
0000
,
0001
0000
1000
0001
,
1000
0001
1000
0000
,
0100
0000
0010
0000
,
0001
0000
0010
0100
,
1000
0000
0001
0100
,
0010
0000
0100
0000
,
0001
0000
0010
0000
,
0100
0000
1000
0000
,
0001
0000
0100
0001
,
0010
0100
2000
0000
,
3000
0001
0001
0000
0100
0000
0010
0000
,
1000
0000
0001
0010
,
0100
0000
1000
0100
,
0010
0000
0001
0100
,
0010
0000
1000
0001
,
1000
0000
0001
0010
,
0001
0010
0100
0000
,
1000
0000
0100
0010
,
0001
0000
0100
0010
,
1000
0000
0001
0100
,
0010
0000
1000
0100
,
0010
0000
0001
1000
,
0100
0000
0010
0001
,
0010
0000
0100
1000
,
0010
0000
1001
0000
,
0100
0010
1001
0000
;

//---------------dance-single - ----------------
#NOTES:
     dance-single:
     :
     Beginner:
     1:
     0.093,0.116,0.000,0.000,0.000:
0000
0000
0000
0000
,
0000
0000
0000
0000
,
0000
0000
0000
0000
,
0000
0000
0000
0000
,
0000
0000
0000
0000
,
0000
0000
0000
0000
,
0000
0000
0000
0000
,
0100
0000
0100
0000
,
0100
0000
0000
0000
,
0010
0000
0010
0000
,
0010
0000
0000
0000
,
1000
0000
0000
0000
,
0001
0000
0000
0000
,
0100
0000
0100
0000
,
0100
0000
0000
0000
,
0010
0000
0000
0000
,
1000
0000
0000
0000
,
0001
0000
0000
0000
,
1000
0000
0000
0000
,
0100
0000
0000
0000
,
0010
0000
0000
0000
,
1000
0000
1000
0000
,
1000
0000
0000
0000
,
0001
0000
0001
0000
,
0001
0000
0000
0000
,
0010
0000
0010
0000
,
0010
0000
0000
0000
,
0100
0000
0100
0000
,
0100
0000
0000
0000
,
0010
0000
0000
0000
,
0100
0000
0000
0000
,
0000
0000
0100
0000
,
0000
0000
0001
0000
,
0001
0000
0001
0000
,
0000
0000
0010
0000
,
0000
0000
0100
0000
,
0000
0000
1000
0000
,
0000
0000
0001
0000
,
0001
0000
0001
0000
,
0000
0000
0001
0000
,
0000
0000
1000
0000
,
0000
0000
1000
0000
,
0000
0000
0010
0000
,
0000
0000
0010
0000
,
0000
0000
0100
0000
,
0000
0000
0100
0000
,
0100
0000
0100
0000
,
0000
0000
0001
0000
,
0000
0000
1000
0000
,
0000
0000
0010
0000
,
0000
0000
0100
0000
,
0000
0000
0001
0000
,
0000
0000
0010
0000
,
0000
0000
0100
0000
,
0000
0000
1000
0000
,
0000
0000
0001
0000
,
0001
0000
0001
0000
,
0000
0000
1000
0000
,
1000
0000
1000
0000
,
0000
0000
0010
0000
,
0010
0000
0010
0000
,
0000
0000
0100
0000
,
0100
0000
0100
0000
;
