#TITLE:Go Beyond!!;
#SUBTITLE:;
#ARTIST:Ryu☆ Vs. Sota;
#TITLETRANSLIT:;
#SUBTITLETRANSLIT:;
#ARTISTTRANSLIT:Ryu* Vs. Sota;
#GENRE:;
#CREDIT:;
#MENUCOLOR:;
#METERTYPE:DDR;
#BANNER:Go Beyond!!.png;
#BACKGROUND:Go Beyond!!-bg.png;
#LYRICSPATH:;
#CDTITLE:;
#MUSIC:Go Beyond!!.mp3;
#OFFSET:-0.040;
#SAMPLESTART:10.820;
#SAMPLELENGTH:12.000;
#SELECTABLE:YES;
#LISTSORT:;
#BPMS:0.000=200.000,100.000=100.000,156.000=200.000,284.000=100.000;
#STOPS:;
#BGCHANGES:;
#ATTACKS:;

//---------------dance-single - ----------------
#NOTES:
     dance-single:
     :
     Hard:
     13:
     0.590,0.593,0.390,0.468,0.004: // measure 1
0000
0000
0000
0000
,  // measure 2
0000
0000
0000
0000
,  // measure 3
0000
0000
0000
0000
,  // measure 4
0000
0000
0000
0000
,  // measure 5
0000
0000
0000
0000
,  // measure 6
0001
0100
0001
0100
0010
1000
0010
1000
,  // measure 7
0100
0000
0000
0100
0000
0000
0100
0000
0010
0000
0000
0000
0000
0000
0000
0000
,  // measure 8
2002
0000
3003
0000
0010
0010
0020
0000
,  // measure 9
1000
0100
0001
0130
,  // measure 10
1100
0000
0101
0000
0001
0100
0000
0001
,  // measure 11
0010
0100
0000
1100
0000
0101
0000
0000
,  // measure 12
0010
0000
0010
0000
0100
0001
0100
0010
,  // measure 13
1000
1001
0000
0110
0000
1001
0000
0010
,  // measure 14
1010
0000
0101
0000
0010
0100
0000
0001
,  // measure 15
0010
0100
0000
1100
0000
0011
0000
0000
,  // measure 16
0100
0000
0110
0000
0001
0100
0001
1000
,  // measure 17
0200
0001
0010
1300
,  // measure 18
0001
0100
0001
0100
0010
1000
0100
0001
,  // measure 19
0100
1100
0010
0011
,  // measure 20
1000
0010
1000
0010
0100
0001
0010
1000
,  // measure 21
0010
0011
0100
1100
,  // measure 22
0110
0000
0110
0000
1000
1000
0000
0001
,  // measure 23
0100
0100
0000
0110
0000
1001
0200
0010
,  // measure 24
0310
0000
0010
0000
0100
0101
0000
1010
,  // measure 25
0000
0000
1001
1001
,  // measure 26
0200
0320
2030
3002
,  // measure 27
0023
0000
0000
0230
,  // measure 28
2300
3002
0203
0302
,  // measure 29
0023
0000
0000
0130
,  // measure 30
2100
3010
0012
0103
,  // measure 31
0202
0000
0300
0013
,  // measure 32
2010
3100
0201
0301
,  // measure 33
2002
0000
0003
3010
,  // measure 34
0202
0000
0003
0310
,  // measure 35
2200
0000
3000
1300
,  // measure 36
0002
0023
0230
2300
,  // measure 37
3002
0000
0100
0100
,  // measure 38
0100
0000
0103
0000
0110
1000
0000
0001
,  // measure 39
0000
0000
1100
0101
0020
1000
1000
1030
,  // measure 40
0001
0010
0001
0010
0100
1000
0100
1000
,  // measure 41
0010
1000
0010
1000
0001
0100
0001
0100
,  // measure 42
0010
1000
0100
1000
0010
1000
0100
1000
,  // measure 43
0010
0010
1000
0001
0010
0010
0001
0100
,  // measure 44
0010
1000
0100
0010
0001
0100
0010
1000
,  // measure 45
0100
0010
0100
1000
0001
0100
0010
1000
,  // measure 46
0001
0100
0001
0100
1000
0100
1000
0100
,  // measure 47
0001
0001
1000
0100
1000
1000
0001
0010
,  // measure 48
0001
0100
0010
1000
0100
0001
0100
1000
,  // measure 49
0010
0100
0001
0010
1000
0010
0001
0100
,  // measure 50
0010
1000
0100
0001
0100
0010
0001
0100
,  // measure 51
0010
0010
0100
0010
0100
0100
0001
0100
,  // measure 52
0010
0100
1000
0100
0001
0010
1000
0010
,  // measure 53
0100
1000
0010
0100
0001
0010
0100
1000
,  // measure 54
0010
0001
0010
0001
0010
1000
0010
1000
,  // measure 55
0010
0001
1000
0100
0001
0010
1000
0001
,  // measure 56
0100
1000
0100
2000
0100
0000
0001
0000
,  // measure 57
3010
0100
0001
0200
0010
0000
1000
0000
,  // measure 58
0301
0010
0100
2000
0001
0000
0100
0000
,  // measure 59
3002
0000
0100
0000
0013
0000
0100
0100
,  // measure 60
0100
1000
0010
0200
1000
0000
0001
0000
,  // measure 61
0310
0100
0001
0020
1000
0000
0001
0000
,  // measure 62
0230
0001
2300
0010
,  // measure 63
3001
1001
1001
1001
,  // measure 64
0010
0100
0010
0100
0001
0100
0001
0100
,  // measure 65
0010
1000
0010
1000
0100
1000
0100
1000
,  // measure 66
0001
0010
0100
1000
0001
0100
0010
1000
,  // measure 67
0001
0010
0100
1000
0001
0100
0010
1000
,  // measure 68
0001
0000
1001
0000
0010
0110
0000
0100
,  // measure 69
0001
0101
0000
1100
0000
0001
0010
0100
,  // measure 70
1000
0001
1001
0000
0010
0100
0220
0000
,  // measure 71
0000
0330
2000
0000
,  // measure 72
3020
0000
0000
0000
0000
0030
0200
0000
,  // measure 73
0302
0000
0000
0000
0000
0003
0020
0000
,  // measure 74
0230
2300
3020
0032
,  // measure 75
0200
0000
0000
0000
,  // measure 76
0000
0000
0000
0000
,  // measure 77
0303
0000
0000
0000
;

//---------------dance-single - ----------------
#NOTES:
     dance-single:
     :
     Medium:
     9:
     0.382,0.494,0.078,0.252,0.000:
0000
0000
0000
0000
,
0000
0000
0000
0000
,
0000
0000
0000
0000
,
0000
0000
0000
0000
,
0000
0000
0000
0000
,
1000
0000
1000
0000
0001
0100
0001
0000
,
2000
0010
3001
0000
,
0110
0000
0000
0000
0010
0100
0010
0000
,
0100
1000
0010
0001
,
0100
0000
0100
0000
0001
0010
0000
0010
,
0100
1000
0010
0100
,
0001
0001
1000
1000
,
0010
0100
0000
0010
0000
0110
0000
0000
,
0001
0000
0001
0000
0010
0100
0000
0100
,
1000
0010
0100
0001
,
0010
0100
1000
0001
,
0200
0010
0010
0310
,
1000
0000
0100
0000
1000
0100
0000
0010
,
0100
1000
0010
0100
,
0001
0000
0100
0000
0001
0100
0000
0001
,
0100
0010
1000
0100
,
1000
0000
1001
0000
0001
0100
0000
0001
,
0100
0010
0000
0100
0000
0010
0000
0100
,
0010
0000
1000
0000
0001
0000
1000
0010
,
0000
0000
0000
0000
,
0001
0010
0100
1000
,
0002
0000
0000
1003
,
0010
0100
0001
0010
,
0200
0000
0000
1300
,
0100
0010
0001
1000
,
0020
0000
0000
0130
,
0001
0010
0100
0010
,
0002
0000
0000
1003
,
2200
0000
3300
0001
,
0202
0000
0303
0010
,
1000
0100
0001
0010
,
2000
0100
0000
0100
,
0000
0000
3100
0000
0020
0000
0000
0030
,
0000
0000
1000
0001
1000
0100
0100
0100
,
1000
1000
0010
0010
,
0100
0100
0001
0001
,
0010
0010
0100
0100
,
1000
1000
0001
0001
,
0010
0010
0100
0100
,
1000
1000
0010
0010
,
0100
0100
0001
0001
,
0010
0100
1000
0001
,
0010
0100
0010
0100
,
1000
0100
1000
0100
,
0010
0001
0010
0001
,
1000
0010
1000
0010
,
0100
0001
0100
0001
,
1000
0100
0010
0001
,
1000
0010
0100
0001
,
0010
0100
0010
0100
0010
0100
0010
0100
,
0020
0031
0200
1300
,
0020
0031
0200
1300
,
2000
3100
0020
0031
,
2000
3010
0200
0301
,
0002
0103
2000
3100
,
0002
0013
2000
3010
,
0100
0001
0010
0100
,
1000
1000
1000
1000
,
1000
0001
1000
0000
0001
0000
0100
0000
,
0001
1000
0001
0000
1000
0000
0100
0000
,
0010
0100
0010
0000
0100
0000
1000
0000
,
0010
0100
0010
0000
0100
0000
0001
0000
,
0010
0000
0010
0000
0100
1000
0000
0100
,
0010
0100
0000
1000
0000
0010
0000
0100
,
0001
1001
0100
0110
,
0000
0000
1000
0000
,
2020
0000
3030
0100
,
0202
0000
0303
0001
,
0010
1000
0100
0001
,
0020
0000
0000
0000
,
0000
0000
0000
0000
,
0030
0000
0000
0000
;

//---------------dance-single - ----------------
#NOTES:
     dance-single:
     :
     Easy:
     6:
     0.201,0.257,0.000,0.087,0.000:
0000
0000
0000
0000
,
0000
0000
0000
0000
,
0000
0000
0000
0000
,
0000
0000
0000
0000
,
0000
0000
0000
0000
,
0100
0000
0000
0000
,
0001
1000
0001
0000
,
1000
0000
0010
0010
,
0000
0000
0000
0000
,
0100
0000
0001
0000
,
0100
0000
0010
0000
,
1000
0000
0100
0000
,
0020
0000
0000
0030
,
0001
0000
0100
0000
,
0001
0000
1000
0000
,
0010
0000
0010
0000
,
0200
0000
0000
0300
,
0001
0000
1000
0100
,
2000
0000
0000
3000
,
1000
0000
0001
0100
,
0002
0000
0000
0003
,
1000
0000
0001
0000
,
0100
0010
0100
0000
,
0001
0000
1000
0000
,
0100
0010
0100
0000
,
1000
0100
1000
0001
,
0100
0000
0000
0001
,
0100
0001
1000
0100
,
0010
0000
0000
0100
,
1000
0001
0100
0010
,
1000
0000
0000
0001
,
0100
0001
0010
0100
,
1000
0000
0000
1000
,
0100
0000
0000
0100
,
0010
0000
0000
0010
,
0001
0100
0010
1000
,
0100
0000
0000
0000
,
0000
0000
0020
0000
,
0030
0000
0200
0000
,
0310
0000
0100
0000
,
0010
0100
0010
0000
,
1000
0000
0001
0000
,
1000
0001
1000
0000
,
0100
0000
0010
0000
,
0100
0010
0100
0000
,
1000
0000
0001
0000
,
1000
0001
1000
0000
,
0001
0000
0010
0000
,
0100
1000
0100
0000
,
0010
0000
0001
0000
,
0100
0001
0100
0000
,
0010
0000
1000
0000
,
0001
0100
0001
0000
,
0010
0000
0100
0000
,
1000
0001
1000
0001
,
1000
0000
0010
0000
,
0100
0000
0001
0000
,
0020
0000
0000
0000
,
0100
0000
0130
0000
,
1000
0000
0010
0000
,
0100
0000
0001
0000
,
0020
0000
0000
0000
,
0001
0000
0031
0000
,
1000
0000
0010
0000
,
0100
0000
0001
0000
,
2000
0000
0000
0000
,
0100
0000
3100
0000
,
0010
0000
0001
0000
,
1000
0000
0010
0000
,
0200
0000
0000
0000
,
0010
0000
0310
0000
,
0100
0000
0000
0100
,
0001
0000
0000
0001
,
0010
0010
0100
0100
,
1000
0000
0000
0000
;

//---------------dance-single - ----------------
#NOTES:
     dance-single:
     :
     Beginner:
     3:
     0.119,0.225,0.009,0.017,0.000:
0000
0000
0000
0000
,
0000
0000
0000
0000
,
0000
0000
0000
0000
,
0000
0000
0000
0000
,
0000
0000
0000
0000
,
0100
0000
0000
0000
,
0100
0000
0000
0000
,
0010
0000
0000
0000
,
0000
0000
0000
0000
,
1000
0000
0000
0000
,
1000
0000
0000
0000
,
0001
0000
0000
0000
,
0001
0000
0000
0000
,
1000
0000
1000
0000
,
1000
0000
0000
0000
,
0001
0000
0001
0000
,
0001
0000
0000
0000
,
0100
0000
0000
0000
,
0100
0000
0000
0000
,
0010
0000
0000
0000
,
0010
0000
0000
0000
,
1000
0000
0000
0000
,
1000
0000
0000
0000
,
0001
0000
0000
0000
,
0001
0000
0000
0000
,
1000
0000
0000
0000
,
0100
0000
0000
0000
,
0010
0000
0000
0000
,
0001
0000
0000
0000
,
1000
0000
0000
0000
,
0010
0000
0000
0000
,
0100
0000
0000
0000
,
0001
0000
0000
0000
,
1000
0000
0000
0000
,
0100
0000
0000
0000
,
0010
0000
0000
0000
,
0001
0000
0000
0000
,
0000
0000
0100
0000
,
0000
0000
0100
0100
,
0010
0000
0010
0000
,
0010
0000
0000
0000
,
1000
0000
1000
0000
,
1000
0000
0000
0000
,
0001
0000
0001
0000
,
0001
0000
0000
0000
,
0010
0000
0010
0000
,
0010
0010
0010
0000
,
0100
0000
0100
0000
,
1000
0000
1000
0000
,
0001
0000
0001
0000
,
0010
0000
0010
0000
,
0100
0000
0100
0000
,
1000
0000
1000
0000
,
0001
0000
0001
0000
,
1000
1000
1000
0000
,
0001
0000
0000
0000
,
0100
0000
0000
0000
,
0020
0000
0000
0000
,
0030
0000
0000
0000
,
1000
0000
0000
0000
,
0100
0000
0000
0000
,
0020
0000
0000
0000
,
0030
0000
0000
0000
,
0001
0000
0001
0000
,
0001
0000
0000
0000
,
1000
0000
1000
0000
,
1000
0000
1000
0000
,
0010
0000
0010
0000
,
0010
0000
0000
0000
,
0100
0000
0100
0000
,
0100
0000
0000
0000
,
0010
0000
0000
0000
,
0100
0000
0000
0000
,
0001
0001
1000
1000
,
1001
0000
0000
0000
;
