#TITLE:Fly Above;
#SUBTITLE:;
#ARTIST:Sota Fujimori;
#TITLETRANSLIT:;
#SUBTITLETRANSLIT:;
#ARTISTTRANSLIT:;
#GENRE:;
#CREDIT:;
#MENUCOLOR:;
#METERTYPE:DDR;
#BANNER:Fly Above.png;
#BACKGROUND:Fly Above-bg.png;
#LYRICSPATH:;
#CDTITLE:cdtitle.png;
#MUSIC:Fly Above.mp3;
#OFFSET:-0.424;
#SAMPLESTART:98.020;
#SAMPLELENGTH:13.000;
#SELECTABLE:YES;
#LISTSORT:;
#BPMS:0.000=150.000;
#STOPS:;
#BGCHANGES:;
#ATTACKS:;

//---------------dance-single - ----------------
#NOTES:
     dance-single:
     :
     Hard:
     10:
     0.483,0.497,0.023,0.328,0.061:
0000
0000
0000
0000
,
1000
0000
0000
0010
0000
0000
0100
0000
0000
0000
0001
0000
0010
0000
0100
0000
,
1000
0000
0000
0001
0000
0000
0100
0000
0000
0010
0000
0000
1000
0000
0001
0000
,
0100
0000
0000
0010
0000
0000
0100
0000
0000
0001
0000
0000
0010
0000
0100
0000
,
1000
0000
0000
0001
0000
0000
1000
0000
0000
0010
0000
0000
0100
0000
0001
0000
,
0100
0000
0000
0001
0000
0000
0010
0000
0000
0000
0100
0000
1000
0000
0100
0000
,
0001
0000
0000
0100
0000
0000
1000
0000
0000
0010
0000
0000
0100
0000
0001
0000
,
0010
0000
0000
0100
0000
0000
1000
0000
0000
0010
0000
0000
0100
0000
0001
0000
,
2000
0000
0000
3020
0000
0000
0230
0000
0000
0302
0000
0000
0013
0000
0100
0000
,
1000
0000
0001
0000
1000
0001
0100
0001
,
2000
3020
0230
0302
,
0013
0000
0100
0000
1000
0100
0001
0100
,
1000
0010
0100
0001
,
1000
0001
0100
0000
0001
1000
0100
0000
,
2000
3100
0002
0103
,
1000
0010
0100
0000
0001
0010
0100
0000
,
1000
0001
1000
0001
0010
0100
1000
0000
,
0002
0103
2000
3100
,
0001
0010
0100
0000
2000
0000
3001
0000
,
1000
0010
1000
0000
0001
0100
0001
0000
,
1000
0010
0100
0001
0010
0100
1000
0000
,
0001
0001
1000
1000
,
0010
0010
0100
0100
,
0001
0010
0001
0000
1000
0100
1000
0000
,
0002
1000
1000
1003
,
2001
0010
0001
0100
,
3002
0100
1000
0010
,
0203
0010
0001
1000
,
0320
1000
0100
0001
,
2030
3001
0002
1003
,
0001
0010
0100
0000
1000
0100
0010
0000
,
0001
0100
0001
0000
1000
0010
1000
0000
,
2000
3200
0302
0023
,
1030
0001
0010
0100
1000
0001
0010
0000
,
1000
0010
0100
0010
1000
0001
0100
0000
,
0001
0010
0100
0010
0001
1000
0100
0000
,
1000
0010
0100
0010
1000
0001
0100
0000
,
0001
0000
0001
0000
0001
0100
1000
0000
,
1000
0000
1000
0000
1000
0100
0010
0000
,
0010
0000
0010
0000
0010
1000
0100
0000
,
1000
0000
0000
0001
0000
0000
1000
0000
0000
0010
0000
0000
0100
0000
0001
0000
,
2000
0010
0000
0010
,
0000
0010
0000
0010
,
3002
0010
0000
0010
,
0000
0010
0000
0010
,
1003
0000
0001
0000
1000
0010
0100
0000
,
0001
0010
0100
1000
0000
0001
1000
0000
,
0001
0100
0001
0000
1000
0100
1000
0000
,
0002
0203
2300
3020
,
0031
0100
0001
0000
1000
0100
1000
0000
,
0001
0010
0001
1000
0000
0010
0100
0000
,
0001
0100
0001
0000
1000
0100
1000
0000
,
0002
0103
2000
3100
,
1000
0010
0100
0001
0000
0001
0100
0000
,
0100
0001
0010
0100
1000
0100
0010
0000
,
0010
0001
0100
0000
0100
0001
0010
0000
,
0010
0100
1000
0010
0000
0010
0100
0000
,
0100
0001
0100
0000
0010
1000
0010
0000
,
0001
0010
0100
1000
0000
0000
1001
0000
,
1000
0010
0100
0001
,
2000
3200
0320
0032
,
1003
0000
0001
0000
1000
0001
1000
0010
,
0200
0001
1000
0301
,
1000
0010
0100
0000
0001
0010
0100
0000
,
1000
0001
1000
0100
0010
0001
0010
0100
,
1000
0000
0010
0000
0100
0010
0100
0001
,
0020
1000
0001
0130
,
1000
0010
0100
0000
0001
0010
0100
0000
,
2000
3001
0002
1003
,
0010
1000
0100
0000
0010
0001
0100
0000
,
0001
2000
0100
0000
0010
0000
3001
0000
,
0001
0010
0001
0000
1000
0100
1000
0000
,
0010
0000
0010
0000
0100
0010
0100
0000
,
0100
0002
0100
0000
0010
0000
1003
0000
,
0001
0010
0100
0000
1000
0100
0010
0000
,
1000
1000
0001
0001
,
1001
0000
0000
0002
0000
1003
0000
0000
;

//---------------dance-single - ----------------
#NOTES:
     dance-single:
     :
     Medium:
     7:
     0.327,0.380,0.038,0.389,0.000:
0000
0000
0000
0000
,
2000
0100
3100
0100
,
0002
0100
0103
0100
,
1000
0010
0100
0001
,
1000
1000
0001
0000
,
1000
1000
0001
0001
,
0010
0100
1000
0001
,
2000
0100
3100
0100
,
0002
0100
0103
0100
,
0200
0000
0320
0000
,
2030
0000
3002
0000
,
2003
0000
3200
0000
,
0320
0000
0032
0000
,
1003
0001
1000
0001
,
1000
0010
1000
0010
,
0100
0001
0100
0001
,
1000
0001
1001
0000
,
0002
0000
0023
0000
,
0230
0000
2300
0000
,
3020
0000
0230
0000
,
0302
0000
2003
0000
,
3001
1000
0001
1000
,
0001
0001
1000
0001
,
1000
1000
0010
0100
,
0001
0100
0110
0000
,
0002
0000
1000
1003
,
2000
0000
0001
3001
,
0002
1003
2000
3001
,
1000
0000
0001
0000
1000
0001
1000
0000
,
0020
0000
0100
0130
,
0200
0000
0010
0310
,
0002
0103
2000
3100
,
0001
0000
0010
0000
0100
0010
0100
0000
,
1000
1000
0001
0000
,
0001
0001
1000
0000
,
0010
1000
0001
0100
,
0020
2030
3002
0203
,
0310
0010
0100
0100
,
0001
0001
1000
1000
,
0001
1000
0001
0000
,
1001
0000
0110
0000
,
2000
0000
0001
0000
,
0001
0000
0001
3000
,
0002
0000
1000
0000
,
1000
0000
1000
0003
,
1000
0001
1000
0001
,
0100
0010
0100
0000
,
0001
1000
0001
1000
,
0100
0010
0100
0000
,
1000
0001
0100
0000
,
0001
1000
0100
0000
,
1000
0010
0100
0001
,
0010
0100
1000
0000
,
0001
0100
1000
0100
,
0001
1000
0100
0001
,
0100
1000
0010
0100
,
0001
0010
0110
0000
,
2000
0000
3001
0000
,
0002
0000
1003
0000
,
1000
0010
0100
0001
,
0020
0000
0000
0000
0100
0100
0030
0000
,
0001
0100
0001
0100
,
0002
0000
2003
0000
,
3010
1000
0010
1000
,
0020
0000
0230
0000
,
0301
0010
0100
1000
,
0002
0000
2003
0000
,
3100
0010
0001
1000
,
0200
0000
2300
0000
,
3010
0100
0001
1000
,
0200
0000
0320
0000
,
0031
0100
0001
1000
,
0200
0000
0320
0000
,
0031
0010
0100
1000
,
0002
0000
0203
0000
,
0310
1000
0010
1000
,
0010
0000
0000
0010
0000
0010
0000
0000
;

//---------------dance-single - ----------------
#NOTES:
     dance-single:
     :
     Beginner:
     2:
     0.143,0.176,0.069,0.160,0.000:
0000
0000
0000
0000
,
1000
0000
0000
0000
,
0001
0000
0000
0000
,
1000
0000
0000
0000
,
0001
0000
0000
0000
,
0100
0000
0000
0000
,
0010
0000
0000
0000
,
0100
0000
0000
0000
,
0000
0000
0000
0000
,
1000
0000
1000
0000
,
1000
0000
0000
0000
,
0001
0000
0001
0000
,
0001
0000
0000
0000
,
0010
0000
0010
0000
,
0010
0000
0000
0000
,
0100
0000
0000
0000
,
1001
0000
0000
0000
,
1000
0000
1000
0000
,
1000
0000
0000
0000
,
0001
0000
0001
0000
,
0001
0000
0000
0000
,
0010
0000
0010
0000
,
0010
0000
0000
0000
,
0100
0000
0001
0000
,
0010
0000
1000
0000
,
0200
0000
0300
0000
,
0002
0000
0003
0000
,
2000
0000
3000
0000
,
0020
0000
0030
0000
,
1000
0000
0001
0000
,
1000
0000
0000
0000
,
0001
0000
1000
0000
,
0001
0000
0000
0000
,
2002
0000
0000
3003
,
0000
0000
0000
0000
,
0220
0000
0000
0330
,
0000
0000
0000
0000
,
2000
3000
0001
0000
,
0002
0003
1000
0000
,
0001
0000
0001
0000
,
0001
0001
0001
0001
,
0002
0000
0000
0003
,
0000
0000
0000
0000
,
2000
0000
0000
3000
,
0000
0000
0000
0000
,
1000
0000
1000
0000
,
0001
0000
0000
0000
,
0001
0000
0001
0000
,
1000
0000
0000
0000
,
0010
0000
0010
0000
,
0100
0000
0000
0000
,
0100
0000
0100
0000
,
0010
0000
0000
0000
,
1001
0000
0000
0000
,
0110
0000
0000
0000
,
1000
0000
0010
0000
,
0001
0000
0100
0000
,
2000
0000
3000
0000
,
0002
0000
0003
0000
,
0200
0000
0300
0000
,
0020
0000
0030
0000
,
1000
0000
1000
0000
,
2000
0000
3000
0000
,
0001
0000
0001
0000
,
0002
0000
0003
0000
,
0010
0000
0010
0000
,
0020
0000
0030
0000
,
0100
0000
0100
0000
,
0200
0000
0300
0000
,
1001
0000
0000
0000
,
1000
0000
1000
0000
,
1001
0000
0000
0000
,
0001
0000
0001
0000
,
1001
0000
0000
0000
,
0010
0000
0010
0000
,
0110
0000
0000
0000
,
0100
0000
0200
0300
;

//---------------dance-single - ----------------
#NOTES:
     dance-single:
     :
     Easy:
     5:
     0.270,0.263,0.046,0.305,0.000:
0000
0000
0000
0000
,
1000
0010
0100
0001
,
1000
0001
1000
1000
,
0001
0010
0100
1000
,
0001
0001
1000
0000
,
0010
0100
0001
0010
,
0100
1000
0001
1000
,
0010
0010
0100
0100
,
0002
0000
2003
0000
,
3001
0000
1000
0000
,
0001
0000
1000
0000
,
0002
0000
1003
0000
,
2000
0000
3001
0000
,
1000
0010
0100
0000
,
0001
0010
0100
0000
,
2000
0000
3002
0000
,
0203
0000
0320
0000
,
1030
1000
1000
0000
,
0001
0001
0001
0000
,
1000
0010
0100
0001
,
0010
0100
1000
0000
,
1001
0000
0000
0000
,
0110
0000
0000
0000
,
2000
0000
3002
0000
,
0203
0000
0320
0000
,
1030
0100
0100
0000
,
0001
0100
0100
0000
,
1000
0010
0010
0000
,
0001
0010
0010
0000
,
1000
0010
0100
0000
,
0001
0010
0100
0000
,
2000
0000
3001
0000
,
0002
0000
1003
0000
,
1000
0010
1000
0010
,
1000
0001
1000
0000
,
0001
0010
0001
0010
,
0001
1000
0001
0000
,
2000
0000
3002
0000
,
0203
0000
0320
0000
,
1030
0000
0001
0000
,
1001
0000
0000
0000
,
1002
0000
0000
0000
,
1000
0000
0003
0000
,
2001
0000
0000
0000
,
0001
0000
3000
0000
,
1000
0001
1000
0001
,
1000
0010
0100
0000
,
0001
1000
0001
1000
,
0001
0100
0010
0000
,
0200
0000
0310
0000
,
0020
0000
0130
0000
,
1000
0001
1000
0000
,
0001
1000
0001
0000
,
0100
0001
0100
0010
,
1000
0010
0100
0000
,
2000
0000
3010
0000
,
0002
0000
0103
0000
,
2000
0000
3200
0000
,
0320
0000
0032
0000
,
1003
0001
1000
0000
,
0001
1000
0001
0000
,
2000
0000
3200
0000
,
0320
0000
0032
0000
,
0203
0000
0320
0000
,
2030
0000
3200
0000
,
2300
0000
0100
0100
,
3200
0000
0010
0010
,
0320
0000
0001
0001
,
0032
0000
1000
1000
,
1003
0000
1000
0001
,
0010
0000
1000
0001
,
0010
0000
0001
1000
,
0100
0000
0001
1000
,
0100
0000
1000
0010
,
0100
0001
0010
0100
,
1000
0000
0001
0001
,
1000
0000
1001
0000
;
