#TITLE:Fire Cross;
#SUBTITLE:;
#ARTIST:Luiza;
#TITLETRANSLIT:;
#SUBTITLETRANSLIT:;
#ARTISTTRANSLIT:;
#GENRE:;
#CREDIT:;
#MENUCOLOR:;
#METERTYPE:DDR;
#BANNER:Fire Cross.png;
#BACKGROUND:Fire Cross-bg.png;
#LYRICSPATH:;
#CDTITLE:;
#MUSIC:Fire Cross.mp3;
#OFFSET:-0.049;
#SAMPLESTART:62.653;
#SAMPLELENGTH:12.000;
#SELECTABLE:YES;
#LISTSORT:;
#BPMS:0.000=180.000;
#STOPS:;
#BGCHANGES:;
#ATTACKS:;

//---------------dance-single - ----------------
#NOTES:
     dance-single:
     :
     Hard:
     13:
     0.692,0.746,0.225,0.159,0.099:
0000
0000
0000
0000
,
0000
0000
0000
0000
,
0000
0000
0000
0000
,
0000
0000
0000
0000
,
0000
0000
0000
0000
,
0001
0000
0100
0000
0010
1000
0010
0000
1000
0000
0010
0000
0100
0001
0100
0000
,
0001
0000
0100
0000
0010
1000
0010
0000
0100
0000
0001
0000
0010
0000
0000
0000
,
0100
0000
1000
0000
0010
1000
0010
0000
0100
0000
0001
0000
0010
0001
0010
0000
,
0100
0000
1000
0000
0001
0100
0001
0000
1000
0000
0010
0000
0100
0000
0000
0000
,
0010
0010
0000
1000
0100
0100
0000
0010
,
0001
1000
0001
0010
0100
1000
0010
0100
,
0010
0010
0000
0100
0001
0100
0010
0000
,
1000
1000
1000
1000
,
0001
0100
0001
0010
0001
0100
0001
0010
,
0100
0100
1000
1000
0001
0001
0100
0100
,
0010
0100
1000
0100
0001
0010
0100
0010
,
0001
0010
0001
0100
1000
0100
0001
0010
,
0100
1000
0100
0001
0100
1000
0100
0001
,
0100
0100
1000
1000
0010
0010
0100
0100
,
0001
1000
0010
0100
0001
0100
0010
1000
,
0001
0100
0001
0010
1000
0010
0100
1000
,
0002
0000
0100
0000
1000
1000
1003
0000
,
0100
0000
0001
0010
0200
0000
0001
0000
,
2300
0000
0010
0000
0001
0001
3001
0000
,
0001
1000
0100
0010
0001
0100
0010
0000
,
0100
0001
0100
0000
0001
0100
0001
0000
,
1000
0010
1000
0000
0010
1000
0010
0000
,
0100
0001
0010
0000
0100
1000
0010
0000
,
0200
0001
1000
0301
,
1000
1000
0100
0010
0001
0001
0200
0000
,
0010
0001
0010
0301
,
0010
0010
0100
1000
1000
0001
0200
0000
,
0010
1000
0010
1300
,
0100
0000
0001
0100
0010
1000
0100
0100
,
0000
0010
0001
0100
0020
0000
0130
0000
,
0110
0000
0000
0100
0010
0000
0000
0000
0110
0000
0000
0010
0100
0000
0000
0000
,
0001
0001
1000
0100
0010
0010
0100
1000
,
0010
0101
0010
1100
,
0001
0000
1000
0100
0000
0000
1000
0000
0001
0100
0000
0000
,
0001
0000
0001
0100
0000
0100
0010
0000
0010
1000
0000
1000
,
0001
0000
0001
0010
0000
0010
0001
1000
0001
1000
0001
1000
,
0001
1001
0000
0010
0100
0110
0000
0001
,
0101
0000
0100
0000
0010
0000
0100
0000
0001
1000
0001
0000
0100
0000
0010
0000
,
0110
0000
0000
1001
0000
0000
0220
0000
,
0000
0000
0000
0330
,
0000
1100
0000
0101
,
0000
0001
0011
0000
0010
0100
1000
0001
,
0100
0010
0010
1000
0100
0100
0010
0001
,
1000
0010
1000
0010
0100
0001
0100
0001
,
1000
0100
0010
0100
0001
1000
0010
0001
,
0100
0010
0010
0100
0001
0001
1000
0100
,
0010
0100
0100
1000
0010
0010
0100
0001
,
1000
0100
0001
0100
1000
0010
0001
0010
,
1000
0100
1000
0100
0010
0001
0010
0001
,
1000
0001
0001
0100
0010
0010
0100
0001
,
2100
0010
0100
3010
,
0012
0100
0010
0103
,
0200
0010
1000
0301
,
0020
0001
0100
1030
,
0001
0100
0001
0000
1000
0100
1000
0000
,
0001
0010
0100
0000
1000
0010
0100
0000
,
0100
0010
1000
0000
0001
0100
0010
0000
,
1000
0001
0100
0001
0010
0100
0100
0000
,
1000
0010
0010
0100
0000
0100
0001
0000
,
1000
0100
0100
0000
0010
0000
0011
0000
,
0001
0100
0100
0010
0000
0010
1000
0000
,
0001
1000
0100
0000
1000
0000
0101
0000
,
0010
1000
0010
1000
0000
0001
0100
0001
,
0000
1000
0100
0010
0000
0001
1000
0100
,
0010
0001
0100
0010
0000
1000
0001
0100
,
0001
0000
1100
0000
0001
1000
0100
0010
,
0001
1000
0010
1000
0001
0100
0010
1000
,
0002
0000
0010
0000
0103
0000
0001
0010
,
0100
1000
0010
0100
0001
1000
0100
0010
,
0200
0000
0010
0000
0301
0000
0100
1000
,
0010
0100
0001
0100
0010
1000
0001
0010
,
1200
0301
0201
1300
,
0110
0000
0001
1000
0100
0000
1000
0000
,
0001
0100
0101
0000
1010
0000
1000
0010
,
0100
0001
1001
0000
;

//---------------dance-single - ----------------
#NOTES:
     dance-single:
     :
     Medium:
     10:
     0.550,0.559,0.263,0.441,0.014:
0000
0000
0000
0000
,
0000
0000
0000
0000
,
0000
0000
0000
0000
,
0000
0000
0000
0000
,
0000
0000
0000
0000
,
0001
0000
0001
0000
0001
1000
0001
0000
,
1000
0000
1000
0000
1000
0001
1000
0000
,
0010
0000
0010
0000
0100
0010
0100
0000
,
0100
0000
0100
0000
0010
0100
0010
0000
,
1000
0100
0000
1000
0100
0010
0000
0100
,
0010
0100
1000
0001
0100
0010
0100
0001
,
1000
0100
0000
1000
0100
0010
0200
0000
,
0000
1000
1000
1300
,
0001
0100
0001
0000
1000
0100
1000
0000
,
0010
1000
0100
0010
0100
1000
0001
0000
,
0100
0001
0100
0000
0010
1000
0010
0000
,
0100
0100
0010
0010
0100
0100
0010
0000
,
0100
0001
0010
0000
0100
1000
0010
0000
,
0100
0001
1000
0100
1000
0001
0100
0000
,
0010
1000
0010
0000
0100
0001
0100
0000
,
0010
0000
1010
0000
1000
0001
0100
0001
,
0020
0031
0002
1003
,
1000
0000
0001
1000
0001
0000
1000
0000
,
0002
0103
2000
3100
,
0020
0100
0100
0130
,
1000
0000
0000
1001
0000
0000
0001
0000
,
0100
0000
0000
0110
0000
0000
0010
0000
,
2000
0010
0010
3010
,
0200
0001
0001
0301
,
0010
0000
0100
1000
0000
0001
0100
0000
,
0010
1000
0001
0100
,
0001
0000
1000
0100
0000
0001
0100
0000
,
1000
0010
0100
0001
,
1000
0000
0001
0100
0000
0100
0001
0000
,
1000
0100
0000
0100
0010
0000
0001
0000
,
2002
0000
0000
3003
,
1000
0000
0001
0100
0001
0000
1000
0000
,
0002
0013
2000
3100
,
0010
0101
0010
1100
,
0002
2003
3200
0320
,
0031
0000
0001
0100
0000
0100
0010
0000
0010
1000
0000
0000
,
0001
0001
0000
1000
0001
1000
0000
0001
,
1000
0000
0001
0010
0100
1000
0001
0100
,
0010
0000
0000
0110
0000
0000
2002
0000
,
0000
0000
0000
3003
,
2200
3300
0022
0033
,
1001
0000
0010
0000
0100
0001
0100
0001
,
0100
0010
1000
0000
0001
1000
0100
0000
,
0020
0032
2003
3200
,
0310
0011
0100
1100
,
0001
1000
0100
1000
0001
0000
1001
0000
,
0010
1000
0100
0000
0010
0001
0100
0000
,
0020
2030
3002
0203
,
0301
0101
0010
1010
,
1000
0001
0100
0001
1000
0000
1001
0000
,
0210
0010
0010
0310
,
0020
1000
1000
1030
,
2000
0001
0001
3001
,
0001
0000
1000
0000
0001
0010
0100
0000
,
0010
0000
0000
0100
0000
0000
1000
0000
,
0000
0001
0000
0000
0100
0000
0010
0000
,
1000
0000
0000
0001
0000
0000
0100
0000
,
0000
0010
0000
0000
1000
0000
0001
0000
,
0110
0000
0000
0110
0000
0000
0110
0000
,
0000
0010
1000
0001
,
1001
0000
0000
1001
0000
0000
1001
0000
,
0000
0001
1000
0100
,
1000
0000
0001
0000
1000
0001
0100
0000
,
0001
0000
1000
0000
0001
1000
0100
0000
,
0010
0001
1000
0100
,
0220
0000
0000
0000
0330
0000
0001
1000
,
0002
2003
3020
0230
,
0301
0000
0010
0000
0100
0000
1000
0100
,
2000
3020
0230
0302
,
1003
0000
0001
0000
0010
0000
0100
1000
,
0200
0320
0032
2003
,
3010
1000
0001
0100
,
0110
0000
0000
0010
0000
0000
0100
0000
,
0001
0000
1000
0000
1001
0000
0000
0010
,
0000
0100
1001
0000
;

//---------------dance-single - ----------------
#NOTES:
     dance-single:
     :
     Easy:
     6:
     0.307,0.336,0.084,0.263,0.000:
0000
0000
0000
0000
,
0000
0000
0000
0000
,
0000
0000
0000
0000
,
0000
0000
0000
0000
,
0000
0000
0000
0000
,
1000
0010
0100
0001
,
0010
0100
1000
0000
,
0001
0100
0001
1000
,
0100
0010
0001
0000
,
1001
0000
0110
0000
,
0010
1000
0001
0100
,
0110
0000
1001
0000
,
0100
0010
0000
0010
,
0100
0001
0010
0000
,
0100
1000
0010
0000
,
1000
0000
0001
0000
,
0100
0010
0100
0010
,
1000
0100
0010
0000
,
1000
0100
0010
0000
,
0001
0010
0100
0000
,
0001
1000
0001
1000
,
0020
0000
0000
0000
,
0030
1000
0010
0100
,
0002
0000
0000
0000
,
0003
1000
1000
1000
,
0010
0000
0000
0010
0000
0000
0010
0000
,
0100
0000
0000
0100
0000
0000
0100
0000
,
0020
0000
0000
0030
,
1000
0000
0000
0001
0000
0000
1000
0000
,
0020
0000
0000
0030
,
0100
0100
0100
0100
,
0002
0000
0000
0003
,
1000
1000
1000
1000
,
0001
0000
0010
0000
,
0100
0000
1000
0000
,
0001
1000
0001
1000
,
0002
0000
0000
0003
,
0000
1000
0000
0001
,
0000
1000
0000
0001
,
2000
3000
0020
0030
,
0200
0300
0002
0003
,
1001
0000
0110
0000
,
0010
0100
0010
0100
,
0010
0000
0000
0010
0000
0000
0020
0000
,
0000
0000
0030
0000
,
0000
1000
0000
0001
,
0000
1000
0010
0100
,
0001
0010
0100
0010
,
0001
0010
0100
0000
,
1000
0100
0010
0100
,
1000
0100
0010
0000
,
0001
1000
0100
1000
,
0001
1000
0100
0000
,
1000
0001
0100
0001
,
1000
0001
0100
0000
,
0002
0000
0000
0003
,
2000
0000
0000
3000
,
0020
0000
0000
0030
,
0200
0000
0000
0300
,
0002
0000
1003
1000
,
2000
0000
3010
0010
,
0020
0000
0130
0100
,
0100
0001
0000
1000
,
0000
0001
0000
1000
,
0100
0010
0000
0100
,
0000
1000
0000
0001
,
0100
0010
0100
0001
,
1000
0100
0000
0100
,
0010
0100
0000
0100
,
1000
0100
0000
1000
,
2002
0000
0000
3003
,
0010
0010
0010
0010
,
0200
0000
0300
0000
,
0001
0001
0001
0001
,
2000
0000
3000
0000
,
0100
0100
0100
0100
,
0020
0030
0200
0300
,
0220
0000
0000
0000
,
0330
0000
2002
0000
,
0000
0000
3003
0000
;

//---------------dance-single - ----------------
#NOTES:
     dance-single:
     :
     Beginner:
     2:
     0.188,0.224,0.028,0.141,0.000: // measure 1
0000
0000
0000
0000
,  // measure 2
0000
0000
0000
0000
,  // measure 3
0000
0000
0000
0000
,  // measure 4
0000
0000
0000
0000
,  // measure 5
0000
0000
0000
0000
,  // measure 6
1000
0000
1000
0000
,  // measure 7
1000
0000
0000
0000
,  // measure 8
0001
0000
0001
0000
,  // measure 9
0001
0000
0000
0000
,  // measure 10
1000
0000
0010
0000
,  // measure 11
0100
0000
0001
0000
,  // measure 12
1000
0000
0001
0001
,  // measure 13
0000
0000
0000
0000
,  // measure 14
0100
0000
0010
0000
,  // measure 15
1000
0000
0001
0000
,  // measure 16
0100
0000
0010
0000
,  // measure 17
1000
0000
0000
0000
,  // measure 18
0001
0000
0010
0000
,  // measure 19
0100
0000
1000
0000
,  // measure 20
0001
0000
0100
0000
,  // measure 21
0010
0000
0000
0000
,  // measure 22
2000
0000
3000
0000
,  // measure 23
0002
0000
0003
0000
,  // measure 24
0200
0000
0300
0000
,  // measure 25
0020
0000
0030
0000
,  // measure 26
1000
0000
0100
0000
,  // measure 27
0010
0000
0001
0000
,  // measure 28
2000
0000
0000
3000
,  // measure 29
0002
0000
0000
0003
,  // measure 30
0100
0000
0000
0001
,  // measure 31
0000
0000
0000
1000
,  // measure 32
1000
0000
0000
0010
,  // measure 33
0000
0000
0000
0000
,  // measure 34
0100
0000
0001
0000
,  // measure 35
1000
0000
0100
0000
,  // measure 36
0010
0000
0001
0000
,  // measure 37
0001
0000
0000
0000
,  // measure 38
0000
0001
0000
1000
,  // measure 39
0000
0010
0000
0100
,  // measure 40
0100
0000
0001
0000
,  // measure 41
1000
0000
0001
0000
,  // measure 42
0100
0000
0010
0000
,  // measure 43
1000
0000
0001
0000
,  // measure 44
2000
0000
0000
3000
,  // measure 45
0000
0000
0000
0000
,  // measure 46
0000
0001
0000
1000
,  // measure 47
0000
0001
0000
0100
,  // measure 48
0100
0000
0100
0000
,  // measure 49
0010
0000
0010
0000
,  // measure 50
1000
0000
1000
0000
,  // measure 51
0001
0000
0001
0000
,  // measure 52
0100
0000
0100
0000
,  // measure 53
0001
0000
0001
0000
,  // measure 54
1000
0000
1000
0000
,  // measure 55
0010
0000
0010
0000
,  // measure 56
0200
0000
0300
0000
,  // measure 57
0002
0000
0003
0000
,  // measure 58
2000
0000
3000
0000
,  // measure 59
0020
0000
0030
0000
,  // measure 60
2000
0000
3000
0000
,  // measure 61
0002
0000
0003
0000
,  // measure 62
0020
0000
0030
0000
,  // measure 63
0200
0000
0300
0000
,  // measure 64
1000
0000
1000
0000
,  // measure 65
1000
0000
0000
0000
,  // measure 66
0001
0000
0001
0000
,  // measure 67
0001
0000
0000
0000
,  // measure 68
1000
1000
0000
0001
,  // measure 69
0000
1000
0000
0001
,  // measure 70
0001
0000
0010
0000
,  // measure 71
0100
0000
1000
0000
,  // measure 72
0001
0000
0001
0000
,  // measure 73
0001
0001
0001
0000
,  // measure 74
1000
0000
1000
0000
,  // measure 75
1000
1000
1000
0000
,  // measure 76
0010
0000
0100
0000
,  // measure 77
0010
0000
0100
0000
,  // measure 78
1001
0000
0000
0000
,  // measure 79
0000
0000
0110
0000
,  // measure 80
0000
0000
0110
0000
;
