#TITLE:Far east nightbird;
#SUBTITLE:;
#ARTIST:猫叉Master;
#TITLETRANSLIT:;
#SUBTITLETRANSLIT:;
#ARTISTTRANSLIT:Nekomata Master;
#GENRE:;
#CREDIT:;
#MENUCOLOR:;
#METERTYPE:DDR;
#BANNER:Far east nightbird.png;
#BACKGROUND:Far east nightbird-bg.png;
#LYRICSPATH:;
#CDTITLE:;
#MUSIC:Far east nightbird.mp3;
#OFFSET:-0.471;
#SAMPLESTART:33.803;
#SAMPLELENGTH:14.100;
#SELECTABLE:YES;
#LISTSORT:;
#DISPLAYBPM:180.000;
#BPMS:0.000=180.000,228.000=135.000,246.000=180.000,314.000=135.000,320.000=180.000;
#STOPS:;
#BGCHANGES:;
#ATTACKS:;

//---------------dance-single - ----------------
#NOTES:
     dance-single:
     :
     Hard:
     14:
     0.695,0.673,0.408,0.092,0.171: // measure 1
0000
0000
0000
0000
,  // measure 2
0000
0000
0000
0000
,  // measure 3
0000
0000
0000
0000
,  // measure 4
0000
0000
0000
0000
,  // measure 5
1000
0000
0001
0100
0000
0010
1000
0100
,  // measure 6
1000
0000
0010
0100
0000
0001
1000
0100
,  // measure 7
1000
0000
0010
1000
0000
0001
0010
0000
,  // measure 8
0100
1000
0100
0000
1000
0000
0001
0000
,  // measure 9
0100
0000
0000
0001
1000
0000
0001
0000
0100
0010
0100
0010
0100
0000
0000
0000
,  // measure 10
0010
0000
1000
0100
1000
0000
0001
0010
,  // measure 11
0000
0010
0001
0000
1000
0010
0100
0000
,  // measure 12
0001
0000
1000
0000
0100
0000
1000
0000
0100
0000
0000
0100
0000
0000
0100
0000
,  // measure 13
0000
0010
0100
0010
0100
1000
0100
0000
,  // measure 14
0010
0001
0000
0010
0001
0010
0100
0000
,  // measure 15
1000
0010
0000
0100
0002
0000
2003
0000
,  // measure 16
3010
0000
0100
0000
0001
0000
0010
0000
0100
0000
0000
0100
0000
0000
0100
0000
,  // measure 17
0010
0000
0001
1000
0100
0010
0001
0010
,  // measure 18
0100
0000
0000
0000
1100
0000
0000
0000
0101
0000
0000
0000
0000
0000
0000
0010
0000
0000
1000
0000
0000
0001
0000
0000
,  // measure 19
0100
0000
0010
1000
0100
0000
0001
0000
,  // measure 20
0100
0000
1000
0000
0010
0000
0100
0001
0100
0000
0000
0010
0000
0000
0110
0000
,  // measure 21
0000
0001
1000
0100
0010
0100
1000
0000
,  // measure 22
0001
0200
0000
0302
0000
1003
0100
0010
,  // measure 23
0001
0000
1000
0100
1000
0000
0101
0000
,  // measure 24
0010
0000
1000
0000
0100
0000
1000
0000
0010
0000
0000
0101
0000
0000
1100
0000
,  // measure 25
0000
0000
0001
0000
1000
0000
0001
0000
1000
0100
0010
0000
1001
0000
0000
0000
,  // measure 26
1000
0000
0101
0000
1000
0100
0110
0000
,  // measure 27
0001
0010
0100
0010
0001
1000
1100
0000
,  // measure 28
0010
0000
1100
0000
0001
0100
0101
0000
,  // measure 29
0010
1000
0010
1000
0100
0001
0101
0000
,  // measure 30
1000
0000
0101
0000
0001
0010
0100
0010
,  // measure 31
0001
0000
1100
0000
0001
0100
0110
0000
,  // measure 32
0010
1000
0100
1000
0010
0100
0101
0000
,  // measure 33
0100
0001
0010
0100
1000
0000
1001
0000
,  // measure 34
0001
0000
0101
0000
1000
0100
1010
0000
,  // measure 35
0001
0010
0100
1000
0100
0010
1001
0000
,  // measure 36
1000
0000
0101
0000
0010
0100
0110
0000
,  // measure 37
0001
0010
0100
0001
0100
0010
1010
0000
,  // measure 38
0010
0001
0100
0000
0010
1000
0100
0000
,  // measure 39
0010
0010
0100
0010
0010
0100
1010
0000
,  // measure 40
0001
0100
0101
0000
1000
0000
1100
0000
,  // measure 41
0001
0000
1000
0000
0001
0000
0100
0010
0100
0000
0001
0000
0010
0000
0000
0000
,  // measure 42
0100
1000
0100
1000
0010
0100
0010
0100
,  // measure 43
0001
0010
0001
0010
0100
1000
0100
0000
,  // measure 44
1000
0100
1000
0100
0010
0001
0010
0001
,  // measure 45
0100
1000
0100
0001
0100
1000
0100
0001
,  // measure 46
0010
0100
0010
0100
1000
0100
1000
0100
,  // measure 47
1000
0010
0100
0001
0100
0010
1000
0000
,  // measure 48
0010
0100
0010
0100
0001
0100
0001
0100
,  // measure 49
0001
0010
1000
0010
0001
0010
1000
0010
,  // measure 50
0000
0000
0001
0100
0001
0000
0100
0000
0010
1000
0010
0000
1000
0000
0100
0010
,  // measure 51
0100
0000
0010
0000
0001
1000
0001
0000
1000
0000
0001
0000
1000
0000
1000
0000
,  // measure 52
0000
0000
0001
0000
0000
0001
0000
0000
0001
0100
0001
0000
1000
0000
0100
1000
,  // measure 53
0100
0000
1000
0000
0010
0100
0010
0000
0100
0000
0001
0000
0010
0000
0100
0000
,  // measure 54
0000
0000
1000
0100
0010
0000
0010
0000
0001
0100
0010
0000
0010
0000
1000
0010
,  // measure 55
0100
0000
0100
0000
0001
0010
0100
0000
0100
0000
1000
0000
0001
0000
0001
0000
,  // measure 56
0000
0000
1000
0000
0000
1000
0000
0000
1000
0001
1000
0000
0010
0000
1000
0001
,  // measure 57
1000
0000
0100
0000
0010
0100
0010
0000
0001
0000
0100
0000
0001
0000
1000
0000
,  // measure 58
0220
0000
0000
0000
,  // measure 59
0000
0000
0000
0000
0330
0000
0000
0000
0001
0000
1000
0000
0010
0000
0100
0001
,  // measure 60
0100
0000
0010
0000
0110
0000
0000
0000
1000
0000
0100
0000
0010
0000
0100
0010
,  // measure 61
0100
0000
0010
0000
1001
0000
0000
0000
0010
0000
1000
0000
0100
0000
1000
0001
,  // measure 62
1000
0000
0010
0000
0110
0000
0000
0000
1001
0000
0000
1000
0001
0000
0010
0000
,  // measure 63
0200
0000
0000
0000
1300
0100
1000
0100
1000
0000
0000
0000
0101
0000
0000
0000
,  // measure 64
0001
0010
0210
0000
0310
0000
0100
1000
,  // measure 65
0100
0010
0001
0100
0010
0000
1010
0000
,  // measure 66
0100
0001
0100
0000
0020
0000
0000
0000
0130
0000
0000
0000
0010
0000
1000
0000
,  // measure 67
0001
0010
0100
1000
1001
0001
1000
1010
,  // measure 68
0010
0100
0101
0000
1001
0000
1000
0100
,  // measure 69
0001
0000
0100
0000
1000
0000
0001
0000
0100
0000
0010
0000
0100
0001
0100
0000
,  // measure 70
0001
0000
0010
0000
0100
0000
1000
0000
0100
0010
0001
0000
1000
0000
0100
0000
,  // measure 71
0010
1000
0010
0001
0100
0000
0110
0000
,  // measure 72
1000
0001
0210
0000
0310
0000
1000
0100
,  // measure 73
0001
0100
0010
0001
1000
0000
0110
0000
,  // measure 74
0001
1000
0001
0000
2000
0000
0000
0000
3010
0000
0000
0000
0100
0000
0000
0000
,  // measure 75
0001
0001
1000
0000
0110
0010
1000
1100
,  // measure 76
0100
0010
0011
0000
1001
0000
1000
0100
,  // measure 77
0001
0000
0100
0000
1000
0000
0001
0000
0100
0000
1000
0000
0100
0001
0010
0000
,  // measure 78
0100
0000
1000
0000
0100
0000
0010
0000
0001
0100
0001
0000
0010
0000
1000
0000
,  // measure 79
0001
0000
0100
0000
1000
0001
0100
0000
0001
0000
0010
0000
1000
0000
0001
0000
,  // measure 80
0100
1000
0010
0001
1000
0100
0001
1000
,  // measure 81
0110
0000
0000
1001
0000
0000
0110
0000
;

//---------------dance-single - ----------------
#NOTES:
     dance-single:
     :
     Medium:
     11:
     0.501,0.505,0.317,0.083,0.021:
0000
0000
0000
0000
,
0000
0000
0000
0000
,
0000
0000
0000
0000
,
0000
0000
0000
0000
,
1000
0000
0001
0100
0000
0000
1000
0100
,
0000
0000
0001
0100
0000
0000
1000
0100
,
0000
0000
0001
0010
0000
0000
1000
0010
,
0000
0000
0010
0100
0000
0100
0010
0000
,
0110
0100
2002
3003
,
1000
0000
0001
0000
0100
0010
0100
0000
,
0001
0000
0010
0000
0100
1000
0100
0000
,
0010
0001
0100
0010
,
0010
0000
0100
0000
0001
0100
0001
0000
,
1000
0000
0001
0000
0100
0010
0100
0000
,
1000
0000
0001
0000
0010
1000
0010
0000
,
0100
0000
0010
0000
1000
0100
0010
0000
,
0001
1000
1001
0001
,
1000
0000
0000
0000
0001
0000
0000
0000
0000
0010
0000
0000
,
1001
0000
0000
0001
1000
0000
0010
0000
,
0110
0000
0110
0000
0001
1000
0100
0010
,
1001
0000
0110
0000
,
0010
1000
0010
0000
0100
0001
0100
0000
,
0001
1000
0100
0100
,
1000
0000
0000
0000
0010
0000
0000
0000
0100
0000
0000
0100
0000
0000
0100
0000
,
0000
0001
1000
0100
0010
0000
0001
0100
,
0010
0000
1000
0000
0001
0010
0100
1000
,
0000
0000
0001
0000
1000
0010
0100
0001
,
0000
1000
0010
0110
,
0001
0000
1000
0000
0001
1000
0001
0000
,
1000
0000
0110
0000
0001
0010
0100
0000
,
2000
0000
3002
0000
1003
0010
0100
0000
,
0001
1100
1000
0101
,
0001
1000
0001
0000
0100
0000
0110
0000
,
0010
0000
1010
0000
1000
0100
0010
0001
,
0000
0000
1001
0000
0001
0010
0100
1000
,
0000
0110
0010
1010
,
2000
0000
3002
0000
0013
0100
0010
0000
,
0001
0000
0001
0000
1000
0100
1000
0000
,
0001
0100
0001
0000
1000
0100
0010
0001
,
0000
1001
0010
1001
,
1000
0010
1000
0000
0001
0100
0001
0000
,
0010
0010
1000
1000
,
0001
0010
0100
1000
0001
0010
0100
1000
,
0001
0001
1000
1000
,
0010
0100
0010
0100
0001
1000
0001
1000
,
0100
0100
0010
0010
,
0001
0010
0001
0010
0100
1000
0100
1000
,
0010
0010
1000
1000
,
0010
1000
0001
0100
0010
1000
0001
0100
,
0000
0010
0000
0010
0000
0100
0000
0100
,
0000
1001
0000
1001
0000
0001
1000
0001
,
0000
1000
0000
1000
0000
0010
0000
0010
,
0000
0101
0000
0101
0000
0010
1000
0010
,
0000
0100
0000
0100
0000
0001
0000
0001
,
0000
1010
0000
1010
0000
1000
0100
1000
,
0000
0001
0000
0001
0000
0100
0000
0100
,
0000
0110
0000
0110
0000
0010
1000
0001
,
0100
0000
0000
0000
,
0000
0000
0001
1100
,
0001
0010
0100
0000
1000
0000
0101
0000
,
1000
0010
0100
0000
0001
0000
1001
0000
,
1000
0000
0100
0000
0010
0000
0000
0000
0001
0000
0000
0001
0000
0000
0001
0000
,
0001
0000
2000
0100
3100
0000
0010
0000
,
0001
0010
0100
0000
1000
0000
0001
0010
,
0100
1000
0100
0010
0001
0000
1000
0000
,
0020
0100
0130
0000
0001
0000
0010
0100
,
1000
0100
0010
0001
0010
0000
0000
0110
,
0000
0000
0110
0000
0000
0000
1000
0100
,
1000
0000
0001
0100
0001
0000
1000
0000
,
0100
0000
0010
0000
0100
0010
0001
0000
,
1000
0100
0010
0001
1000
0000
0010
0000
,
0100
0001
0200
0000
0310
0000
0001
1000
,
0001
0000
1000
0100
0010
0000
0100
0000
,
0010
0100
1000
0000
1001
0000
1000
0000
,
0001
0010
0100
0000
1001
0000
0000
1001
,
0000
0000
1001
0000
0000
0000
1000
0100
,
1000
0000
0001
0100
0001
0000
1000
0100
,
0010
0001
0010
0100
1000
0000
1000
0100
,
0010
0001
1000
0100
0020
0000
0000
0001
,
0000
0000
0030
0000
0100
0000
0000
1000
0000
0000
0001
0000
0000
0100
0000
0000
,
0010
0000
0000
1100
0000
0000
0101
0000
;

//---------------dance-single - ----------------
#NOTES:
     dance-single:
     :
     Easy:
     7:
     0.305,0.404,0.058,0.083,0.000:
0000
0000
0000
0000
,
0000
0000
0000
0000
,
0000
0000
0000
0000
,
0000
0000
0000
0000
,
1000
0001
0000
0100
,
0000
0010
0000
1000
,
0100
1000
0000
0001
,
0000
0100
0000
0010
,
0200
0000
0000
0300
,
0010
0000
0010
0000
,
1000
0000
1000
0000
,
0100
0010
0001
0010
,
0100
0000
1000
0000
,
0001
0000
0001
0000
,
0100
0000
0100
0000
,
0010
0100
1000
0100
,
0010
0000
0100
0000
,
0100
0000
0001
0000
,
0010
0000
0100
0000
,
1000
0000
0010
0000
,
0110
0000
0000
0000
,
0001
0000
1000
0000
,
0100
0000
0010
0000
,
0100
0000
0100
0000
,
1000
0001
1000
0001
,
2000
0000
3020
0000
,
0230
0000
0302
0000
,
0023
0000
0230
0000
,
1300
0000
0001
1000
,
0001
0000
1000
0000
,
0010
0100
0001
0010
,
0100
0000
1000
0000
,
0100
0010
0001
0010
,
0100
0000
1001
0000
,
0010
0000
1001
0000
,
0001
0010
0100
1000
,
0001
0010
0100
1000
,
0000
0010
0000
0101
,
0000
0010
0000
1100
,
0000
0001
0000
0010
,
0000
0100
1000
0001
,
0100
0100
0100
0100
,
0100
0100
0100
0000
,
0010
0010
0010
0010
,
0010
0010
0010
0000
,
1000
1000
1000
1000
,
1000
1000
1000
0000
,
0001
0001
0001
0001
,
0001
0001
0001
0000
,
0001
0010
0100
1000
,
0100
0010
0001
0010
,
0000
1000
0100
0010
,
0001
1000
0100
0010
,
0001
0010
0100
0010
,
0001
1000
0100
0010
,
0000
0100
1000
0001
,
0100
0001
1000
0100
,
0010
0000
0000
0000
,
0000
0000
0002
1003
,
0001
0010
0100
0000
2000
0000
3001
0000
,
1000
0100
0010
0000
0002
0000
0103
0000
,
0001
0100
0010
0000
1000
0000
0001
0000
,
1000
0010
0100
0100
,
0001
1000
0001
0000
0000
0000
0010
0000
,
0010
0100
0100
0001
,
1000
0100
1000
0000
0000
0000
0001
0000
,
0010
0000
0100
0000
1000
0000
0000
1000
,
0000
1000
0000
0001
,
1000
0010
0100
0100
,
0001
0001
1000
1000
,
0001
1000
0001
0000
0010
0000
0010
0000
,
0100
1000
0100
0000
0000
0000
0010
0000
,
1000
0001
0010
0100
,
1000
0010
1000
0000
0000
0000
0001
0000
,
1000
0000
0001
0000
1000
0000
0000
0010
,
0000
0100
0000
0001
,
1000
0100
0010
0001
,
0010
0000
0100
0000
1000
0001
1000
0000
,
0001
1000
0001
1000
0001
0000
0000
0001
,
0000
0000
0001
0000
0000
0001
0000
0000
,
0001
0000
0000
1001
0000
0000
0110
0000
;

//---------------dance-single - ----------------
#NOTES:
     dance-single:
     :
     Beginner:
     3:
     0.163,0.233,0.008,0.083,0.000:
0000
0000
0000
0000
,
0000
0000
0000
0000
,
0000
0000
0000
0000
,
0000
0000
0000
0000
,
1000
0000
0000
0000
,
1000
0000
0000
0000
,
1000
0000
0000
0000
,
1000
0000
0000
0000
,
0001
0000
0001
0001
,
0000
0000
1000
0000
,
1000
0000
0000
0000
,
0010
0000
0100
0000
,
0100
0000
0000
0000
,
0001
0000
0010
0000
,
0010
0000
0000
0000
,
0100
0000
1000
0000
,
1000
0000
0000
0000
,
0002
0000
0003
0000
,
1000
0000
0000
0000
,
0100
0000
0001
0000
,
0001
0000
0000
0000
,
1000
0000
0100
0000
,
0100
0000
0000
0000
,
0001
0000
0100
0000
,
1000
0000
0100
0000
,
0001
0000
0000
1000
,
0000
0000
0000
0001
,
0000
0000
0000
0010
,
0010
0000
0010
0000
,
1000
0000
0001
0000
,
1000
0000
0001
0001
,
0000
0100
0000
0010
,
0000
1000
1000
0000
,
0001
0000
0000
0100
,
0000
0000
0000
0010
,
0000
0000
0000
1000
,
1000
0000
0001
0000
,
0000
0000
0000
1000
,
0000
0001
0000
0100
,
0000
0010
0000
1000
,
0000
0001
0001
0000
,
0002
0000
0003
0000
,
2000
0000
3000
0000
,
0020
0000
0030
0000
,
0200
0000
0300
0000
,
0001
0000
0100
0000
,
1000
0000
0100
0000
,
0001
0000
0010
0000
,
1000
0000
0010
0000
,
0002
0000
0000
0003
,
0000
0000
0000
0000
,
2000
0000
0000
3000
,
0000
0000
0000
0000
,
0020
0000
0000
0030
,
0000
0000
0000
0000
,
0200
0000
0000
0300
,
0000
0000
0000
0000
,
1001
0000
0000
0000
,
0000
0000
1000
1000
,
1000
0000
0001
0001
,
0001
0000
1000
1000
,
1000
0000
0001
0000
,
0000
0000
1000
0000
,
0001
0001
0000
1000
,
0000
0001
0001
0000
,
1000
1000
0000
0010
,
0000
0100
0100
0000
,
0001
0000
1000
0000
,
0001
0000
0010
0010
,
0010
0000
0100
0100
,
0100
0000
1000
0000
,
0001
0001
0000
0010
,
0000
0100
0100
0000
,
0001
0001
0000
1000
,
0000
0001
0001
0000
,
1000
0000
0010
0000
,
0100
0000
0001
0001
,
0001
0000
1000
1000
,
1000
0000
0020
0000
,
0000
0000
0000
0000
,
0030
0000
0000
0000
;
