#TITLE:FLOWER;
#SUBTITLE:;
#ARTIST:DJ YOSHITAKA;
#TITLETRANSLIT:;
#SUBTITLETRANSLIT:;
#ARTISTTRANSLIT:;
#CREDIT:;
#BANNER:FLOWER.png;
#BACKGROUND:FLOWER-bg.png;
#LYRICSPATH:;
#CDTITLE:cdtitle.png;
#MUSIC:FLOWER.mp3;
#OFFSET:1.000;
#SAMPLESTART:50.302;
#SAMPLELENGTH:12.000;
#SELECTABLE:YES;
#DISPLAYBPM:87.000:173.000;
#BPMS:0.000=173.000,20.000=86.500,36.000=173.000,228.000=43.250,230.000=86.500,246.000=173.000;
#STOPS:;
#BGCHANGES:;

//---------------dance-single - ----------------
#NOTES:
     dance-single:
     :
     Hard:
     15:
     0.833,0.997,0.636,0.121,0.693: // measure 1
0000
0000
0000
0000
,  // measure 2
0010
0000
1001
0000
1000
0010
0100
0001
,  // measure 3
0010
0000
0100
0000
1000
0000
0001
0000
1000
0010
1000
0020
0000
0000
0000
0000
,  // measure 4
0130
0000
0000
0000
1001
0000
0001
0000
0001
0000
0001
0000
0001
0000
1000
0001
,  // measure 5
2000
0000
0000
3001
,  // measure 6
1000
0010
1000
0010
0000
0100
0001
0100
0000
0001
0100
1000
0000
0001
0010
1000
,  // measure 7
0000
0001
0010
0100
0000
1000
0010
0100
0000
0010
1000
0001
0000
1000
0001
0100
,  // measure 8
0001
0010
0100
0110
0000
0001
0100
0101
0000
1000
0010
1010
0000
0100
1000
1100
,  // measure 9
0000
1000
0010
1010
0000
0001
1000
0002
0000
2003
0000
3020
0000
0031
1001
0000
,  // measure 10
1000
0000
0010
0000
1000
0000
0001
0000
0010
0000
0000
0010
0000
0000
0010
0000
,  // measure 11
0100
0000
1000
0000
0010
0000
0100
0000
0001
0000
0000
0001
0000
0000
0001
0000
,  // measure 12
0100
0000
1000
0000
0100
0000
0001
0000
0010
0000
0000
0010
0000
0000
0010
0000
,  // measure 13
0100
0000
1000
0000
0010
0000
0001
0000
0010
0000
0000
0010
0000
0000
0010
0000
,  // measure 14
0000
0000
1000
0000
0010
0100
0010
0000
1000
0000
0000
0001
0000
0000
1001
0000
,  // measure 15
0000
0000
1000
0000
0100
0001
0100
0000
1000
0000
0000
0010
0000
0000
1001
0000
,  // measure 16
0000
0000
1000
0000
0010
0100
0010
0000
0100
0000
0000
0001
0000
0000
0110
0000
,  // measure 17
0000
0000
0010
0000
1000
0001
1000
0000
0010
0000
0000
0100
0000
0000
1001
0000
,  // measure 18
1000
0010
0100
0001
0010
0100
1000
0100
,  // measure 19
0010
0001
0100
0010
1000
0100
1000
0100
,  // measure 20
0010
0001
0100
1000
0100
0001
0100
1000
,  // measure 21
0100
0010
0001
0010
1000
0100
0001
0100
,  // measure 22
1000
0000
0000
1000
0000
0000
1000
0000
0010
0000
0100
0000
0001
0000
0010
0000
,  // measure 23
0100
0000
0000
0100
0000
0000
0100
0000
1000
0000
0010
0000
0100
0000
0010
0000
,  // measure 24
1000
0000
0000
1000
0000
0000
1000
0000
0001
0000
0010
0000
0100
0000
0010
0000
,  // measure 25
0001
0000
0000
0001
0000
0000
0001
0000
0010
0000
0100
0000
0001
0000
0100
0000
,  // measure 26
1000
0000
0010
1000
0000
0010
1000
0000
0001
0000
0010
0000
0100
0000
1000
0000
,  // measure 27
0001
0000
0100
0010
0000
0100
0010
0000
0100
0000
0001
0000
0010
0000
0100
0000
,  // measure 28
1000
0000
0010
1000
0000
1000
0100
0000
0010
0000
0001
0000
0100
0000
0010
0000
,  // measure 29
0100
0000
0001
0010
0000
0010
0100
0000
1000
0000
0010
0000
0100
0000
0001
0000
,  // measure 30
1000
0000
0010
1000
0000
0010
1000
0000
0001
0000
0010
0100
0000
0010
0100
0000
,  // measure 31
1000
0000
0001
0100
0000
0001
0100
0000
0010
0000
1000
0001
0000
1000
0001
0000
,  // measure 32
0100
0000
0010
1000
0010
0000
0100
0000
0001
0010
0001
0000
1001
0000
0000
0000
,  // measure 33
0110
0000
0000
0110
0000
0000
1001
0000
0000
1001
0000
0000
1010
0000
0101
0000
,  // measure 34
0001
0010
0100
1000
0001
0100
0010
1000
,  // measure 35
0100
0001
0100
1000
0010
0100
0001
0010
,  // measure 36
0100
0010
0001
0100
1000
0100
0001
0010
,  // measure 37
0100
0000
0000
0100
0000
0000
0100
0000
0010
0000
0000
0010
0000
0000
0010
0000
,  // measure 38
0001
0100
0010
1000
0100
0001
0100
1000
,  // measure 39
0010
0100
0001
0100
0010
0100
0001
0010
,  // measure 40
0100
1000
0010
0100
1000
0100
0001
0010
,  // measure 41
0100
0000
0000
0100
0000
0000
0100
0000
0010
0000
0000
0010
0000
0000
0010
0000
,  // measure 42
0001
0000
0010
0100
0000
0100
1000
0000
0010
0000
0100
0000
0001
0000
0010
0000
,  // measure 43
0100
0000
1000
0010
0000
0010
0100
0000
0001
0000
0010
0000
0100
0000
1000
0000
,  // measure 44
0001
0000
1000
0100
0000
0001
0100
0000
1000
0000
0010
0000
0100
0000
0001
0000
,  // measure 45
0010
0000
0000
0010
0000
0000
0010
0000
0100
0000
0000
0100
0000
0000
0100
0000
,  // measure 46
0010
0000
0001
0100
0000
0100
1000
0000
0100
0000
0010
0000
1000
0000
0100
0000
,  // measure 47
0010
0000
0001
0010
0000
0010
0100
0000
1000
0000
0010
0000
0100
0000
0001
0000
,  // measure 48
1000
0000
0010
0100
0000
0001
0100
0000
0010
0000
1000
0000
0100
0000
0010
0000
,  // measure 49
0001
0000
0000
0001
0000
0000
0001
0000
1000
0000
0000
1000
0000
0000
1000
0000
,  // measure 50
1001
0000
0000
1010
0000
0000
0110
0000
0000
0101
0000
0000
0110
0000
1001
0000
,  // measure 51
1000
0000
0010
0000
0100
0001
0100
0000
0020
0000
0000
0000
0130
0000
0000
0000
,  // measure 52
0011
0000
0000
0110
0000
0000
1100
0000
0000
1010
0000
0000
0110
0000
1001
0000
,  // measure 53
0001
0000
0010
0000
0100
0000
1000
0000
0010
0100
0000
0001
0000
0100
0010
0000
,  // measure 54
1010
0000
0000
0110
0000
0000
0011
0000
0000
0110
0000
0000
1010
0000
0101
0000
,  // measure 55
1000
0000
0001
0000
0010
0100
0010
0000
0002
0000
0000
0000
1003
0000
0000
0000
,  // measure 56
0101
0000
0000
1010
0000
0000
0110
0000
0000
1001
0000
0000
0011
0000
1100
0000
,  // measure 57
0001
0000
1000
0000
0010
0100
0010
0000
1000
0000
0000
0010
0000
0000
0100
0000
,  // measure 58
2002
0000
0000
0000
0000
0000
0000
3003
2000
0000
0010
0000
0001
0000
0010
0000
,  // measure 59
3200
0001
1000
0001
0320
0001
0100
1000
,  // measure 60
0032
0000
0100
0000
1000
0000
0013
0000
1001
0000
0010
0000
0010
0000
0010
0100
,  // measure 61
1001
0000
1000
0000
1000
0000
1000
0010
0101
0000
0001
0010
1100
0000
0100
0010
,  // measure 62
0110
0000
0000
1010
0000
0000
0110
0000
0000
0101
0000
0000
0110
0000
1001
0000
0010
0000
0000
0000
0100
0000
1000
0000
0000
0000
0010
0000
0100
0000
0000
0000
,  // measure 63
0010
1000
0010
1000
0100
1000
0100
1000
0010
0000
1000
0100
0000
0010
0100
0000
,  // measure 64
1000
0010
1000
0010
1000
0100
1000
0100
0010
0000
0001
0010
0000
0001
0100
0000
,  // measure 65
0001
0010
0001
0010
0001
0100
0001
0010
0100
0000
0000
0010
0000
0000
0100
0000
,  // measure 66
1000
0010
1000
0010
0000
0100
0001
0000
1000
0000
0100
0010
0000
0100
1000
0000
,  // measure 67
0001
0010
0001
1000
0100
0010
0100
0010
0001
0000
0010
0100
0000
0010
0001
0000
,  // measure 68
1000
0010
0100
0010
0100
0001
1000
0100
0010
0000
0100
1000
0000
0100
0010
0000
,  // measure 69
0001
0010
0100
0010
0001
0100
0001
0100
0010
0000
0000
1000
0000
0000
0100
0000
,  // measure 70
0010
0001
0010
0100
0000
0010
0001
0000
0110
0000
0000
0101
0000
0000
1010
0000
,  // measure 71
0000
0110
0000
0000
0101
0000
1010
0000
0001
0000
1000
0000
0010
0100
0010
0000
,  // measure 72
2000
0000
0000
0000
3001
0000
0000
0000
0101
0000
0000
0110
0000
0000
1010
0000
,  // measure 73
0000
1100
0000
0000
0101
0000
1100
0000
0001
0000
0010
0000
0100
0000
1000
0000
,  // measure 74
0010
0100
0000
0001
0000
0100
0010
0000
1100
0000
0000
0101
0000
0000
1010
0000
,  // measure 75
0000
0110
0000
0000
0101
0000
1001
0000
1000
0000
0010
0000
0100
0001
0100
0000
,  // measure 76
0020
0000
0000
0000
0130
0000
0000
0000
1001
0000
0000
1010
0000
0000
0101
0000
,  // measure 77
0000
0110
0000
0000
1001
0000
1010
0000
0001
0000
0010
0000
0100
1000
0100
0000
,  // measure 78
0010
0000
0000
0100
0000
0000
0110
0000
0000
0000
0000
0000
0000
0000
0000
0000
;

//---------------dance-single - ----------------
#NOTES:
     dance-single:
     :
     Medium:
     11:
     0.639,0.778,0.427,0.250,0.125:
0000
0000
0000
0000
,
1000
0000
1001
0000
0001
0010
0100
1000
,
0010
0100
0001
1000
0020
0200
0000
0330
,
1001
0000
0110
0010
1000
0001
1000
0100
,
0002
0000
0000
0103
,
1000
0010
0100
0000
0001
0010
0100
0000
1000
0010
1000
0000
0001
0100
0001
0000
,
1000
0010
0100
0000
0001
0010
0100
0000
1000
0100
0001
0000
0001
0100
1000
0000
,
0010
0100
0001
0000
0100
0010
1000
0000
0001
0010
1000
0000
1000
0010
0001
0000
,
0100
0010
1000
0000
0001
0100
0001
0100
0000
0001
0000
2002
0000
3003
0000
0000
,
1000
0010
0100
0001
0010
0100
1000
0000
,
0001
0010
0100
0010
0001
1000
0010
0000
,
0100
0001
0100
0010
1000
0100
0010
0000
,
0010
1100
0010
0101
,
1000
0100
0001
0100
0010
0001
0100
0000
,
0010
1000
0100
0010
0100
1000
0010
0000
,
0100
0001
0010
1000
0010
0001
0100
0000
,
0100
0011
0100
1010
,
1000
0000
0000
1000
0000
0000
1000
0000
0010
0000
0100
0000
0001
0000
0010
0000
,
0100
0000
0000
0100
0000
0000
0100
0000
0000
0000
1000
0000
1001
0000
0000
0000
,
0001
0000
0000
0001
0000
0000
0001
0000
1000
0000
0010
0000
0100
0000
0001
0000
,
1000
0000
0000
1000
0000
0000
1000
0000
0000
0000
0010
0000
0110
0000
0000
0000
,
1000
0000
0000
1000
0000
0000
1000
0000
0010
0000
0100
0000
0001
0000
0010
0000
,
0100
0000
0000
0100
0000
0000
0100
0000
0000
0000
0010
0000
0110
0000
0000
0000
,
1000
0000
0000
1000
0000
0000
1000
0000
0001
0000
1000
0000
0010
0000
0100
0000
,
0001
0000
0000
0001
0000
0000
0001
0000
0000
0000
1000
0000
1001
0000
0000
0000
,
2000
0000
0000
3200
0000
0000
0301
0000
0100
0000
1000
0000
0010
0000
0100
0000
,
0002
0000
0000
0023
0000
0000
1030
0000
0010
0000
0001
0000
0100
0000
0010
0000
,
2000
0000
0000
3002
0000
0000
0013
0000
1000
0000
0010
0000
0100
0000
1000
0000
,
0020
0000
0000
0230
0000
0000
0301
0000
1000
0000
0010
0000
0100
0000
0001
0000
,
0010
0100
1000
0000
0100
0010
0001
0000
,
0100
0001
0100
0000
0001
0010
1000
0000
,
0001
0100
0010
0000
0001
0010
0110
0000
,
1001
0000
0000
0110
0000
0100
0010
0100
,
0010
1000
0010
1000
0001
0100
0001
0000
,
1000
0010
0100
0001
0100
1000
0100
0000
,
0010
0100
0001
0010
0100
0001
0100
0000
,
1001
0000
0000
0110
0000
0000
1001
0000
,
1000
0010
0100
0001
0100
0010
1000
0000
,
0001
0100
0001
0010
0001
0100
0001
0000
,
1000
0100
0010
0001
0100
1000
0100
0000
,
1001
0000
0000
0110
0000
0000
1001
0000
,
1000
0010
1000
0100
0010
0001
0010
0000
,
0001
1000
0100
1000
0001
0100
0001
0000
,
0100
0100
0001
0001
0010
0100
1000
0000
,
1001
0000
0000
0110
0000
0000
1001
0000
,
0001
0010
0001
1000
0001
0010
0001
0000
,
1000
0100
1000
0010
1000
0100
1000
0000
,
0100
1000
0100
0010
0001
0010
0100
1000
,
0110
0000
0000
1001
0000
0001
1000
0001
,
1000
0000
0000
0101
0000
0000
1010
0000
,
0001
0010
0100
1000
0002
0000
1003
0000
,
1010
0000
0000
0101
0000
0000
1010
0000
,
0001
0010
0100
1000
0001
0100
0010
0000
,
1100
0000
0000
0011
0000
0000
1100
0000
,
0001
0010
0100
1000
0020
0000
0130
0000
,
1001
0000
0000
0110
0000
0000
1001
0000
,
0001
0010
0100
1000
0020
0000
0130
0000
,
2002
0000
0000
0000
0000
0000
0000
3003
2000
0000
0100
0000
0000
0000
0100
0000
,
3002
0100
0000
0100
2003
0010
0000
0010
,
3002
0010
0000
0010
1003
0100
0010
0001
,
1001
1000
0010
0100
0110
0000
1100
0000
,
0001
1000
0001
1000
0001
0100
0010
0100
,
0001
0010
0100
0000
0010
0001
0010
1000
,
0010
0001
0100
0000
0010
1000
0010
0100
,
0010
0001
0010
0000
1100
0000
0101
0000
,
0011
0000
1100
0000
0001
0010
0100
0010
,
0001
0010
0100
0000
1000
0100
0001
0100
,
1000
0010
0100
0000
0001
0100
0001
0010
,
0100
1000
0001
0000
1100
0000
0101
0000
,
1000
0010
0100
0001
2001
0000
0000
3020
,
0000
0000
0130
0000
0101
0001
0010
0100
,
2000
0000
3001
0000
2010
0000
0000
3002
,
0000
0000
0103
0000
0110
0010
1000
0010
,
0100
0001
0010
0100
2100
0000
0000
3020
,
0000
0000
0130
0000
0101
0001
0100
1000
,
0200
0000
0000
0000
0301
0000
0000
0000
1000
0000
0000
1000
0000
0000
0001
0000
,
0000
0001
0000
0000
0100
0000
0010
0000
1000
0000
0100
0000
0010
0000
0001
0000
,
0020
0130
0000
0000
;

//---------------dance-single - ----------------
#NOTES:
     dance-single:
     :
     Easy:
     7:
     0.341,0.405,0.169,0.161,0.000:
0000
0000
0000
0000
,
2000
3001
0002
1003
,
0001
0010
0200
1300
,
0001
0100
0001
0100
,
0002
0000
0000
1003
,
1000
0100
0010
0001
,
0010
0100
1000
0001
,
1000
0010
0100
0001
,
1000
0100
0001
0100
,
1000
0010
1000
0000
,
0001
0100
0001
0000
,
1000
0010
0100
0001
,
0010
0100
1000
0000
,
0001
0100
0001
0000
,
1000
0010
1000
0000
,
0001
0100
1000
0100
,
0001
0010
0100
0000
,
1000
0100
0001
0001
,
0100
1000
0010
0010
,
1000
0100
0001
0001
,
0100
1000
0010
0000
,
0001
0100
0010
0100
,
0001
1000
0100
0010
,
0001
0010
0100
1000
,
0010
0100
0001
0000
,
1000
0010
0100
0100
,
0010
0100
0001
0001
,
0100
0010
0100
0100
,
0010
1000
0100
0000
,
1100
0000
0101
0000
,
1010
0000
0011
0000
,
1000
0001
1000
1001
,
0002
0000
0000
1003
,
0001
0010
0100
1000
,
0001
0010
0100
0000
,
1000
0100
0010
0001
,
1000
0100
0010
0000
,
0010
1000
0010
1000
,
0001
0100
0001
0000
,
1000
0100
1000
0100
,
0010
0001
0010
0000
,
1000
0100
0010
0100
,
1000
0100
0010
0000
,
0001
0100
0010
0100
,
0001
0100
0010
0000
,
1000
1000
0010
0010
,
0100
0100
0001
0001
,
0010
0100
1000
1000
,
0001
0000
1001
0000
,
2000
0000
0000
3001
,
0001
0010
0100
1000
,
0002
0000
0000
1003
,
1000
0100
0010
0001
,
2000
0000
0000
3001
,
0001
0100
0010
1000
,
0002
0000
0000
1003
,
1000
0010
0200
0301
,
2002
0000
0000
3003
0110
0000
0000
0000
,
1010
0000
0101
0000
,
0011
0000
1100
0000
,
1010
0000
1001
1001
,
0110
0110
0010
1000
,
0100
0100
0010
0001
,
0100
0000
0001
0010
,
1000
1000
0010
0001
,
0100
0000
0010
1000
,
0100
0100
1000
0010
,
0100
0000
0001
0100
,
0010
0010
0100
0001
,
0010
0100
2100
0000
,
0000
3100
1000
0001
,
2000
3001
0012
0000
,
0000
0013
0001
1000
,
0002
1003
2010
0000
,
0000
3010
1000
0001
,
2000
3001
0102
0000
,
0000
0103
1000
0010
,
0002
0103
0000
0000
;

//---------------dance-single - ----------------
#NOTES:
     dance-single:
     :
     Beginner:
     3:
     0.224,0.280,0.048,0.161,0.000:
0000
0000
0000
0000
,
1000
0000
0001
0000
,
0100
0000
0001
0001
,
0001
0000
1000
0000
,
0010
0000
0000
1000
,
2000
0000
3000
0000
,
0002
0000
0003
0000
,
0200
0000
0300
0000
,
0020
0000
0030
0000
,
1000
1000
1000
0000
,
0001
0001
0001
0000
,
0100
0100
0100
0000
,
0110
0000
1001
0000
,
0001
0001
0001
0000
,
0010
0010
0010
0000
,
0100
0100
0100
0000
,
1001
0000
0110
0000
,
2000
0000
3001
0000
,
0002
0000
1003
0000
,
2000
0000
3001
0000
,
0002
0000
1003
0000
,
0110
0000
0000
0000
,
0110
0000
0000
0000
,
1000
0000
0001
0000
,
1000
0000
1000
1000
,
1000
0000
0001
0001
,
0001
0000
0100
0100
,
0100
0000
0010
0010
,
0010
0000
0100
0100
,
0100
0000
1000
0000
,
0001
0000
0100
0000
,
0001
0001
0001
0001
,
0000
0000
0000
0001
,
0001
0000
1000
0000
,
0010
0000
0100
0000
,
0001
0000
0010
0000
,
0100
0000
1000
0000
,
0001
0000
0001
0000
,
1000
0000
1000
0000
,
0010
0000
0010
0000
,
0100
0000
0100
0000
,
0001
0001
0001
0000
,
1000
1000
1000
0000
,
0010
0010
0010
0000
,
0100
0100
0100
0000
,
0001
0001
0001
0000
,
1000
0000
0001
0000
,
1000
1000
1000
0000
,
0001
0000
1000
0000
,
0002
0000
0000
0003
,
0000
0000
0000
0000
,
2000
0000
0000
3000
,
0000
0000
0000
0000
,
0020
0000
0000
0030
,
0000
0000
0000
0000
,
0200
0000
0000
0300
,
0000
0000
0000
1000
,
1000
0000
0001
0001
,
0001
0001
1000
1000
,
1000
1000
0010
0010
,
0010
0010
0100
0100
,
0100
0100
0001
0001
,
0001
0000
1000
1000
,
1000
0000
0010
0010
,
0010
0000
0100
0100
,
0010
0010
0100
0100
,
0100
0000
0001
0001
,
0001
0000
1000
1000
,
1000
0000
0001
0001
,
1000
1000
0002
0000
,
0003
0000
2000
0000
,
0000
3001
0002
0000
,
0003
0000
2000
0000
,
0000
3001
0002
0000
,
0003
0000
2000
0000
,
0000
3001
0002
0000
,
0003
0000
2000
0000
,
0000
3001
0000
0000
;
