#TITLE:Everlasting Resort;
#SUBTITLE:;
#ARTIST:SUPER STAR 満-MITSURU-;
#TITLETRANSLIT:;
#SUBTITLETRANSLIT:;
#ARTISTTRANSLIT:SUPER STAR MITSURU;
#GENRE:;
#CREDIT:;
#MENUCOLOR:;
#METERTYPE:DDR;
#BANNER:Everlasting Resort.png;
#BACKGROUND:Everlasting Resort-bg.png;
#LYRICSPATH:Everlasting Resort.lrc;
#CDTITLE:cdtitle.png;
#MUSIC:Everlasting Resort.mp3;
#OFFSET:-0.379;
#SAMPLESTART:78.201;
#SAMPLELENGTH:13.000;
#SELECTABLE:YES;
#LISTSORT:;
#BPMS:0.000=148.000,128.000=74.000,144.000=111.000,168.000=148.000;
#STOPS:;
#BGCHANGES:;
#ATTACKS:;

//---------------dance-single - ----------------
#NOTES:
     dance-single:
     :
     Hard:
     12:
     0.479,0.640,0.115,0.194,0.331: // measure 1
0000
0000
0000
0000
,  // measure 2
0000
0000
0000
0000
,  // measure 3
0000
0000
0000
0000
,  // measure 4
0000
0000
0000
0000
,  // measure 5
0000
0000
0000
0000
,  // measure 6
0000
0000
0000
0000
,  // measure 7
0000
0000
0000
0000
,  // measure 8
0000
0000
0000
0000
,  // measure 9
0001
0000
0000
0001
0000
0000
0001
0000
0010
0000
0100
0000
0010
0000
0000
0000
,  // measure 10
0001
0000
0000
0001
0000
0000
0001
0000
1000
0000
0100
0000
1000
0000
0010
0000
,  // measure 11
0100
0000
0000
0100
0000
0000
0100
0000
0001
0000
0100
0000
0010
0000
0000
0000
,  // measure 12
1000
0000
0000
1000
0000
0000
1000
0000
0001
0000
0100
0000
0010
0000
1000
0000
,  // measure 13
0100
0000
0000
0100
0000
0000
0100
0000
1000
0000
0010
0000
0100
0000
0000
0000
,  // measure 14
0001
0000
0000
0001
0000
0000
0001
0000
0010
0000
0100
0000
1000
0000
0001
0000
,  // measure 15
0010
0001
0100
0010
1000
0001
0010
0100
,  // measure 16
0110
0000
0000
1001
0000
0000
0110
0000
,  // measure 17
1000
0000
0000
0001
0100
0000
0001
0000
0010
0000
0100
0000
1000
0000
0000
0000
,  // measure 18
0001
0010
0200
0000
0001
0000
1300
0000
,  // measure 19
0001
0000
0000
0010
0001
0000
0100
0000
0010
0000
1000
0000
0100
0000
0000
0000
,  // measure 20
1000
0001
0200
0000
1000
0000
0301
0000
,  // measure 21
0010
0000
0000
0100
1000
0000
0010
0000
0100
0000
0010
0000
1000
0000
0000
0000
,  // measure 22
0001
0010
0200
0000
0001
0000
1300
0000
,  // measure 23
0001
0000
0000
0010
0100
0000
1000
0000
0100
0000
0001
0000
0100
0000
1000
0000
,  // measure 24
0010
0000
0000
0010
0000
0000
0100
0000
0000
0100
0000
0000
0001
0000
1000
0000
,  // measure 25
0100
0000
0000
0010
0100
0000
0001
0000
0100
0000
1000
0000
0010
0000
0000
0000
,  // measure 26
0100
0001
0020
0000
1000
0000
0031
0000
,  // measure 27
0100
0000
0000
0010
1000
0000
0001
0000
0010
0000
0001
0000
0100
0000
0000
0000
,  // measure 28
1000
0100
0002
0000
0010
0000
0103
0000
,  // measure 29
0101
0000
0000
0100
0010
0000
1000
0000
0010
0000
0100
0000
0010
0000
0000
0000
,  // measure 30
1001
0000
0000
0010
1000
0000
0001
0000
0010
0000
0100
0000
1000
0000
0000
0000
,  // measure 31
0110
0000
0000
0100
0010
0000
0001
0000
0100
0000
0000
0001
1000
0000
0010
0000
,  // measure 32
1000
0000
0000
0100
0000
0000
0010
0000
0000
0001
0000
0000
1000
0000
0010
0000
,  // measure 33
0100
0000
0000
0001
0000
0000
0100
0000
0001
0000
0000
0000
0000
0000
1000
0000
0100
0000
0000
0010
0000
0000
0100
0000
1000
0000
0000
0000
0001
0000
0000
0000
,  // measure 34
0100
0000
0000
0010
0000
0000
1000
0000
0001
0000
0000
0000
2000
0000
0000
0000
3020
0000
0000
0000
0230
0000
0000
0000
0302
0000
0000
0000
1003
0000
0000
0000
,  // measure 35
0001
0000
0000
0010
0000
0000
0001
0000
0100
0000
0000
0000
0000
0000
0010
0000
1000
0000
0000
0010
0000
0000
0100
0000
0001
0000
0000
0000
1000
0000
0000
0000
,  // measure 36
0100
0000
0000
0010
0000
0000
0100
0000
1000
0000
0000
0000
0000
0000
0001
0000
0010
0000
0000
0100
0000
0000
1000
0000
0100
0000
0000
0000
0110
0000
0000
0000
,  // measure 37
0001
0000
0000
0000
0000
0000
0000
0000
0000
0100
0000
0000
0000
0000
0000
0000
0000
0000
0001
0000
0000
0000
0000
0000
0020
0000
0000
0000
0000
0000
0000
0000
0000
0000
0000
0000
0130
0000
0000
0000
0000
0000
0000
0000
0000
0000
0000
0000
1000
0000
0000
0000
0000
0000
0000
0000
0000
0010
0000
0000
0000
0000
0000
0000
,  // measure 38
0000
0000
0100
0000
0000
0000
0000
0000
0002
0000
0000
0000
0000
0000
0000
0000
0000
0000
0000
0000
1003
0000
0000
0000
0000
0000
0000
0000
0000
0000
0000
0000
0010
0000
0000
0000
0000
0000
0000
0000
0000
0100
0000
0000
0000
0000
0000
0000
0000
0000
0001
0000
0000
0000
0000
0000
0010
0000
0000
0000
0000
0000
0000
0000
,  // measure 39
0000
0000
0002
0000
0000
0000
0000
0000
2003
0000
0000
0000
0000
0000
3200
0000
0000
0000
0000
0000
0310
0000
0000
0001
0000
0000
1000
0000
0000
0010
0000
0000
,  // measure 40
0100
0000
0000
0000
0000
0000
0000
0000
0000
0001
0000
0000
0000
0000
0000
0000
0000
0000
1000
0000
0000
0000
0000
0000
0020
0000
0000
0000
0000
0000
0000
0000
0000
0000
0000
0000
0130
0000
0000
0000
0000
0000
0000
0000
0000
0000
0000
0000
0001
0000
0000
0000
0000
0000
0000
0000
0000
0010
0000
0000
0000
0000
0000
0000
,  // measure 41
0000
1000
0000
0000
0020
0000
0000
0000
0000
0000
0031
0000
0000
0000
0000
0000
0011
0000
0000
0000
0000
0000
0100
0000
0000
0000
0000
0000
1100
0000
0000
0000
,  // measure 42
0000
0000
0001
0000
0000
0000
0000
0000
0101
0000
0000
0000
0000
0000
0000
0000
0000
1010
0000
0000
0000
0000
0000
0000
0000
0000
0110
0000
0000
0000
0000
0000
,  // measure 43
0001
0000
0000
0010
0100
0000
1000
0000
0010
0000
0100
0000
0001
0000
0010
0000
,  // measure 44
0100
0000
0000
1000
0100
0000
0010
0000
0001
0000
0100
0000
0010
0000
1000
0000
,  // measure 45
0100
0000
0000
0001
0100
0000
0010
0000
0001
0000
0100
0000
1000
0000
0100
0000
,  // measure 46
0001
0010
0200
0000
0301
0100
2000
0000
,  // measure 47
3100
0000
0000
0010
0100
0000
1000
0000
0010
0000
0100
0000
0001
0000
1000
0000
,  // measure 48
0001
0000
0000
0010
0100
0000
1000
0000
0010
0000
0100
0000
0001
0000
0010
0000
,  // measure 49
0001
0000
0000
1000
0001
0000
0010
0000
0100
0000
1000
0000
0010
0000
0100
0000
,  // measure 50
0001
0000
0000
1000
0000
0000
0001
0000
0010
0000
0000
0100
0000
0000
1000
0000
,  // measure 51
0010
0000
0000
0100
0001
0000
1000
0000
0100
0000
1000
0000
0001
0000
0100
0000
,  // measure 52
0010
0000
0000
1000
0100
0000
1000
0000
0010
0000
0100
0000
0001
0000
0010
0000
,  // measure 53
0100
0000
0000
0001
0100
0000
1000
0000
0010
0000
0100
0000
0001
0000
0010
0000
,  // measure 54
0100
0000
0000
0100
0000
0000
0100
0000
1000
0000
0001
0000
0100
0000
0010
0000
,  // measure 55
1000
0000
0000
0100
0000
0000
0010
0000
0100
0000
0000
0000
0010
0000
0000
0220
,  // measure 56
0000
0000
0000
0000
0330
0000
0000
0000
0001
0000
1000
0001
1000
0000
0000
0000
,  // measure 57
0010
0100
0001
0000
0010
0100
1000
0000
,  // measure 58
0010
0100
1000
0100
0001
0010
0100
2000
,  // measure 59
0002
0000
0000
0000
,  // measure 60
0000
0000
0000
0000
,  // measure 61
0000
0000
3003
0000
;

//---------------dance-single - ----------------
#NOTES:
     dance-single:
     :
     Medium:
     9:
     0.367,0.480,0.079,0.150,0.123:
0000
0000
0000
0000
,
0000
0000
0000
0000
,
0000
0000
0000
0000
,
0000
0000
0000
0000
,
0000
0000
0000
0000
,
0000
0000
0000
0000
,
0000
0000
0000
0000
,
0000
0000
0000
0000
,
0001
0010
0100
0000
0001
0010
0100
0000
,
1000
0100
0010
0000
1000
0100
0010
0000
,
0010
0001
0100
0000
0010
0001
0100
0000
,
0010
1000
0100
0000
0010
1000
0100
0000
,
0001
0001
0010
0010
,
0100
0100
1000
1000
,
0001
0100
0010
1000
,
1001
0000
0000
0010
0000
0000
0100
0000
,
0001
1000
0001
1000
,
0010
0100
0002
0000
0010
0000
0103
0000
,
0010
1000
0001
0010
,
0100
1000
0020
0000
0100
0000
1030
0000
,
0001
0010
0001
0100
,
0010
0100
0002
0000
0010
0000
1003
0000
,
0100
1000
0010
0100
,
0001
0000
1000
0001
1000
0000
0110
0000
,
0001
0100
1000
0000
0100
0000
0001
0000
,
1000
0001
0200
0000
0010
0000
0301
0000
,
1000
0010
0100
0000
0001
0000
0010
0000
,
0100
1000
0002
0000
0100
0000
0013
0000
,
0100
1000
0010
0000
0001
0000
0010
0000
,
1000
0001
0200
0000
0010
0000
0301
0000
,
1100
0000
0001
1000
0100
0000
0010
0001
,
0100
0000
0010
0000
1000
0001
1000
0000
,
0002
0000
0000
0010
0013
0000
0000
0000
0200
0000
0000
1000
1300
0000
0000
0000
,
2000
0000
0000
0010
3010
0000
0100
0000
0001
0000
1000
0000
0100
0000
0010
0000
,
0002
0000
0000
0100
0103
0000
0000
0000
2000
0000
0000
0100
3100
0000
0000
0000
,
0020
0000
0000
0100
0130
0000
0001
0000
1000
0000
0001
0000
0010
0000
0100
0000
,
1000
0000
0000
0000
0000
0000
0001
0000
0000
1000
0000
0000
0010
0000
0000
0000
0000
0000
0100
0000
0000
0000
0000
0000
0001
0000
0000
0000
0000
0000
1000
0000
,
0000
0010
0000
0000
0100
0000
0000
0000
0000
0000
0001
0000
0000
0000
0000
0000
1000
0000
0000
0000
0000
0000
0001
0000
0000
0010
0000
0000
0100
0000
0000
0000
,
0000
1000
0000
0000
0010
0000
0000
0100
0000
0000
0001
0000
0000
1000
0000
0000
,
0001
0000
0000
0000
0000
0000
0010
0000
0000
0001
0000
0000
0100
0000
0000
0000
0000
0000
0010
0000
0000
0000
0000
0000
1000
0000
0000
0000
0000
0000
0001
0000
,
0000
1000
0000
0000
0100
0000
0000
0000
0000
0000
0010
0000
0000
0000
0000
0000
0001
0000
0000
0000
0000
0000
1000
0000
0000
0000
0000
0000
0010
0000
0000
0000
,
0000
0000
0100
0000
0000
0000
0000
0000
0110
0000
0000
0000
0000
0000
0000
0000
0000
1001
0000
0000
0000
0000
0000
0000
0000
0000
0110
0000
0000
0000
0000
0000
,
0001
1000
0001
1000
,
0010
0100
0001
0100
0020
0000
1030
0000
,
1000
0100
1000
0100
,
0010
0001
0100
0001
0020
0000
0130
0000
,
1000
0001
0100
0001
,
0010
0100
1000
0100
0020
0000
0031
0000
,
0100
0001
1000
0001
,
1000
0100
0001
0100
1000
0010
0100
0000
,
0001
0010
1000
0000
0010
0000
0001
0000
,
1000
0100
0001
0000
0100
0000
1000
0000
,
0010
0100
0001
0000
0100
0000
0010
0000
,
1000
0001
0010
0000
0100
1000
0010
0100
,
0001
0000
0100
0000
0001
0000
0100
0000
0010
0000
0000
0000
1000
0000
0000
1001
,
0000
0000
0001
1000
,
0001
1000
0001
0000
1000
0001
1000
0000
,
0010
0000
0110
0000
0001
1000
0100
0010
,
2002
0000
0000
0000
,
0000
0000
0000
0000
,
0000
0000
3003
0000
;

//---------------dance-single - ----------------
#NOTES:
     dance-single:
     :
     Easy:
     4:
     0.180,0.236,0.018,0.185,0.018:
0000
0000
0000
0000
,
0000
0000
0000
0000
,
0000
0000
0000
0000
,
0000
0000
0000
0000
,
0000
0000
0000
0000
,
0000
0000
0000
0000
,
0000
0000
0000
0000
,
0000
0000
0000
0000
,
1000
1000
1000
0000
,
0100
0100
0100
0000
,
0010
0010
0010
0000
,
0001
0001
0001
0000
,
1000
0000
0001
0000
,
1000
0000
0001
0000
,
1000
0000
0010
0000
,
0100
0001
0010
0000
,
0200
0000
1300
0000
,
0200
0000
0310
0000
,
0002
0000
0103
0000
,
0002
0000
0013
0000
,
0200
0000
1300
0000
,
0002
0000
0103
0000
,
0020
0000
0130
0000
,
0001
1000
0001
0000
,
1000
0000
0010
0000
,
0001
1000
0100
0000
,
0010
0000
0001
0000
,
0100
0010
1000
0000
,
0001
0000
1000
0000
,
0010
0100
0001
0000
,
1000
0000
0100
0000
,
0010
0000
0001
0000
,
2000
3000
0002
0003
,
0200
0300
0020
0030
,
2000
3000
0002
0003
,
0020
0030
0200
0300
,
1000
0000
0000
0001
0000
0000
0100
0000
,
0000
0010
0000
0000
1000
0000
0000
0001
,
0000
0000
0020
0000
0000
0130
0000
0000
,
1000
0000
0000
1000
0000
0000
1000
0000
0000
0000
0000
0000
0001
0000
0000
0001
,
0000
0001
0000
0000
0100
0000
0000
0001
,
0000
0000
0000
0000
0000
0000
0000
0000
1000
0000
0000
0000
0000
0000
0000
0000
0000
1000
0000
0000
0000
0000
0000
0000
0000
0000
1000
0000
0000
0000
0000
0000
,
0001
0010
0100
0000
,
0010
0100
1000
0000
,
0002
0000
0100
0000
,
0103
0000
0000
0000
,
1000
0010
0100
0000
,
0010
0100
0001
0000
,
2000
0000
0010
0000
,
3010
0000
0000
0000
,
0001
0100
1000
0000
,
0001
0010
1000
0000
,
0020
0000
0100
0000
,
0130
0000
0000
0000
,
1000
0001
0100
0000
,
0110
0000
0000
0000
,
0001
0000
1000
0000
,
0010
0000
0100
0000
,
2002
0000
0000
0000
,
0000
0000
3003
0000
;

//---------------dance-single - ----------------
#NOTES:
     dance-single:
     :
     Beginner:
     2:
     0.086,0.153,0.018,0.000,0.000:
0000
0000
0000
0000
,
0000
0000
0000
0000
,
0000
0000
0000
0000
,
0000
0000
0000
0000
,
0000
0000
0000
0000
,
0000
0000
0000
0000
,
0000
0000
0000
0000
,
0000
0000
0000
0000
,
1000
0000
0000
0000
,
0001
0000
0000
0000
,
1000
0000
0000
0000
,
0001
0000
0000
0000
,
0100
0000
0000
0000
,
0010
0000
0000
0000
,
0100
0000
0000
0000
,
0010
0000
0000
0000
,
1000
0000
1000
0000
,
1000
0000
0000
0000
,
0001
0000
0001
0000
,
0001
0000
0000
0000
,
1000
0000
1000
0000
,
1000
0000
0000
0000
,
0001
0000
0001
0000
,
0001
0000
0000
0000
,
0100
0000
0100
0000
,
0100
0000
0000
0000
,
0010
0000
0010
0000
,
0010
0000
0000
0000
,
0100
0000
0100
0000
,
0100
0000
0000
0000
,
0010
0000
0010
0000
,
0010
0000
0000
0000
,
1000
0000
0000
0000
,
0001
0000
0000
0000
,
0100
0000
0000
0000
,
0010
0000
0000
0000
,
1000
0000
0000
0001
,
0000
0000
0010
0000
,
0000
1000
0000
0000
,
0001
0000
0000
0100
,
0000
0000
0010
0000
,
0000
1000
0000
0000
,
0001
0000
0000
0000
,
1000
0000
0000
0000
,
0010
0000
0010
0000
,
0010
0000
0000
0000
,
0100
0000
0000
0000
,
0001
0000
0000
0000
,
0010
0000
0000
0000
,
0100
0000
0100
0000
,
0100
0000
0000
0000
,
1000
0000
0000
0000
,
0001
0000
0000
0000
,
0100
0000
0010
0000
,
0100
0000
0000
0000
,
1001
0000
0000
0000
,
0010
0000
0010
0000
,
0010
0000
0010
0000
,
0110
0000
0000
0000
;
