#TITLE:Emang Gue Pikirin;
#SUBTITLE:;
#ARTIST:David Fanreza;
#TITLETRANSLIT:;
#SUBTITLETRANSLIT:;
#ARTISTTRANSLIT:;
#CREDIT:;
#BANNER:Emang Gue Pikirin.png;
#BACKGROUND:Emang Gue Pikirin-bg.png;
#LYRICSPATH:;
#CDTITLE:cdtitle.png;
#MUSIC:Emang Gue Pikirin.mp3;
#OFFSET:-1.405;
#SAMPLESTART:79.353;
#SAMPLELENGTH:12.000;
#SELECTABLE:YES;
#BPMS:0.000=180.000;
#STOPS:;
#BGCHANGES:;

//---------------dance-single - ----------------
#NOTES:
     dance-single:
     :
     Hard:
     12:
     0.645,0.659,0.401,0.148,0.065: // measure 1
0000
0000
0000
0000
,  // measure 2
0000
0000
0000
0000
,  // measure 3
0000
0000
0000
0000
,  // measure 4
0000
0000
0000
0000
,  // measure 5
0000
0000
0000
0000
,  // measure 6
1001
0000
0110
0000
,  // measure 7
1001
0000
0110
0000
,  // measure 8
0001
0010
0100
1000
,  // measure 9
0001
0000
0010
0000
0100
0000
0010
0000
0001
0000
0000
1000
0100
0000
0010
0000
,  // measure 10
0100
0000
1000
0100
1000
0000
0002
0000
,  // measure 11
0103
0000
0010
1000
0010
0000
0200
0000
,  // measure 12
0301
0000
0001
1000
0100
0000
0020
0000
,  // measure 13
0130
0000
1000
0100
0001
0000
1000
0010
,  // measure 14
0100
0000
1000
0001
0100
0000
0020
0000
,  // measure 15
0130
0000
0001
0100
0001
0000
2000
0000
,  // measure 16
3100
0000
0010
0001
0010
0000
0100
0000
,  // measure 17
1100
0101
1100
0101
,  // measure 18
0110
0000
0010
1000
0100
0000
0001
0000
,  // measure 19
0101
0000
0001
0100
0010
0000
0010
0000
,  // measure 20
1010
0000
0010
1000
0100
0000
0100
0000
,  // measure 21
1100
0000
1000
0100
0010
0000
0010
0001
,  // measure 22
0100
0000
0100
0001
0100
0000
0010
0000
,  // measure 23
1010
0000
1000
0010
1000
0000
0010
0000
,  // measure 24
0110
0000
0100
0001
0100
0000
0010
0000
,  // measure 25
1010
0000
0000
0000
0011
0000
0000
0000
1010
0000
0000
1000
0001
0000
1000
0000
,  // measure 26
0001
0100
1000
0100
0000
0100
0001
0010
,  // measure 27
0100
1000
0100
0010
0000
0010
0001
0010
,  // measure 28
0100
1000
0010
0100
0000
0100
0001
0100
,  // measure 29
1000
0100
0010
1000
0010
0001
0010
1000
,  // measure 30
0100
0010
0001
0010
0000
0100
1000
0001
,  // measure 31
0100
0010
0100
0001
0000
1000
0100
0001
,  // measure 32
0100
1000
0010
0001
0000
1000
0100
0001
,  // measure 33
0102
0013
2100
3010
,  // measure 34
0100
0000
0100
0000
0010
0100
0010
0000
,  // measure 35
1000
0000
1000
0000
0001
1000
0001
0000
,  // measure 36
0001
0000
0001
0000
1000
0001
1000
0000
,  // measure 37
2001
0000
0010
3010
,  // measure 38
0001
0000
1000
0000
0001
0100
1000
0000
,  // measure 39
0001
0000
1000
0000
0001
0010
1000
0000
,  // measure 40
0011
1000
1100
0001
,  // measure 41
1000
0000
0100
0000
1000
0000
0100
0000
0010
0000
0000
0001
0010
0000
0001
0000
,  // measure 42
1000
0000
0001
0000
1000
0100
0010
0000
,  // measure 43
1000
0000
0001
0000
0100
0010
0001
0000
,  // measure 44
0100
0000
0100
0000
0010
0100
0010
0000
,  // measure 45
0120
0000
0100
0130
,  // measure 46
0010
1000
0100
0000
0010
0001
0100
0000
,  // measure 47
0010
1000
0100
0010
0001
0100
0010
0000
,  // measure 48
0100
0001
0010
0000
0100
1000
0010
0000
,  // measure 49
0100
0001
0010
0100
1000
0001
0100
0010
,  // measure 50
1000
0001
0010
1100
0000
0000
0000
0000
,  // measure 51
0001
0000
0010
0000
0100
0000
1000
0000
0001
0000
0100
0000
0010
0100
0010
0100
,  // measure 52
0010
0000
1010
0000
1000
0100
0010
0100
,  // measure 53
1000
0000
0101
0000
0001
0100
0010
0100
,  // measure 54
0001
0000
1100
0000
0001
0100
1000
0100
,  // measure 55
0001
0000
0000
1000
0000
0001
0010
0100
,  // measure 56
1000
0000
1001
0000
0001
1000
0001
1000
,  // measure 57
0010
0000
0110
0000
0100
0001
0010
0100
,  // measure 58
1001
0000
0000
0000
0001
0100
0010
0100
,  // measure 59
0001
0000
0000
0000
1001
0000
0000
0000
1001
0000
0000
0001
1000
0000
0001
0000
,  // measure 60
2000
0000
3010
0000
1000
0100
0010
0100
,  // measure 61
0002
0000
0103
0000
1000
0010
0100
0001
,  // measure 62
0020
0000
0130
0000
1000
0100
0001
0100
,  // measure 63
1000
0000
0000
1001
0000
0001
0010
0001
,  // measure 64
2000
0000
3001
0000
1000
0010
0001
0010
,  // measure 65
2000
0000
3001
0000
0001
0100
0010
0100
,  // measure 66
0002
0000
1003
0000
1000
0010
0100
0001
,  // measure 67
0110
0000
0000
0000
1001
0000
0000
0000
0110
0000
0000
0010
0100
0000
0001
0000
,  // measure 68
0100
0000
0000
0000
0001
0000
1000
0001
1000
0000
0001
0000
1000
0000
0001
0000
,  // measure 69
1000
0000
1010
0000
0001
0010
0100
0001
,  // measure 70
0100
0000
1000
0000
0010
1000
0010
0100
,  // measure 71
0001
0000
0000
0000
1000
0000
0001
1000
0001
0000
0010
0000
0100
0000
1000
0000
,  // measure 72
0001
0000
0000
0000
0100
0000
0001
0100
0001
0000
1000
0000
0100
0000
0010
0000
,  // measure 73
0001
0000
1100
0000
0001
0100
1000
0100
,  // measure 74
0001
0000
1100
0000
0001
0010
1000
0010
,  // measure 75
0001
0000
0000
0000
1100
0000
0000
0000
0011
0000
0000
0001
1000
0000
0010
0000
,  // measure 76
1000
0000
0000
0000
0001
0000
1000
0010
1000
0000
0001
0000
0010
0000
0100
0000
,  // measure 77
1000
0000
1001
0000
0001
1000
0001
0100
,  // measure 78
0010
0000
0110
0000
1000
0100
0010
0100
,  // measure 79
1000
0000
0000
0000
0100
0000
1000
0100
0010
0000
0100
0000
1000
0000
0010
0000
,  // measure 80
0100
0000
0000
0000
0001
0000
0010
0001
0100
0000
0010
0000
1000
0000
0100
0000
,  // measure 81
0010
0000
1100
0000
0001
0100
0010
0100
,  // measure 82
0001
0000
1100
0000
0001
1000
0100
0010
,  // measure 83
0001
0000
0000
0000
1000
0000
0001
0100
0010
0000
1000
0000
0001
0000
0100
0000
,  // measure 84
2002
0000
0000
0000
,  // measure 85
3003
0000
0000
0000
;

//---------------dance-single - ----------------
#NOTES:
     dance-single:
     :
     Medium:
     9:
     0.320,0.403,0.052,0.078,0.000: // measure 1
0000
0000
0000
0000
,  // measure 2
0000
0000
0000
0000
,  // measure 3
0000
0000
0000
0000
,  // measure 4
0000
0000
0000
0000
,  // measure 5
0000
0000
0000
0000
,  // measure 6
1000
0000
0100
0000
,  // measure 7
0010
0000
0001
0000
,  // measure 8
1000
0000
0001
0000
,  // measure 9
1000
0000
0001
0000
1000
0001
1000
0000
,  // measure 10
0001
0000
1000
0100
1000
0000
0000
0000
,  // measure 11
0010
0000
0100
0001
0100
0000
0000
0000
,  // measure 12
1000
0000
0001
0100
0001
0000
0000
0000
,  // measure 13
0100
0000
0010
0001
0010
0000
0000
0000
,  // measure 14
0100
0100
1000
1000
,  // measure 15
0001
0000
0010
0000
0100
1000
0100
0000
,  // measure 16
0010
0010
0001
0001
,  // measure 17
0100
0000
0010
0000
1000
0100
1000
0000
,  // measure 18
0001
0000
1000
0010
1000
0000
0001
0000
,  // measure 19
0100
0000
0001
0010
0001
0000
1000
0000
,  // measure 20
0100
0000
1000
0010
1000
0000
0001
0000
,  // measure 21
0010
0000
0100
1000
0100
0000
0010
0000
,  // measure 22
0001
0000
0100
0010
0100
0000
0010
0000
,  // measure 23
1000
0000
0001
0100
0001
0000
1000
0000
,  // measure 24
0100
0000
0010
0001
0010
0000
0100
0000
,  // measure 25
1000
1000
0001
0001
,  // measure 26
1000
0001
0000
0010
,  // measure 27
0000
0100
0000
1000
,  // measure 28
0000
0001
0000
0100
,  // measure 29
0000
0010
0000
0100
,  // measure 30
0100
0100
0000
0001
,  // measure 31
0000
0010
0000
0100
,  // measure 32
1000
0001
0000
1000
,  // measure 33
1001
0000
0110
0000
,  // measure 34
0001
0000
1000
0000
,  // measure 35
0001
0010
0100
0000
,  // measure 36
1000
0100
0001
0100
,  // measure 37
2000
0000
3000
0000
,  // measure 38
0001
0010
0001
0000
,  // measure 39
1000
0100
1000
0000
,  // measure 40
0001
0000
1000
0000
,  // measure 41
0001
1000
1001
0000
,  // measure 42
1000
0010
0100
0000
,  // measure 43
0001
0010
0100
0000
,  // measure 44
1000
0000
0001
0000
,  // measure 45
1001
0000
0000
0001
,  // measure 46
0001
0010
0100
1000
,  // measure 47
1000
0010
0100
0001
,  // measure 48
0001
0100
0010
1000
,  // measure 49
1000
0001
1000
0000
,  // measure 50
1001
0000
0000
0000
,  // measure 51
0010
0000
0100
0000
0010
0100
0010
0000
,  // measure 52
1000
0001
1000
0001
,  // measure 53
0010
0100
0010
0100
,  // measure 54
1000
0001
1000
0001
,  // measure 55
0200
0000
0300
0000
,  // measure 56
0001
0010
0100
1000
,  // measure 57
0001
0010
0100
1000
,  // measure 58
0002
0000
1003
0000
,  // measure 59
2000
0000
3001
0000
,  // measure 60
1000
0010
1000
0010
,  // measure 61
0100
0001
0100
0001
,  // measure 62
1000
0100
1000
0100
,  // measure 63
0020
0000
0030
0000
,  // measure 64
0001
0010
0100
1000
,  // measure 65
0001
0100
0010
1000
,  // measure 66
0002
0000
1003
0000
,  // measure 67
2000
0000
3001
0000
,  // measure 68
1000
0000
0001
0000
,  // measure 69
1000
0000
0001
0000
,  // measure 70
0010
0000
0100
0000
,  // measure 71
1000
0000
0001
0000
,  // measure 72
0100
0000
0010
0000
,  // measure 73
1000
0000
0100
0000
,  // measure 74
0010
0000
0001
0000
,  // measure 75
0010
0000
0100
0000
,  // measure 76
1000
0000
0001
0000
,  // measure 77
0100
0000
0010
0000
,  // measure 78
1000
0000
0001
0000
,  // measure 79
1000
0001
1000
0001
,  // measure 80
1000
0000
0010
0000
,  // measure 81
0100
0000
0001
0000
,  // measure 82
0010
0100
1000
0100
,  // measure 83
0010
0000
0001
0000
,  // measure 84
2002
0000
0000
0000
,  // measure 85
3003
0000
0000
0000
;

//---------------dance-single - ----------------
#NOTES:
     dance-single:
     :
     Beginner:
     4:
     0.183,0.253,0.017,0.052,0.000: // measure 1
0000
0000
0000
0000
,  // measure 2
0000
0000
0000
0000
,  // measure 3
0000
0000
0000
0000
,  // measure 4
0000
0000
0000
0000
,  // measure 5
0000
0000
0000
0000
,  // measure 6
1000
0000
0000
0000
,  // measure 7
1000
0000
0000
0000
,  // measure 8
1000
0000
0000
0000
,  // measure 9
0001
0000
0000
0000
,  // measure 10
0010
0000
0010
0000
,  // measure 11
0010
0010
0010
0000
,  // measure 12
0100
0000
0100
0000
,  // measure 13
0100
0100
0100
0000
,  // measure 14
1000
0000
1000
0000
,  // measure 15
1000
1000
1000
0000
,  // measure 16
0001
0000
0001
0000
,  // measure 17
0001
0001
0001
0000
,  // measure 18
0010
0000
0010
0000
,  // measure 19
0100
0000
0100
0000
,  // measure 20
1000
0000
1000
0000
,  // measure 21
0001
0000
0001
0000
,  // measure 22
2000
0000
3000
0000
,  // measure 23
0002
0000
0003
0000
,  // measure 24
0020
0000
0030
0000
,  // measure 25
0200
0000
0300
0000
,  // measure 26
1000
0000
0000
0000
,  // measure 27
0000
0000
0000
0000
,  // measure 28
0001
0000
0000
0000
,  // measure 29
0000
0000
0000
0000
,  // measure 30
0010
0000
0010
0000
,  // measure 31
0100
0000
0100
0000
,  // measure 32
1000
0000
0000
0000
,  // measure 33
0001
0000
0000
0000
,  // measure 34
1000
0000
1000
0000
,  // measure 35
0001
0000
0001
0000
,  // measure 36
0010
0010
0010
0000
,  // measure 37
0100
0000
0000
0000
,  // measure 38
1000
0000
1000
0000
,  // measure 39
0001
0000
0001
0000
,  // measure 40
1000
0000
0001
0000
,  // measure 41
1000
0000
0001
0000
,  // measure 42
0010
0000
0010
0000
,  // measure 43
0100
0000
0100
0000
,  // measure 44
1000
1000
1000
0000
,  // measure 45
0001
0000
0000
0000
,  // measure 46
1000
0000
1000
0000
,  // measure 47
0100
0000
0100
0000
,  // measure 48
0010
0000
0010
0000
,  // measure 49
0001
0000
0001
0000
,  // measure 50
1001
0000
0000
0000
,  // measure 51
2002
0000
3003
0000
,  // measure 52
1000
0000
0010
0000
,  // measure 53
1000
0000
0010
0000
,  // measure 54
0100
0000
0100
0000
,  // measure 55
0100
0000
0000
0000
,  // measure 56
0001
0000
0010
0000
,  // measure 57
0001
0000
0010
0000
,  // measure 58
0100
0000
0100
0000
,  // measure 59
0100
0000
0000
0000
,  // measure 60
1000
0000
0100
0000
,  // measure 61
1000
0000
0100
0000
,  // measure 62
0010
0000
0010
0000
,  // measure 63
0010
0000
0000
0000
,  // measure 64
0100
0000
1000
0000
,  // measure 65
0100
0000
1000
0000
,  // measure 66
0001
0000
0001
0000
,  // measure 67
0001
0000
0000
0000
,  // measure 68
0001
0000
0001
0001
,  // measure 69
0001
0000
1000
1000
,  // measure 70
1000
0000
0010
0010
,  // measure 71
0010
0000
0000
0000
,  // measure 72
0100
0000
0001
0000
,  // measure 73
0010
0000
0100
0000
,  // measure 74
1000
0000
0010
0000
,  // measure 75
0100
0000
0000
0000
,  // measure 76
0000
0001
0000
0001
,  // measure 77
0000
0001
0000
0001
,  // measure 78
0000
1000
0000
1000
,  // measure 79
0000
1000
0000
0000
,  // measure 80
1000
0000
1000
0000
,  // measure 81
0001
0000
0001
0000
,  // measure 82
0010
0000
0010
0000
,  // measure 83
0100
0000
0100
0000
,  // measure 84
1000
0000
0000
0000
;

//---------------dance-single - ----------------
#NOTES:
     dance-single:
     :
     Easy:
     6:
     0.252,0.289,0.044,0.078,0.000: // measure 1
0000
0000
0000
0000
,  // measure 2
0000
0000
0000
0000
,  // measure 3
0000
0000
0000
0000
,  // measure 4
0000
0000
0000
0000
,  // measure 5
0000
0000
0000
0000
,  // measure 6
1000
0000
1000
0000
,  // measure 7
0001
0000
0001
0000
,  // measure 8
1000
0000
0001
0000
,  // measure 9
1000
0001
1000
0000
,  // measure 10
0001
0001
1000
0000
,  // measure 11
1000
1000
0010
0000
,  // measure 12
0010
0010
0100
0000
,  // measure 13
0100
0000
0000
0100
,  // measure 14
0100
0000
0000
0010
,  // measure 15
0010
0000
0000
1000
,  // measure 16
1000
0000
0001
0000
,  // measure 17
1000
0010
0100
0001
,  // measure 18
0010
0010
0010
0000
,  // measure 19
0100
0100
0100
0000
,  // measure 20
1000
1000
1000
0000
,  // measure 21
0001
0000
1000
0001
,  // measure 22
1000
0010
0100
0000
,  // measure 23
0001
0010
0100
0000
,  // measure 24
1000
0000
0001
0000
,  // measure 25
1000
0001
1000
0000
,  // measure 26
0002
0000
0013
0000
,  // measure 27
0020
0000
0130
0000
,  // measure 28
0200
0000
1300
0000
,  // measure 29
2000
0000
3001
0000
,  // measure 30
0002
0000
0013
0000
,  // measure 31
0020
0000
0130
0000
,  // measure 32
0200
0000
1300
0000
,  // measure 33
0001
0000
1000
0000
,  // measure 34
0001
0000
0010
0000
,  // measure 35
0100
0000
1000
0000
,  // measure 36
1000
0001
1000
0001
,  // measure 37
1000
0000
0000
0000
,  // measure 38
0010
0000
0100
0000
,  // measure 39
0001
0000
0010
0000
,  // measure 40
0100
0000
1000
0000
,  // measure 41
0001
1000
1001
0000
,  // measure 42
0001
0000
0010
0000
,  // measure 43
0100
0000
1000
0000
,  // measure 44
0001
1000
0001
0000
,  // measure 45
1000
0000
0000
0000
,  // measure 46
0001
0000
0001
0000
,  // measure 47
0010
0000
0010
0000
,  // measure 48
0100
0000
0100
0000
,  // measure 49
1000
0001
1000
0000
,  // measure 50
1001
0000
0000
0000
,  // measure 51
2002
0000
3003
0000
,  // measure 52
1000
1000
0100
0000
,  // measure 53
0010
0010
0001
0000
,  // measure 54
0001
0001
0010
0000
,  // measure 55
0100
0000
1000
0000
,  // measure 56
0001
0010
0001
0000
,  // measure 57
1000
0100
1000
0000
,  // measure 58
0001
0000
0010
0000
,  // measure 59
0100
0000
1000
0000
,  // measure 60
0001
0100
0001
0000
,  // measure 61
1000
0100
1000
0000
,  // measure 62
0001
0010
0001
0000
,  // measure 63
1000
0000
0010
0000
,  // measure 64
0100
0000
0001
0000
,  // measure 65
0010
0000
0100
0000
,  // measure 66
1000
1000
1000
0000
,  // measure 67
0001
0000
0001
0000
,  // measure 68
0010
0010
0010
0000
,  // measure 69
1000
0000
0001
0000
,  // measure 70
0100
0100
0100
0000
,  // measure 71
0001
0000
1000
0000
,  // measure 72
0010
0010
0010
0000
,  // measure 73
0100
0000
0001
0000
,  // measure 74
0010
0010
0010
0000
,  // measure 75
0100
0000
1001
0000
,  // measure 76
0001
0001
0000
0001
,  // measure 77
0000
1000
0000
1000
,  // measure 78
0001
0001
0000
1000
,  // measure 79
0000
0001
0000
1000
,  // measure 80
1000
0000
0001
0000
,  // measure 81
0010
0000
0100
0000
,  // measure 82
1000
0100
1000
0100
,  // measure 83
1000
0000
0001
0000
,  // measure 84
1001
0000
0000
0000
;
