#TITLE:Dialga's Fight to the Finish! (remix);
#SUBTITLE:;
#ARTIST:Remixed by PokéRemixStudio;
#TITLETRANSLIT:;
#SUBTITLETRANSLIT:;
#ARTISTTRANSLIT:Remixed by PokeRemixStudio;
#GENRE:;
#CREDIT:;
#MENUCOLOR:;
#METERTYPE:DDR;
#BANNER:Dialga's Fight to the Finish! (remix).png;
#BACKGROUND:Dialga's Fight to the Finish! (remix)-bg.png;
#LYRICSPATH:;
#CDTITLE:cdtitle.png;
#MUSIC:Dialga's Fight to the Finish! (remix).mp3;
#OFFSET:-0.012;
#SAMPLESTART:59.251;
#SAMPLELENGTH:12.000;
#SELECTABLE:YES;
#LISTSORT:;
#BPMS:0.000=150.000;
#STOPS:;
#BGCHANGES:;
#ATTACKS:;

//---------------dance-single - ----------------
#NOTES:
     dance-single:
     :
     Hard:
     11:
     0.533,0.515,0.154,0.423,0.110: // measure 1
0000
0000
0000
0000
,  // measure 2
0000
0000
0000
0000
,  // measure 3
0000
0000
0000
0000
,  // measure 4
0000
0000
0000
0000
,  // measure 5
0000
0000
0000
0000
,  // measure 6
2000
0100
0100
0100
,  // measure 7
3020
0001
0001
0001
,  // measure 8
0230
0010
0010
0010
,  // measure 9
0302
1000
1000
1000
,  // measure 10
1003
0100
1000
0000
0001
0100
0001
0000
,  // measure 11
1000
0010
0100
0000
0001
0010
0100
0000
,  // measure 12
1000
0001
1000
0000
0001
0010
0100
0000
,  // measure 13
1000
0010
0100
0001
0010
0100
0100
0000
,  // measure 14
2000
3100
0002
0103
,  // measure 15
1000
0020
1000
0030
0001
0200
0001
0300
,  // measure 16
0020
2030
3002
0203
,  // measure 17
0310
0000
0000
1001
0000
0000
1000
0000
,  // measure 18
0120
0230
0302
0023
,  // measure 19
0230
2300
3002
0103
,  // measure 20
0020
1000
1030
0000
0200
0001
0301
0000
,  // measure 21
0001
0010
0100
0010
0100
1000
0001
0000
,  // measure 22
1000
0000
0001
0000
0010
0000
0000
0000
0001
0000
1000
0100
1000
0000
0000
0000
,  // measure 23
0001
0000
0010
0000
1000
0000
0000
0000
0001
0000
0100
1000
0100
0000
0000
0000
,  // measure 24
1000
0000
0010
0000
0100
0000
0000
0000
0010
0000
1000
0001
1000
0000
0000
0000
,  // measure 25
0010
0100
0001
0010
0100
1000
1001
0000
,  // measure 26
0001
0000
0100
0000
0001
0000
0000
0000
0010
0000
0100
1000
0100
0000
0000
0000
,  // measure 27
0010
0000
0100
0000
0001
0000
0000
0000
1000
0000
0001
0100
0001
0000
0000
0000
,  // measure 28
1000
0010
0100
0000
0001
0010
0100
0000
,  // measure 29
1000
0100
0001
0100
1000
0010
0100
0000
,  // measure 30
0001
0001
1000
0010
0100
0100
0001
0010
,  // measure 31
0100
0100
1000
0010
1000
1000
0001
0000
,  // measure 32
0010
0010
0100
1000
0010
0010
0100
0001
,  // measure 33
1000
1000
0010
0100
0001
1000
1001
0000
,  // measure 34
1000
0010
1000
0000
0001
0100
0001
0000
,  // measure 35
1000
0100
0001
0000
1000
0010
0001
0000
,  // measure 36
2000
3020
0230
0302
,  // measure 37
2003
0000
0002
3003
,  // measure 38
1000
0000
0001
0000
0010
0000
0001
1000
0001
0000
0000
1000
0000
0000
0010
0000
,  // measure 39
0100
0000
0001
0000
0010
0000
0100
1000
0100
0000
0000
1000
0000
0000
0010
0000
,  // measure 40
0100
0001
0100
0000
0010
1000
0010
0000
,  // measure 41
2000
0001
0001
3001
,  // measure 42
1000
0000
0010
0000
0100
0000
0001
0010
0001
0000
0000
1000
0000
0000
0010
0000
,  // measure 43
0100
0000
0001
0000
0010
0000
0100
1000
0100
0000
0000
0010
0000
0000
0001
0000
,  // measure 44
2000
0000
0000
0010
3020
0000
0000
0100
,  // measure 45
0230
0000
0020
0330
,  // measure 46
1000
0000
0001
0000
0010
0000
0001
0100
0001
0000
0000
0000
1001
0000
0000
0000
,  // measure 47
0001
0000
0100
0000
0010
0000
1000
0100
1000
0000
0000
0000
1001
0000
0000
0000
,  // measure 48
1000
0010
0100
0000
0001
0010
0100
0000
,  // measure 49
1000
0101
0001
1100
,  // measure 50
1000
0000
0000
0010
0000
0000
0100
0000
0100
0000
0000
0000
1001
0000
0000
0000
,  // measure 51
0001
0000
0000
0010
0000
0000
0100
0000
0100
0000
0000
0000
1001
0000
0000
0000
,  // measure 52
1000
0001
0200
0010
0310
0000
1000
0100
,  // measure 53
0001
0101
0010
1010
,  // measure 54
0002
0010
1000
0100
,  // measure 55
0023
1000
0100
0001
,  // measure 56
0230
1000
0010
0001
,  // measure 57
2300
0001
0010
3100
,  // measure 58
2000
0000
0000
0001
0000
0000
3001
0000
1001
0000
0000
0000
0110
0000
0000
0000
,  // measure 59
0002
0000
0000
1000
0000
0000
1003
0000
1001
0000
0000
0000
0110
0000
0000
0000
,  // measure 60
1000
0010
0100
0000
0001
0010
0100
0000
,  // measure 61
2000
3020
0230
0302
,  // measure 62
1003
0010
0100
0001
0010
0100
1000
0001
,  // measure 63
0010
0001
0010
0001
1000
0100
1000
0100
0020
0000
0000
0000
0000
0000
0000
0000
,  // measure 64
0030
0000
0000
0000
;

//---------------dance-single - ----------------
#NOTES:
     dance-single:
     :
     Medium:
     8:
     0.394,0.450,0.144,0.336,0.000:
0000
0000
0000
0000
,
0000
0000
0000
0000
,
0000
0000
0000
0000
,
0000
0000
0000
0000
,
0000
0000
0000
0000
,
1000
0001
0000
0010
,
0000
0100
0000
1000
,
0000
0010
0000
0100
,
0000
0001
0000
1000
,
0002
0013
0100
1000
,
2000
3100
0010
0001
,
0001
1000
0001
1000
,
0002
0023
0230
1300
,
1002
0013
0100
1000
,
2001
3010
0100
0001
,
1000
0010
1000
0001
,
0010
0100
1000
0001
,
1000
0010
1000
0000
0001
0100
0001
0000
,
2000
3001
0002
1003
,
2002
0000
0000
0000
,
0000
0000
0000
3003
,
1000
0000
0010
0000
0100
0001
0100
0000
,
0010
0000
1000
0000
0001
0100
0001
0000
,
0010
0000
0100
0000
1000
0001
1000
0000
,
0010
0000
0100
0000
0001
1000
0001
0000
,
0010
0000
0100
1000
0001
0100
0001
0000
,
1000
0000
0010
0100
0001
0010
0001
0000
,
1000
0100
1000
0000
0001
0010
0001
0000
,
2000
3020
0230
0302
,
1003
0000
0001
0000
1000
0010
0100
0000
,
0001
0000
1000
0000
0001
0100
0010
0000
,
1000
0001
0010
0100
,
1000
0000
0001
0000
0100
0100
0100
0000
,
0010
1000
0001
0100
,
0001
0010
0100
1000
,
0002
0000
0023
0000
,
0230
0000
2300
0000
,
3001
0010
0100
0000
0010
0000
0101
0000
,
1000
0100
0010
0000
0100
0000
1010
0000
,
1000
0010
0100
0000
0001
0100
0010
0000
,
1000
0100
0010
0001
0010
0100
1000
0000
,
0001
1000
0001
0000
1000
0000
0101
0000
,
1000
0001
1000
0000
0001
0000
1010
0000
,
2000
0100
3200
0010
,
0320
0000
0002
0033
,
1000
0000
0101
0000
1000
0001
0100
0000
,
0001
0000
1100
0000
0001
1000
0100
0000
,
1000
0001
0100
0000
0001
1000
0100
0000
,
2000
3020
0230
0302
,
1003
0000
0001
1000
0001
0000
1001
0000
,
0001
0000
1000
0001
1000
0000
1001
0000
,
0001
1000
0010
1000
,
0100
0100
0010
0010
,
0200
1000
0000
1300
,
0002
0100
0000
0103
,
0020
0001
0000
0031
,
2000
0010
0000
3010
,
0001
0000
0010
0100
1000
0000
1001
0000
,
1000
0000
0100
0010
0001
0000
1001
0000
,
1000
0001
0010
0100
,
2000
3001
0002
1003
,
2002
0000
0000
3003
,
1000
0000
0001
1000
1001
0000
0000
0000
;

//---------------dance-single - ----------------
#NOTES:
     dance-single:
     :
     Beginner:
     2:
     0.135,0.179,0.010,0.125,0.000:
0000
0000
0000
0000
,
0000
0000
0000
0000
,
0000
0000
0000
0000
,
0000
0000
0000
0000
,
0000
0000
0000
0000
,
1000
0000
0000
0000
,
0001
0000
0000
0000
,
1000
0000
0000
0000
,
0001
0000
0000
0000
,
0010
0000
0000
0000
,
0100
0000
0000
0000
,
0010
0000
0000
0000
,
0100
0000
0000
0000
,
0001
0000
0000
0000
,
1000
0000
0000
0000
,
0001
0000
0000
0000
,
1000
0000
0000
0000
,
0100
0000
0000
0000
,
0010
0000
0000
0000
,
0200
0000
0000
0300
,
0000
0000
0000
0000
,
1000
0000
1000
0000
,
1000
0000
0000
0000
,
0001
0000
0001
0000
,
0001
0000
0000
0000
,
0010
0000
0010
0000
,
0010
0000
0000
0000
,
0100
0000
0100
0000
,
0100
0000
0000
0000
,
1000
0000
0001
0000
,
1000
0000
0001
0000
,
1000
0000
0001
0000
,
2000
0000
3000
0000
,
0001
0000
1000
0000
,
0001
0000
1000
0000
,
0001
0000
1000
0000
,
0002
0000
0003
0000
,
1000
0000
0010
0000
,
0100
0000
0001
0000
,
0010
0000
0100
0000
,
2000
0000
3000
0000
,
0001
0000
0010
0000
,
0100
0000
1000
0000
,
0001
0000
0010
0000
,
0200
0000
0300
0000
,
0010
0000
0001
0000
,
0100
0000
0010
0000
,
1000
0000
0100
0000
,
2000
0000
3000
0000
,
0002
0000
0003
0000
,
2000
0000
3000
0000
,
0010
0000
0010
0000
,
0020
0000
0030
0000
,
1000
0000
0001
0000
,
1000
0000
0001
0000
,
0100
0000
0010
0000
,
0200
0000
0300
0000
,
0001
0001
0001
0000
,
1000
1000
1000
0000
,
0010
0000
0100
0000
,
0020
0000
0030
0000
,
2002
0000
0000
0000
,
3003
0000
0000
0000
;

//---------------dance-single - ----------------
#NOTES:
     dance-single:
     :
     Easy:
     5:
     0.269,0.298,0.106,0.394,0.000:
0000
0000
0000
0000
,
0000
0000
0000
0000
,
0000
0000
0000
0000
,
0000
0000
0000
0000
,
0000
0000
0000
0000
,
2000
0000
0000
3000
,
0020
0000
0000
0030
,
0200
0000
0000
0300
,
0002
0000
0000
0003
,
2000
0001
0000
3001
,
0200
0010
0000
0310
,
2000
0100
0000
3100
,
0020
0001
0000
0031
,
1000
0001
1000
0010
,
0100
0001
0100
0010
,
1000
0010
0100
0001
,
1000
0100
0010
0001
,
2000
0000
0002
3000
,
0020
0003
0130
0000
,
2002
0000
0000
0000
,
0000
0000
3003
0000
,
1000
0010
0100
0001
,
0010
0100
1000
0001
,
0100
0001
1000
0100
,
0001
0100
1000
0000
,
0010
0010
0100
0100
,
0001
0001
0010
0100
,
1000
0010
0100
0001
,
0010
0100
1000
0001
,
0200
0000
0310
0010
,
2000
0000
3001
0001
,
0020
0000
0130
0100
,
2000
0000
3010
0010
,
0100
0001
0100
0001
,
1000
0010
1000
0010
,
2000
3000
0200
0300
,
0020
0030
0002
0003
,
1000
0001
1000
0000
,
0100
0010
0100
0000
,
1000
0000
0001
0000
,
2002
0000
3003
0000
,
0001
1000
0100
0000
,
1000
0001
0100
0000
,
0100
0000
0010
0000
,
0220
0000
0330
0000
,
2000
0001
3000
0001
,
0020
0100
0030
0100
,
2000
0010
3000
0010
,
0200
0001
0300
0001
,
1000
0020
1030
0000
,
0001
0200
0301
0000
,
1001
0000
0110
0000
,
2002
0000
3003
0000
,
2000
0000
0000
3000
,
0020
0000
0000
0030
,
0200
0000
0000
0300
,
0002
0000
0000
0003
,
1000
0000
0001
0000
,
1000
0000
0001
0000
,
1010
0000
0101
0000
,
0220
0000
0330
0000
,
2002
0000
3003
0000
,
0110
0000
0000
0000
;
