#TITLE:Claiomh Solais;
#SUBTITLE:;
#ARTIST:DJ YOSHITAKA VS S.S.D.;
#TITLETRANSLIT:;
#SUBTITLETRANSLIT:;
#ARTISTTRANSLIT:;
#CREDIT:;
#BANNER:Claiomh Solais.png;
#BACKGROUND:Claiomh Solais-bg.png;
#LYRICSPATH:;
#CDTITLE:cdtitle.png;
#MUSIC:Claiomh Solais.mp3;
#OFFSET:1.067;
#SAMPLESTART:50.940;
#SAMPLELENGTH:12.000;
#SELECTABLE:YES;
#DISPLAYBPM:82.500:165.000;
#BPMS:0.000=82.500,23.500=165.000,85.000=82.500,101.000=110.000,122.333=55.000,133.000=82.500,147.000=41.250,148.000=165.000,208.500=82.500,214.000=41.250;
#STOPS:22.000=0.182
,22.500=0.182
,83.500=0.364
,84.000=0.364
,84.500=0.182
,204.500=0.364
,207.000=0.364
,207.500=0.364
,208.000=0.182
;
#BGCHANGES:;

//---------------dance-single - ----------------
#NOTES:
     dance-single:
     :
     Hard:
     14:
     0.704,0.776,0.634,0.279,0.516:
0000
0000
0000
0000
0000
0000
0000
0000
0000
0000
0000
0000
0000
0000
0100
0010
,
1000
0000
0100
0010
0001
0000
1000
0001
0100
0000
0010
1000
0100
0000
0010
0001
,
0100
0000
0010
0100
0010
0000
1000
0100
0001
0000
0100
1000
0010
0000
0100
0001
,
0100
0000
0010
1000
0010
0000
0100
0001
0010
0000
0100
1000
0010
0000
0100
0010
,
0200
0010
0001
0010
0302
0100
1000
0100
,
1003
0001
0100
0010
1100
0110
0011
1001
,
1000
0001
0000
0110
0100
0010
0000
0101
,
0100
0001
0010
0100
1000
0010
0000
1100
,
0100
0010
0000
0101
0100
0010
0000
1001
,
0100
0010
0100
2000
3001
0200
0300
1000
,
0100
0011
0000
0010
0001
1100
0000
0001
,
1000
0100
0010
0001
0100
1010
0000
1100
,
0100
0110
0000
0011
0010
1010
0000
1010
,
0010
0110
0100
0102
0103
2000
3000
1100
,
0100
0010
0001
0010
0100
1000
0100
1010
,
0100
0001
0010
0100
1000
0100
1000
0110
,
0001
1000
0100
0010
0100
0001
0100
0011
,
0100
1000
0001
0100
0010
0100
0001
0110
,
0010
1000
0100
0010
0001
0100
1000
1100
,
1000
0100
0001
0010
0100
1000
0100
0110
,
0220
0000
0330
0001
1000
0001
1000
1001
,
0101
0110
2010
3100
0010
0001
0100
0010
,
0100
0010
2100
3010
0100
0001
0010
1000
,
0010
0001
0120
1030
0010
0001
1000
0100
,
0001
0000
0100
0000
1000
0000
0200
0000
0320
0000
0032
0003
0001
0101
0000
1010
,
0000
0000
0000
0110
0000
0000
0000
0000
0000
0011
0000
0000
1000
0000
0000
0000
0000
0000
0000
0000
0010
0000
0000
0000
0100
0000
0000
0000
1000
0000
0000
0000
0000
0000
0000
0000
0100
0000
0000
0000
0010
0000
0000
0000
0100
0000
0000
0000
,
0000
0001
0010
0100
0000
0100
1000
0010
0000
1000
0001
0100
,
0000
0010
1000
0100
0000
0010
0001
1000
0000
0001
1000
0010
,
0000
0100
0001
0010
0000
1000
0010
0001
0000
1000
0100
0001
,
0000
0100
1000
0001
0000
0100
0000
1100
0000
0010
0000
0011
,
0000
0000
1001
0000
0000
0000
0220
0000
0000
0000
0330
0000
0000
0000
0101
0000
0001
0000
0100
0000
0000
0001
0000
1000
,
0001
0000
1001
0000
0100
0000
0110
0000
1000
0000
0100
0000
0010
0001
0000
0001
0100
0000
0101
0000
1010
0000
1100
0000
,
0100
0000
0000
0000
0010
0000
0000
0000
0000
0000
0010
0100
1000
0000
0000
0000
0010
0000
0000
0000
0101
0000
0000
0000
0100
0000
0000
0000
0110
0000
0100
0000
0010
0000
0000
0000
1010
0000
0000
0000
1000
0000
0000
0000
0101
0000
0000
0000
,
0000
0000
0000
0000
2020
0000
0000
0000
3030
0000
0000
0000
0100
0000
0000
0001
0000
0000
0100
0000
0000
1000
0000
0000
0100
0000
0000
0010
0000
0000
1000
0000
0000
0100
0000
0000
0000
0000
0000
0001
0000
0000
0100
0000
0000
1000
0000
0000
,
0010
0100
0001
0100
0110
0010
1000
0000
0101
0001
0010
0000
0110
0010
0100
0100
,
0020
0000
0000
0000
0031
0000
0100
0010
1000
0000
0000
0000
0100
0000
0010
0000
0001
0000
0010
0000
0100
0000
1000
0000
0100
0000
0000
0000
0010
0000
0100
0000
,
1000
0000
0000
0000
0010
0000
0000
0000
0100
0000
0000
0000
1000
0000
0000
0000
0100
0000
0000
0000
0000
0000
0000
0000
0001
0000
0000
0000
0010
0000
0000
0000
0100
0000
0000
0000
1000
0000
0000
0000
0100
0000
0000
0000
0010
0000
0000
0000
0001
0000
0000
0000
0000
0000
0001
1000
0001
0000
0000
0000
0001
0000
0000
0000
,
1001
1000
0100
0000
0101
0001
0100
0000
,
0110
0100
0001
0100
1000
0100
0001
0000
,
0011
0010
0100
0000
0110
0100
1000
0000
,
1100
1000
0100
0001
0100
1000
0010
0000
,
0101
0010
1000
0000
0110
0001
0100
0000
,
1010
0100
0010
0001
1000
0001
0100
0000
,
1100
0010
0100
0000
0011
0100
0010
0000
,
0110
1000
0001
0100
0020
0130
0002
0003
,
0011
0000
0001
0010
0001
0000
0100
0000
0010
0000
0100
0001
0100
0000
0010
0000
,
1000
0000
0100
0001
0100
0000
1000
0000
0010
0000
0100
0010
0100
0000
0001
0000
,
0100
0000
0100
0001
0010
0000
0100
0000
1000
0000
0100
1000
0010
0000
0100
0000
,
0001
0000
0010
0100
1000
0000
0001
0000
0100
0001
1000
0100
0010
0001
1000
0100
,
1000
0000
1000
0001
0100
0000
0010
1000
0100
0000
0010
0001
0100
0000
0010
0100
,
1000
0000
0100
0001
0010
0000
0100
0010
0001
0000
1000
0001
0100
0000
0001
1000
,
1001
0000
0220
0330
0100
0000
0010
0000
1000
0000
0100
0000
0022
0033
2200
3300
,
0202
0303
2020
3030
0100
0010
1000
0100
0010
0001
0000
0001
0010
0100
0010
0100
,
1000
0100
0000
0100
1000
0010
0100
0001
1000
2002
0000
0000
0000
0000
0000
0000
,
3003
0000
0000
0000
;

//---------------dance-single - ----------------
#NOTES:
     dance-single:
     :
     Challenge:
     15:
     0.918,1.000,0.626,0.507,1.000:
0000
0000
0000
0000
0000
0000
0000
0000
0000
0000
0000
0000
0000
0000
1000
0100
,
0001
0000
0000
0000
0010
0000
0100
0000
0001
0000
0000
0000
0100
0000
0010
0000
1000
0000
0000
0001
0100
0000
0010
0000
0001
0000
0000
0000
0100
0000
0010
0000
,
1000
0000
0000
0000
0100
0000
0010
0000
0001
0000
0000
0000
0001
0000
0100
0000
0010
0000
0000
1000
0100
0000
0010
0000
0001
0000
0000
0000
0100
0000
0010
0000
,
0001
0000
0000
0000
1000
0000
0100
0000
0001
0000
0000
0000
0010
0000
0001
0000
0100
0000
0000
1000
0100
0000
0001
0000
0010
0000
0000
0001
1000
0000
0200
0000
,
0320
0100
0230
1000
2300
0001
3002
0100
0203
0001
0302
0010
0023
0100
0230
1000
,
2300
0000
0001
0000
3002
0000
0100
0000
0203
0000
0010
0000
0320
0000
0100
0030
0220
0000
0330
0000
0202
0000
0303
0000
2020
0000
3030
0000
0110
0000
0000
0000
,
0001
0000
1000
0000
0100
0010
0100
0000
1000
0000
0001
0000
0100
0010
0100
0000
,
0001
0000
0010
0000
0100
1000
0100
0000
0010
0000
0001
0000
0100
0001
0100
0000
,
0010
0000
1000
0000
0100
1000
0100
0000
0010
0000
0100
0000
0001
1000
0001
0000
,
0100
0000
1000
0000
0001
0100
0102
0000
0103
0000
2010
0000
3010
0000
0110
0000
,
0001
0000
1000
0000
0001
0010
0100
0000
1000
0000
0010
0000
0100
0010
1000
0000
,
0001
0000
0010
0000
0100
1000
0010
0000
0100
0000
0001
0000
0010
0100
1000
0000
,
0001
0000
1000
0000
0010
1000
0100
0000
0010
0000
0001
0000
0001
0010
1000
0000
,
1000
0010
0001
0000
0001
0100
1000
0100
0001
0100
0010
1000
0100
0010
0001
0000
,
1000
0000
0001
0000
0001
0010
0100
0000
1000
0000
0100
0000
0010
0100
1000
0000
,
0010
0000
0100
0000
0001
0010
1000
0000
0001
0000
0100
0000
1000
0001
0100
0000
,
0010
0000
1000
0000
0100
1000
0010
0000
0100
0000
0001
0000
0010
0001
0100
0000
,
0001
0000
1000
0000
0010
0100
1000
0000
0100
0000
0001
0000
0010
0001
1000
0000
,
0100
0000
0100
0000
0001
0100
1000
0000
0100
0000
0100
0000
0010
0100
1000
0000
,
0100
0000
0100
0000
0010
0001
0100
0000
0001
0000
0001
0000
1000
0010
0100
0000
,
0120
0000
0100
0000
1000
0000
1000
0000
0001
0000
0001
0000
0130
0000
2200
3300
,
0220
0000
0000
0000
0330
0000
0000
0000
0020
0200
0000
0000
0330
0000
0000
0000
1001
0000
0000
0000
0000
0000
0000
0000
0010
0000
0000
0000
0100
0000
0000
0000
1010
0000
0000
0000
0000
0000
0000
0000
0100
0000
0000
0000
0010
0000
0000
0000
0011
0000
0000
0000
0000
0000
0010
0000
0001
0000
0000
0000
1000
0000
0000
0000
,
0110
0000
0000
0000
0100
0000
1000
0000
0011
0000
0000
0000
0010
0000
0100
0000
1001
0000
0000
0000
0010
0000
1000
0000
0110
0000
0000
1000
0100
0000
0001
0000
,
0110
0000
0000
0000
1100
0000
0100
0000
0010
0000
0000
0000
0011
0000
1000
0000
0100
0000
0000
0000
0110
0000
0001
0000
0100
0000
0000
0100
0010
0000
0010
0000
,
1000
0000
0000
0100
0010
0000
0001
0000
0100
0000
0000
0000
0110
0000
1000
0000
0020
0000
0001
0000
2030
0000
0100
0000
3001
0000
0011
0000
0000
0000
1100
0000
,
0000
0000
0000
0110
0000
0000
0100
0000
0000
0001
0000
0000
0101
0000
0000
0000
0000
0000
0000
0000
0010
0000
0000
0000
0110
0000
0000
0000
0100
0000
0000
0000
0000
0000
0000
0000
0100
0000
0000
0000
1100
0000
0000
0000
1000
0000
0000
0000
,
0000
0001
0010
0000
0011
0000
0001
0000
0000
0000
1000
0000
1010
0000
0010
0000
0000
0000
0010
0000
0101
0000
0010
0000
,
0000
0000
0100
0000
1010
0000
0100
0000
0000
1000
0001
0000
0100
0000
0110
0000
0000
0000
1001
0000
0100
0000
2002
0000
,
3003
0110
0001
0220
0330
1000
0100
0022
0033
0100
0001
2200
,
3300
0100
0010
2020
3030
0110
0000
0022
0033
1100
0000
0220
,
0330
0000
2002
0000
3003
0000
0220
0000
0300
0000
0001
0000
0030
0000
0110
0000
0100
0000
0001
0000
0001
0010
0100
1000
,
1100
0000
1010
0000
0110
0000
0011
0000
0010
0000
1000
0000
0100
0010
0001
0100
0010
0001
0010
0000
1000
0100
0010
0000
,
0010
0000
0100
0000
0001
0000
0000
0000
0100
0000
1000
0100
0010
0000
0000
0000
0001
0000
0010
0000
0001
0000
0000
0000
0010
0000
0001
0000
0100
0000
0010
0000
0001
0000
0010
0000
0100
0000
1000
0000
0100
0000
0010
0000
0110
0000
0000
0000
,
0010
0000
1000
0100
1000
0000
0000
0000
0100
0000
0000
0000
1001
0000
0000
0100
0000
0000
0010
0000
0000
0001
0000
0000
0010
0000
0000
0100
0000
0000
1000
0000
0000
0100
0000
0000
0110
0000
0000
0010
0000
0000
0001
0000
0000
0100
0000
0000
,
1000
0000
0100
0000
0001
0000
0010
0000
0110
0000
0100
0000
1000
0000
0000
0000
1100
0000
0010
0000
0001
0000
0000
0000
0100
0000
0001
0000
0100
0000
1000
0100
,
0001
0100
0010
1000
0100
1000
0100
0010
0001
0100
1000
0100
0001
0010
0100
0010
,
0001
0000
0000
0000
1000
0000
0000
0000
0100
0000
0000
0000
0001
0000
0000
0000
1000
0000
0000
0000
0010
0000
0000
0000
0001
0000
0000
0000
0010
0000
0000
0000
1000
0000
0000
0000
0001
0000
0000
0000
1000
0000
0000
0000
0010
0000
0000
0000
0001
0000
0000
0000
0000
0000
1000
0100
0011
0000
0000
0000
1100
0000
0000
0000
,
0100
0000
0001
0000
0100
0000
0100
1000
0010
0000
0010
0000
1000
0000
0100
0010
,
0001
0000
0010
0000
0100
0000
0010
0001
0100
0000
0010
1000
0100
0000
0001
0000
,
0100
0000
1000
0000
0010
0000
0100
0010
0001
0000
1000
0000
0100
0000
0010
1000
,
0100
0000
0010
0000
0001
0000
0100
0010
1000
0100
0010
0001
0010
0000
0100
1000
,
0100
0000
0010
0000
0001
0000
0001
0100
1000
0000
0001
0000
0010
0000
1000
0100
,
0010
0000
0001
0000
0010
0000
0100
1000
0010
0000
1000
0001
0100
0000
0010
0000
,
0001
0000
1000
0000
0100
0000
0001
0010
0100
0000
1000
0000
0001
0000
0010
0100
,
1000
0000
0100
0010
0001
0000
0100
0010
0120
0000
0130
0000
2001
0000
3001
0000
,
1000
0000
0010
1000
0010
0000
0100
0001
0100
0000
0001
0010
0100
0000
0010
0100
,
1000
0000
1000
0001
0100
0000
0010
1000
0100
0000
0010
0001
0010
0000
0100
1000
,
0100
0000
0010
0001
0100
0000
1000
0100
0001
0000
0010
1000
0010
0000
0100
1000
,
0010
0000
0100
0001
0010
0000
0001
1000
0100
0010
0001
0010
0100
1000
0100
0001
,
0100
0000
1100
0000
1100
0000
0001
0100
0010
0000
0110
0000
0110
0000
1000
0100
,
0010
0000
0101
0000
0101
0000
0001
0010
1000
0000
1100
0000
1100
0000
0001
0100
,
0101
0000
0202
0303
1000
0100
1000
0100
0010
0001
0010
0001
0202
0303
2200
3300
,
0022
0000
0033
0000
1100
0000
1000
0000
0100
0000
0010
0000
0001
0010
0001
0000
1000
0100
1000
0000
0100
0000
0010
0000
0001
0000
0010
0000
0100
1000
0010
0000
,
0100
0000
0001
0000
0010
0000
0000
0000
0100
0000
0000
0000
1000
0000
0000
0000
0010
0000
0000
0000
0100
0000
0000
0000
0001
0000
0000
0000
0010
0000
0000
0000
0100
0000
0000
0000
2000
0002
0000
0000
0000
0000
0000
0000
0000
0000
0000
0000
0000
0000
0000
0000
0000
0000
0000
0000
0000
0000
0000
0000
0000
0000
0000
0000
,
3003
0000
0000
0000
;

//---------------dance-single - ----------------
#NOTES:
     dance-single:
     :
     Medium:
     12:
     0.562,0.634,0.110,0.161,0.376:
0000
0000
0000
0000
0000
0000
0000
0000
0000
0000
0000
0000
0000
0000
0001
1000
,
0001
0000
1000
0010
1000
0000
0001
0100
0001
0000
2000
0000
3010
0000
0001
0100
,
0001
0000
0100
0010
0100
0000
0010
1000
0010
0000
2000
0000
3001
0000
1000
0100
,
0010
0000
1000
0100
0010
0000
0001
0010
0100
0000
0001
0010
0100
0000
1000
0001
,
1000
0001
1000
0010
1000
0001
1000
0010
,
0100
0001
0010
0100
1000
0001
1000
0001
,
1000
0001
1000
0010
0100
1000
0000
0100
,
0001
0010
0100
1000
0100
0010
0000
0001
,
0100
0001
0100
0001
0010
0100
1000
0001
,
0010
0100
1000
0200
0000
0001
0300
1000
,
0010
0100
0000
0001
0010
0100
0000
1000
,
0010
1000
0000
0001
0100
0010
0000
1000
,
0001
0010
0100
0010
0001
1000
0010
0100
,
0001
0010
0100
2000
0000
0002
3000
1003
,
0010
1000
0010
0100
0001
0010
0000
1000
,
0010
1000
0010
0100
0001
0010
0000
0010
,
0001
0100
0000
0100
0001
1000
0000
1000
,
0010
0100
0001
0010
0100
0010
0000
0001
,
1000
0001
1000
0010
1000
0010
1000
0001
,
0100
0001
0100
0010
0100
0010
0100
0001
,
2002
0000
0000
0000
0000
3003
0000
1000
,
0010
0000
0100
0000
1001
0000
0010
1000
0010
0000
0100
0001
0100
0000
0020
0000
,
1030
0000
0100
0001
0010
0000
0100
1000
0010
0000
0010
1000
0100
0000
0020
0000
,
0031
0000
1000
0100
1000
0000
1000
0010
1000
0000
0001
0100
0001
0000
0001
0010
,
0001
0000
1000
0010
0200
0000
0302
0000
0023
0000
0230
0000
2300
0000
0000
0000
,
0001
0000
0000
0001
0000
0000
3001
0000
0000
0000
1000
0000
0010
0000
1000
0000
0000
0000
0001
0000
1000
0000
0001
0000
,
0000
0100
0001
0100
0000
0010
1000
0100
0000
0010
0001
0100
,
0000
0100
0001
0010
0000
0100
1000
0010
0000
0100
0000
1001
,
0000
0001
0000
1100
0000
1000
0000
1010
0000
0010
0000
0101
,
0000
0001
0000
1100
0000
1000
0000
0101
0000
0100
0000
0011
,
0000
0000
0001
0000
0000
0000
2002
0000
0000
3003
0000
0000
0000
0000
1000
0000
0001
0000
1000
0000
0010
0100
0010
0000
,
1000
0000
0100
0000
0010
0000
0001
0000
0010
0000
0100
0000
1000
0000
0010
0100
0001
0000
1001
0000
0000
0000
0010
0000
,
0010
0000
1000
0000
1000
0000
0001
0000
0001
0000
0100
0000
0100
0000
0010
1000
0010
0000
0100
0001
0100
0000
0010
0000
,
1000
0000
0000
0000
1001
0000
0000
0000
0000
0000
0000
0000
0100
0000
0000
0001
0000
0000
0100
0000
0000
0000
0000
0000
0010
0000
0000
1000
0000
0000
0010
0000
0000
0000
0000
0000
0100
0000
0000
0001
0000
0000
0010
0000
0000
0100
0000
0000
,
1000
0100
0010
0000
1000
0010
1000
0000
0001
0100
0001
0000
1000
0010
1000
0010
,
0100
0001
0010
0000
0001
0000
0001
0000
1000
0000
1000
0000
0010
0000
0010
0000
,
0100
0000
0100
0000
0010
1000
0100
0001
0100
1000
0010
0100
0002
0000
1000
0000
,
0103
0010
1000
0000
0100
0010
1000
0000
,
0100
0010
1000
0100
0010
0001
0010
0000
,
0010
0001
0100
0000
0010
0001
0100
0000
,
0001
0100
1000
0100
0001
0100
1000
0000
,
0100
0001
1000
0000
0100
0001
1000
0000
,
0100
1000
0001
0000
0100
1000
0001
0000
,
1000
0010
1000
0010
0100
0001
0100
0000
,
0001
0100
0001
0100
0020
0000
1030
0000
,
0001
0001
1000
1000
0010
0100
0001
0000
,
1000
1000
0010
0010
0100
0001
0010
0000
,
0001
0001
1000
1000
0010
0100
0001
0000
,
0100
0010
1000
0100
0010
0001
1000
0000
,
0001
1000
0001
0001
1000
0001
1000
1000
,
0010
0100
0010
0010
0100
0010
0100
0100
,
0001
2000
0001
0000
0001
0000
0001
0010
,
3100
0000
0001
0100
0001
0000
1000
0100
1000
0000
0010
0100
0010
0100
0001
0010
,
0100
0000
1000
0100
1000
0100
0010
0001
0100
1001
0000
0000
0000
0000
0000
0000
;

//---------------dance-single - ----------------
#NOTES:
     dance-single:
     :
     Easy:
     9:
     0.379,0.453,0.059,0.220,0.178:
0000
0000
0000
0000
0000
0000
0000
0001
,
0001
1000
1000
0001
0001
0020
0130
0001
,
0001
1000
1000
0010
0010
2000
3100
0001
,
0001
1000
1000
0010
0010
0200
0301
0020
,
1030
0100
2000
0000
3010
0100
0020
0000
,
0130
0001
0200
0000
0301
0001
0001
0001
,
0000
1000
0000
0001
0000
0001
0000
1000
,
0000
0010
0000
0100
0000
0001
0000
1000
,
0000
0010
0000
1000
0000
0010
0000
0100
,
0000
0001
0000
0002
0000
0103
0000
0010
,
0000
1000
0000
0100
0000
0010
0000
0100
,
0000
1000
0000
0010
0000
0100
0000
0010
,
0000
0100
0000
0001
0000
0010
0000
0100
,
0000
1000
0000
0002
0000
1003
0000
0002
,
0000
1000
0000
0103
0000
0000
0000
2000
,
0000
0010
0000
3100
0000
0000
0000
0020
,
0000
1000
0000
0130
0000
0000
0000
0200
,
0000
0001
0000
0310
0000
0000
0000
1000
,
0000
0001
0000
2000
0000
0001
0000
3001
,
0000
1000
0000
0002
0000
1000
0000
0203
,
0000
0000
0000
0000
0000
0000
0000
0301
,
0001
0001
1000
0001
0001
1000
0001
1000
,
1001
0000
0010
0100
0100
0010
0100
0010
,
0110
0000
1000
0010
0100
0001
1000
0100
,
0010
0001
0010
0100
1000
0010
0120
0000
,
0000
0000
0000
0100
0000
0000
0130
0000
0000
0000
0001
0000
0000
0000
0001
0000
0000
0000
1000
0000
0000
0000
1000
0000
,
0000
0010
1000
0010
0000
0100
0000
0100
0000
0001
0000
0001
,
0000
0010
0000
0010
0000
0100
1000
0100
0000
0010
0000
0001
,
0000
0100
0000
0010
0000
1000
0000
0100
0000
0001
0000
1000
,
0000
0010
0000
0001
0000
1000
0000
0010
0000
0100
0000
0001
,
0000
0000
1000
0000
0000
0000
2002
0000
0000
3003
0000
0000
0000
0000
1000
0000
1000
0000
0001
0000
0000
0000
0001
0000
,
0001
1000
0000
0010
1000
0100
0010
0001
0010
0100
0000
0001
,
0001
1000
0000
0010
0010
1000
0000
0100
0100
1000
0001
1000
,
0000
0000
0000
0000
1001
0000
0000
0000
0000
0000
0000
0000
1000
0000
0000
0100
0000
0000
1000
0000
0000
0000
0000
0000
0001
0000
0000
0000
0000
0000
0000
0000
0000
0000
0000
0000
0001
0000
0000
0100
0000
0000
0001
0000
0000
0000
0000
0000
,
1000
0000
0000
0000
0010
0100
0010
0000
1000
0000
1000
0000
0001
0000
0001
0000
,
1001
0000
0010
1000
0010
0000
0100
0001
,
0100
0000
0010
1000
0010
0100
0002
1000
,
1003
1000
0100
0100
,
0010
0000
0010
0000
0001
0010
0001
0000
,
1000
0010
1000
0001
,
0100
0000
0001
0000
1000
0010
1000
0000
,
0001
1000
0001
1000
,
0010
0000
0100
0000
0010
1000
0010
0000
,
0100
0001
0010
0001
,
0100
0010
2000
3001
,
1000
0001
2000
0000
0001
0000
3000
0000
,
0001
1000
0002
0000
1000
0000
0003
0000
,
0010
0100
0020
0000
0100
0000
0030
0000
,
0100
0010
0200
0000
0010
0000
0300
0000
,
0001
1000
0001
1000
,
0010
0100
0010
0100
,
0002
0000
0000
0000
0000
0000
1000
1000
,
1000
1003
0100
1000
0000
0001
0100
0001
,
0000
0000
1000
0000
0010
0000
0100
0000
0001
1001
0000
0000
0000
0000
0000
0000
;

//---------------dance-single - ----------------
#NOTES:
     dance-single:
     :
     Beginner:
     4:
     0.192,0.204,0.068,0.127,0.080: // measure 1
0000
0000
0000
0000
,  // measure 2
0010
0000
0010
0000
,  // measure 3
0100
0000
0100
0000
,  // measure 4
1000
0000
0001
0000
,  // measure 5
1000
0000
0001
0000
,  // measure 6
0100
0000
0000
0000
0020
0000
0030
1000
,  // measure 7
0000
0000
0000
1000
0000
0000
0000
0001
,  // measure 8
0000
0000
0000
0001
0000
0000
0000
0100
,  // measure 9
0000
0000
0000
0100
0000
0000
0000
0010
,  // measure 10
0000
0000
0000
0020
0000
0030
0000
1000
,  // measure 11
0000
1000
0000
1000
0000
0000
0000
0001
,  // measure 12
0000
0001
0000
0001
0000
0000
0000
1000
,  // measure 13
0000
1000
0000
1000
0000
1000
0000
1000
,  // measure 14
0000
0000
0000
0002
0000
0003
0000
0100
,  // measure 15
0000
0000
0000
0010
0000
0000
0000
0100
,  // measure 16
0000
0000
0000
0010
0000
0000
0000
1000
,  // measure 17
0000
0000
0000
0001
0000
0000
0000
1000
,  // measure 18
0000
1000
0000
1000
0000
0000
0000
0001
,  // measure 19
0000
0002
0000
0003
0000
0000
0000
1000
,  // measure 20
0000
2000
0000
3000
0000
0000
0000
0001
,  // measure 21
0000
0000
0000
1000
0000
0000
0000
0002
,  // measure 22
0000
0003
1000
0000
0001
0000
1000
0000
,  // measure 23
0001
0100
0010
0100
,  // measure 24
0010
0100
0010
0010
,  // measure 25
0010
0001
1000
1000
,  // measure 26
1000
0000
0000
0001
0000
0001
0000
0001
0000
0000
0000
1000
,  // measure 27
0000
1000
0000
1000
0000
0000
0000
0010
0000
0010
0000
0010
,  // measure 28
0000
0000
0000
0100
0000
0100
0000
0100
0000
0000
0000
0010
,  // measure 29
0000
0000
0000
0010
0000
0000
0000
1000
0000
0000
0000
1000
,  // measure 30
0000
0000
0000
0001
0000
0000
0000
0001
0000
0000
0000
0100
,  // measure 31
0000
0000
0000
0100
0000
0000
0000
1001
0000
0000
0000
1000
,  // measure 32
0000
0000
0000
0110
0000
0000
0000
0001
0000
0000
0000
1001
,  // measure 33
0000
0000
0000
1000
0000
0000
0000
0110
0000
0000
0000
0001
,  // measure 34
0000
1001
1000
0001
,  // measure 35
0001
2000
3000
0001
,  // measure 36
0001
0002
0003
1000
,  // measure 37
1000
1000
0001
1001
,  // measure 38
1001
0000
1000
0000
,  // measure 39
0001
0000
0001
0000
,  // measure 40
1000
0000
0001
0000
,  // measure 41
1000
0000
0010
0000
,  // measure 42
0100
0000
0100
0000
,  // measure 43
0001
0000
0001
0000
,  // measure 44
1000
0000
1000
0000
,  // measure 45
0010
0000
0100
0000
,  // measure 46
0002
0003
1000
0000
,  // measure 47
2000
3000
0001
0000
,  // measure 48
0020
0030
0100
0000
,  // measure 49
0200
0300
0010
0000
,  // measure 50
1000
1000
1000
0000
,  // measure 51
0001
0001
0001
0000
,  // measure 52
2000
0000
3000
0001
,  // measure 53
0000
2002
0000
0000
0000
0000
0000
0000
,  // measure 54
0000
0000
0000
0000
0000
0000
0000
0000
0000
3003
0000
0000
0000
0000
0000
0000
;
