#TITLE:Chronos;
#SUBTITLE:;
#ARTIST:TAG;
#TITLETRANSLIT:;
#SUBTITLETRANSLIT:;
#ARTISTTRANSLIT:;
#CREDIT:;
#BANNER:;
#BACKGROUND:;
#LYRICSPATH:;
#CDTITLE:;
#MUSIC:Chronos.mp3;
#OFFSET:-0.527;
#SAMPLESTART:42.233;
#SAMPLELENGTH:12.000;
#SELECTABLE:YES;
#BPMS:0.000=170.667,220.000=85.333,236.000=170.667;
#STOPS:214.667=0.469
,215.334=0.469
,250.000=0.234
,250.334=0.234
,250.667=0.234
,251.000=0.234
,265.334=0.234
,265.667=0.234
,266.000=0.234
,266.334=0.234
;
#BGCHANGES:;

//---------------dance-single - ----------------
#NOTES:
     dance-single:
     :
     Hard:
     14:
     0.826,0.933,0.773,0.391,1.000: // measure 1
0000
0000
0000
0000
,  // measure 2
0000
0000
0000
0000
,  // measure 3
0000
0000
0000
0000
,  // measure 4
0000
0000
0000
0000
,  // measure 5
1000
0100
0010
0001
1000
0000
0001
0010
0100
1000
0001
0000
,  // measure 6
0010
0100
1000
0001
1000
0001
0100
0010
1000
0001
0010
0000
,  // measure 7
1000
0100
1000
0100
1000
0100
0010
0000
0001
0000
1001
0000
,  // measure 8
0001
0100
0001
0100
0001
0100
0010
0000
1000
0000
1001
0000
,  // measure 9
1000
0000
0001
1000
0000
0001
1000
0000
0010
0000
0100
0000
,  // measure 10
0101
0000
0001
0100
0000
0001
0100
0000
0010
0000
1000
0000
,  // measure 11
1100
0000
1000
0001
0000
0100
0001
0000
0010
0000
0100
0000
,  // measure 12
1001
0000
1000
0010
0000
0100
0001
0000
0010
0000
0100
0000
,  // measure 13
0010
0001
0010
0100
1000
0100
1000
0000
0010
0000
0100
0000
,  // measure 14
1001
0000
1000
0000
0010
0000
0110
0000
0010
0000
0100
0000
,  // measure 15
0001
0100
0001
0100
0010
1000
0010
0000
0100
0000
0001
0000
,  // measure 16
0110
0000
0100
0000
0001
0000
1001
0000
1000
0000
0010
0000
,  // measure 17
0100
0001
0100
0010
1000
0010
0100
0000
0001
0000
0010
0000
,  // measure 18
1100
1001
0011
0110
,  // measure 19
1000
0100
1000
0100
1000
0100
0010
0001
0010
0001
0010
0001
,  // measure 20
1000
0010
0100
0001
0010
0100
2000
0000
0000
3000
0000
0000
,  // measure 21
1001
0000
0002
0000
2000
0000
3003
0000
0020
0000
0200
0000
,  // measure 22
0330
0000
2000
0000
3001
0000
1000
0010
0100
0001
0000
0000
,  // measure 23
0200
0000
0020
0000
0330
0000
0002
0000
2000
0000
3003
0000
,  // measure 24
0200
0000
0301
0000
1000
0010
0100
0001
0000
0000
2000
0000
,  // measure 25
0020
0000
3030
0000
0002
0000
0200
0000
0303
0000
0020
0000
,  // measure 26
0130
0000
1000
0001
0100
0010
0100
0001
1000
0000
0001
0000
,  // measure 27
0001
0000
1000
0000
0010
0000
0100
0010
2002
0000
0000
0000
,  // measure 28
0000
0000
3003
0000
0000
0000
0001
1000
0001
0000
1000
0000
,  // measure 29
1000
0000
0001
0010
0100
1000
0010
0100
0000
0001
0000
1000
,  // measure 30
0000
0001
1000
0001
0010
0100
1000
0001
0100
0000
0010
1000
,  // measure 31
0010
0100
0002
0000
2003
0000
3002
0000
1003
0000
0001
0010
,  // measure 32
0100
1000
0020
0000
0230
0000
0302
0000
1003
0000
0010
0100
,  // measure 33
0010
1000
0100
0000
0010
0100
0010
0001
0100
0000
0010
1000
,  // measure 34
0010
1000
0002
0000
2003
0000
3010
0000
1001
0000
1000
0010
,  // measure 35
0100
0001
2000
0000
3002
0000
2003
0000
3010
0000
1000
0010
,  // measure 36
0100
0001
2000
0000
3020
0000
0230
0000
0301
0000
1000
0100
,  // measure 37
0001
0100
1000
0000
0001
0100
1000
0100
0001
0000
1000
0010
,  // measure 38
0001
0010
1000
0100
0010
0001
1000
0010
0100
0000
0010
1000
,  // measure 39
0001
0010
0100
0000
1001
0000
0010
0000
0101
0000
1100
0000
,  // measure 40
0010
1000
0001
0010
0100
0000
1100
0000
0001
0000
0110
0000
,  // measure 41
1001
0000
1000
0010
0100
0001
0010
0000
0001
0000
1010
0000
,  // measure 42
0110
0000
1001
0000
0000
1010
0000
0000
0110
0000
0000
0101
,  // measure 43
0000
0000
1001
0000
0100
0001
0100
1000
0100
0000
1100
0000
,  // measure 44
0001
0000
0110
0000
1001
0000
0010
0001
0010
0100
0010
0000
,  // measure 45
0101
0000
0010
0000
1100
0000
0101
0000
0001
0010
1000
0010
,  // measure 46
0001
0000
1000
0000
0101
0000
1100
0000
0110
0000
0000
1010
,  // measure 47
0000
0000
1100
0000
0000
0101
0000
0000
0001
0010
0100
1000
,  // measure 48
0001
0010
0100
1000
0010
0100
0001
1000
0010
0000
0100
0001
,  // measure 49
0100
0010
0100
0000
0010
0000
1100
0000
0101
0000
0001
0010
,  // measure 50
0100
1000
0001
0000
1000
0010
1000
0000
0101
0000
0010
1000
,  // measure 51
0010
0100
0001
0000
1000
0000
0011
0000
1000
0010
0100
0001
,  // measure 52
0010
0100
1000
0000
0001
0000
1001
0000
0110
0000
0010
1000
,  // measure 53
0010
0001
0010
0000
1000
0000
0101
0000
0001
0000
0100
0010
,  // measure 54
1000
0000
1100
0000
0010
0000
0100
0010
0110
0000
1001
0000
,  // measure 55
0100
0010
0001
1000
0010
0100
0020
0000
0000
0030
0000
0000
,  // measure 56
2001
0000
0020
3000
0200
0030
0002
0300
,  // measure 57
2003
0100
3002
0010
0203
1000
0320
0001
,  // measure 58
1030
0000
1000
1100
0000
0001
0011
0000
0100
0110
0000
0001
,  // measure 59
1001
1000
0010
0110
0100
0001
0011
0010
0100
1100
1000
0001
,  // measure 60
1001
0000
1000
0001
0000
0001
1000
0000
0010
0000
0110
0000
,  // measure 61
0101
0000
1001
0000
1000
0010
0000
0010
0100
0000
0001
0000
,  // measure 62
1100
0000
1010
0000
0110
0000
1000
0010
0000
0010
0100
0000
,  // measure 63
0001
0000
1000
0000
0110
0000
1010
0110
0101
1001
0110
0000
,  // measure 64
0010
1000
0000
0001
0100
0000
0010
0000
1100
0000
0101
0000
,  // measure 65
1001
0000
0001
0100
0000
0010
1000
0000
0010
0000
0101
0000
,  // measure 66
1010
0000
1100
0000
0001
0100
0000
1000
0100
0000
0001
0000
,  // measure 67
1010
0000
0011
0000
1001
1010
0110
0101
0001
0010
0100
1000
,  // measure 68
0001
0010
0100
1000
0001
0100
0010
1000
0001
0100
0010
1000
,  // measure 69
0010
0100
0001
1000
0001
0100
0010
1000
0100
0010
0001
1000
,  // measure 70
0010
0100
0010
0000
1000
0000
0001
0100
0002
0000
0000
0000
,  // measure 71
0000
0000
0000
0000
0000
0000
0000
0003
0000
1100
0000
0101
,  // measure 72
0000
0000
0000
0000
0000
2002
0000
0000
0000
0000
0000
0000
,  // measure 73
0000
0000
0000
0000
0000
3003
0000
0000
0000
0000
0000
0000
;

//---------------dance-single - ----------------
#NOTES:
     dance-single:
     :
     Medium:
     12:
     0.607,0.547,0.178,0.293,1.000:
0000
0000
0000
0000
,
0000
0000
0000
0000
,
0000
0000
0000
0000
,
0000
0000
0000
0000
,
1000
0000
1000
0000
1000
0000
0001
0000
0001
0000
0001
0000
,
0100
0000
0100
0000
0100
0000
0010
0000
0010
0000
0010
0000
,
1000
0000
0001
1000
0001
0000
0010
0000
0001
0000
1000
0000
,
0001
0000
0010
0100
0010
0000
0001
0000
1000
0000
0010
0000
,
1000
0000
0001
1000
0000
0000
0001
0000
0010
0000
0100
0000
,
1000
0000
0001
1000
0000
0000
0010
0000
0100
0000
0001
0000
,
1000
0000
0001
0100
0000
0000
0001
0000
0010
0000
0100
0000
,
1000
0000
0100
1000
0000
0000
0001
0000
0100
0000
0010
0000
,
1000
0000
1000
0100
0000
0100
0010
0000
0001
0000
0100
0000
,
0210
0000
0000
0000
1000
0000
1000
0000
0000
0000
0001
0000
,
0301
0000
0001
1000
0000
1000
0010
0000
0100
0000
0001
0000
,
1000
0000
0002
2000
0000
0000
0000
0000
0000
3003
0000
0000
,
1001
0000
1000
0010
0000
0010
0100
0000
0100
0000
0001
0000
,
2000
3020
0230
0302
,
1003
0000
0100
1000
0000
0010
1000
0000
0001
1000
0000
0010
,
1000
0000
0001
0000
2000
0000
0002
0000
0000
3003
0000
0000
,
1000
0000
0001
0000
0001
0000
0100
0000
0010
0000
0010
0000
,
1000
0000
0100
0000
0100
0000
0010
0000
0001
0010
0000
0000
,
1000
0000
1000
0000
0010
0000
0100
0000
0100
0000
0001
0000
,
0010
0000
0010
0000
0100
1000
0001
1000
0000
0000
0010
0000
,
0010
0000
1000
0000
0001
0000
0001
0000
0010
0000
0100
0000
,
0100
0000
0010
0000
0010
0001
0000
0001
0200
0000
0000
0000
,
0300
0000
0010
0000
1000
0000
0001
0000
2002
0000
0000
0000
,
0000
0000
3003
0000
0000
0000
0010
0000
0220
0000
0000
0000
,
0330
0000
0001
0000
1000
0001
1000
0001
0000
0100
0000
0001
,
0000
1000
0010
0000
0010
0100
0010
0100
0001
0000
1000
0001
,
0000
0001
1000
0000
0010
0000
0110
0000
0001
0000
0010
0100
,
0000
0100
1000
0000
1000
0000
1001
0000
0001
0000
0001
1000
,
0000
1000
0010
0000
0010
0100
0000
0100
0001
0000
0001
1000
,
0000
1000
0001
0000
1000
0000
0010
0000
0100
0000
0001
0100
,
0000
0100
0001
0000
1000
0000
1001
0000
0001
0000
1000
0010
,
0000
0010
1000
0000
0001
0000
0101
0000
0100
0000
0100
0001
,
0000
0001
0010
0000
0010
0100
0000
0100
1000
0000
1000
0010
,
0000
0010
0100
0000
0001
0000
1000
0000
0001
0000
1000
0100
,
1000
0000
0001
0000
0100
0001
0100
0000
0010
0000
1000
0000
,
0001
0100
0001
0000
1000
0000
0010
0100
0010
0000
1000
0000
,
0001
0000
1000
0100
1000
0000
0001
0000
0100
0010
0100
0000
,
0001
0000
2000
0000
0000
3020
0000
0000
0230
0000
0000
0302
,
0000
0000
1003
0000
0001
0100
0001
0000
1000
0000
0001
0100
,
0001
0000
1000
0000
0010
0000
0100
0001
0100
0000
0010
0000
,
0100
0001
0100
0000
0010
0000
1000
0000
0100
0010
0100
0000
,
1000
0000
0100
0010
0100
0000
1000
0000
0002
0000
0000
0203
,
0000
0000
0320
0000
0000
2030
0000
0000
3002
0000
0000
0023
,
0000
0000
0230
0000
0000
2300
0000
0000
3001
0000
0001
1000
,
0000
1000
0001
0000
1000
0000
0010
0000
0100
0000
0001
0000
,
0010
0000
0110
0000
0000
0000
0010
0000
1000
0000
0001
0100
,
0000
0100
0001
0000
0010
0000
0100
0000
1000
0000
0001
0100
,
0001
0000
0110
0000
0000
0000
1000
0000
0001
0000
0010
0100
,
0000
0100
0010
0000
0001
0000
1000
0000
0010
0000
0100
0001
,
0100
0000
0010
0000
1000
0000
0001
0000
1001
0000
0110
0000
,
0010
0000
1000
0001
1000
0000
2002
0000
0000
3003
0000
0000
,
0020
0000
0000
0100
0000
0000
1000
0000
0000
0100
0000
0030
,
0200
0000
0000
0010
0000
0000
0001
0000
0000
0010
0000
0300
,
0110
1010
0101
1001
,
1000
0000
1000
1000
0000
0001
0001
0000
0100
0100
0010
1000
,
0001
0000
1000
0001
0000
0001
1000
0000
0010
0000
0100
0000
,
0001
0000
0001
0000
1000
0010
0000
0010
1000
0000
0100
0000
,
0010
0000
0001
0000
0001
0000
1000
0010
0000
0010
0100
0000
,
0001
0000
1000
0000
1000
0000
0001
1000
0100
0010
0001
0000
,
1000
0010
0000
0100
0010
0000
1000
0000
0010
0000
0100
0000
,
0100
0000
0010
1000
0000
0001
1000
0000
0010
0000
0100
0000
,
0001
0000
0001
0000
1000
0010
0000
0100
0001
0000
0010
0000
,
0100
0000
1000
0000
0001
1000
0001
1000
0010
0000
0100
0001
,
0000
1000
0010
0000
0100
0001
0000
0010
0001
0000
1000
0100
,
0000
0010
0001
0000
1000
0100
0000
0010
0001
0000
1000
0100
,
1000
0000
0001
0000
1000
0000
0010
0100
0020
0000
0000
0000
,
0000
0000
0000
0000
0000
0000
0000
0030
0000
1001
0000
1001
,
0000
0000
0000
0000
0000
0220
0000
0000
0000
0000
0000
0000
,
0000
0000
0000
0000
0000
0330
0000
0000
0000
0000
0000
0000
;

//---------------dance-single - ----------------
#NOTES:
     dance-single:
     :
     Easy:
     9:
     0.447,0.547,0.222,0.373,0.800:
0000
0000
0000
0000
,
0000
0000
0000
0000
,
0000
0000
0000
0000
,
0000
0000
0000
0000
,
1000
0000
0000
0000
0001
0000
1000
0000
0000
0000
0010
0000
,
0100
0000
0000
0000
0001
0000
1000
0000
0000
0000
0001
0000
,
1000
0000
1000
0000
1000
0000
0000
0000
0100
0000
0010
0000
,
1000
0000
0001
0000
0001
0000
0000
0000
0010
0000
0100
0000
,
2000
0000
0000
0000
,
0002
0000
0000
0000
0000
0000
3003
0000
0000
0000
2000
0000
,
0002
0000
0000
0000
0000
0000
3003
0000
0000
0000
0001
0000
,
1000
0000
0000
0000
0100
0000
0000
0000
0010
0000
0100
0000
,
1000
0000
0010
0000
0010
0000
0010
0000
0100
0000
0001
0000
,
0010
0000
0000
0000
0100
0000
0110
0000
0000
0000
0001
0000
,
1000
0000
0010
0000
0100
0000
0001
0000
0010
0000
0100
0000
,
2000
0000
0002
0000
0000
0000
0000
0000
0000
3003
0000
0000
,
1000
0000
1000
0000
1000
0000
0001
0000
0001
0000
0001
0000
,
1000
0001
0100
0010
,
2000
3100
0002
0103
,
0010
0010
0110
0000
,
1000
0001
1000
0001
,
0010
0000
0000
0100
0000
0000
0010
0000
0001
0000
1000
0000
,
0000
0001
0000
0000
1000
0000
0000
0010
0000
0000
0100
0000
,
0000
0001
0000
0000
1000
0000
0001
0000
0100
0000
0000
0010
,
0000
0000
1000
0000
0000
0001
0000
0000
0100
0000
0000
0001
,
0000
0000
1000
0000
0001
0000
0200
0000
0020
0000
0330
0000
,
0000
0000
1000
0000
0001
0000
2000
0000
0002
0000
0000
0000
,
0000
3003
0000
0000
0000
0000
0200
0000
0002
0000
0000
0000
,
0303
0000
1000
0000
0001
0000
0100
0000
0010
0000
0000
0000
,
0000
0000
0010
0000
1000
0000
0001
0000
1001
0000
1000
0000
,
0001
0000
0100
0000
0000
0000
0000
0000
0001
0000
1000
0000
,
0010
0000
0100
0000
0000
0000
0000
0000
1001
0000
0000
1001
,
0000
0000
0110
0000
0000
0110
0000
0000
2001
0000
0000
3002
,
0000
0000
2003
0000
0000
3001
0000
0000
0100
0000
0001
0000
,
1000
0000
0010
0000
0000
0000
0000
0000
1000
0000
0100
0000
,
0010
0000
0001
0000
0000
0000
0000
0000
1100
0000
0000
1100
,
0000
0000
0011
0000
0000
0011
0000
0000
2000
0000
0000
3002
,
0000
0000
0203
0000
0000
0320
0000
0000
0130
0000
0001
0000
,
0000
0000
0100
0000
0001
0000
0000
0000
0100
0000
0001
0000
,
1000
0000
0000
0000
0001
0000
1000
0000
0000
0000
0001
0000
,
1000
0000
0010
0000
0000
0000
1000
0000
0010
0000
0000
0000
,
1000
0000
0020
0000
0000
0230
0000
0000
0302
0000
0000
2003
,
0000
0000
3001
0000
1000
0000
0000
0000
0001
0000
1000
0000
,
0000
0000
0001
0000
1000
0000
0010
0000
0000
0000
1000
0000
,
0010
0000
0000
0000
1000
0000
0010
0000
0100
0000
0000
0000
,
0010
0000
0100
0000
0000
0000
0010
0000
0200
0000
0000
0302
,
0000
0000
2003
0000
0000
3010
0000
0000
0110
0000
0000
1001
,
0000
0000
0110
0000
0000
1001
0000
0000
0110
0000
0000
0000
,
1000
0000
0001
0000
0000
0000
1000
0000
0001
0000
0000
0000
,
0010
0000
0100
0000
0000
0000
0000
0000
1001
0000
0000
0000
,
1000
0000
0010
0000
0000
0000
0100
0000
0001
0000
0000
0000
,
0100
0000
0010
0000
0000
0000
0000
0000
0110
0000
0000
0000
,
0001
0000
1000
0000
0000
0000
0001
0000
0100
0000
0000
0000
,
0001
0000
1000
0000
0001
0000
1000
0000
0100
0000
0010
0000
,
0101
0000
0000
0000
2000
0000
0002
0000
0000
3003
0000
0000
,
2000
3001
0020
0130
,
0200
0301
0020
1030
,
1000
0000
0000
0001
0000
1000
0001
0000
0000
0010
0000
0100
,
0010
0010
0001
0001
1000
1000
0010
0010
,
0100
0000
0001
0000
0100
0000
0001
0000
0000
0000
1000
0000
,
0010
0000
1000
0000
0010
0000
1000
0000
0010
0000
0000
0000
,
0001
0000
0100
0000
0001
0000
0100
0000
0001
0000
0100
0000
,
0000
0000
0010
0000
1000
0000
0001
1000
0001
1000
0010
0000
,
0100
0000
0010
0000
0100
0000
0000
0000
1000
0000
0001
0000
,
0100
0000
0001
0000
0100
0000
0001
0000
0000
0000
0010
0000
,
0100
0000
1000
0000
0100
0000
1000
0000
0100
0000
0000
0000
,
0001
0000
1000
0000
0001
1000
0001
0100
0020
0000
0000
2030
,
0000
0000
3002
0000
0000
0203
0000
0000
0301
0000
0000
1001
,
0000
0000
1000
0000
0000
1001
0000
0000
0010
0000
0000
0110
,
0000
0000
1000
0000
0000
0001
0000
0000
2002
0000
0000
0000
,
0000
0000
0000
0000
0000
3003
0000
0000
0000
1000
0000
0001
,
0000
0000
0000
0000
0000
2002
0000
0000
0000
0000
0000
0000
,
0000
0000
0000
0000
0000
3003
0000
0000
0000
0000
0000
0000
;

//---------------dance-single - ----------------
#NOTES:
     dance-single:
     :
     Beginner:
     5:
     0.213,0.290,0.187,0.107,0.373:
0000
0000
0000
0000
,
0000
0000
0000
0000
,
0000
0000
0000
0000
,
0000
0000
0000
0000
,
1000
0000
0001
0000
,
1000
0000
0001
0000
,
1000
0000
0000
0000
,
1000
0000
0000
0000
,
0001
0000
0000
0000
,
0001
0000
0000
0000
,
0110
0000
0000
0000
,
1001
0000
0000
0000
,
1000
0000
0001
0000
,
2000
0000
3000
0000
,
0001
0000
0100
0000
,
0020
0000
0030
0000
,
1000
0000
0001
0000
,
0100
0000
0100
0000
,
0100
0100
0100
0000
,
0010
0010
0010
0000
,
1000
0000
0010
0000
,
0100
0000
0000
0000
0000
0000
0001
0000
0000
0000
1000
0000
,
0000
0000
0000
0000
0001
0000
0000
0000
0000
0000
0100
0000
,
0000
0000
0000
0000
0010
0000
0000
0000
0100
0000
0000
0000
,
0000
0000
0001
0000
0000
0000
0000
0000
1000
0000
0000
0000
,
0000
0000
0010
0000
0000
0000
0000
0000
1001
0000
0000
0000
,
0000
0000
0000
0000
0000
0000
0000
0000
1001
0000
0000
0000
,
0000
0000
0000
0000
0000
0000
0000
0000
0110
0000
0000
0000
,
0000
0000
0000
0000
0000
0000
0000
0000
2002
0000
0000
0000
,
0000
0000
3003
0000
0000
0000
0000
0000
0001
0000
0000
0001
,
0000
0000
0001
0000
0000
0000
0000
0000
1000
0000
0000
1000
,
0000
0000
1000
0000
0000
0000
0000
0000
0010
0000
0000
0010
,
0000
0000
0010
0000
0000
0000
0000
0000
0100
0000
0000
0100
,
0000
0000
0100
0000
0000
0000
0000
0000
0010
0000
0000
0000
,
0000
0000
0100
0000
0000
0000
0000
0000
0010
0000
0000
0000
,
0000
0000
1000
0000
0000
0000
0000
0000
1000
0000
0000
1000
,
0000
0000
1000
0000
0000
0000
0000
0000
0001
0000
0000
0001
,
0000
0000
0001
0000
0000
0000
0000
0000
1001
0000
0000
0000
,
0000
0000
1000
0000
0000
0000
0000
0000
0000
0000
1001
0000
,
0000
0000
0000
0000
0100
0000
0000
0000
0000
0000
0000
0000
,
1001
0000
0010
0000
,
0000
0000
0001
0000
0000
0001
0000
0000
0001
0000
0000
0001
,
0000
0000
0001
0000
0000
0000
0000
0000
0100
0000
0000
0000
,
0000
0000
0000
0000
0110
0000
0000
0000
0000
0000
1000
0000
,
0000
0000
1001
0000
,
0100
0000
0000
0000
0000
0000
0000
0000
1000
0000
0000
1000
,
0000
0000
1000
0000
0000
0000
0000
0000
1001
0000
0000
0000
,
0000
0000
0110
0000
0000
0000
0000
0000
0001
0000
0000
0000
,
0000
0000
1000
0000
0000
0000
0000
0000
0001
0000
0000
0001
,
0000
0000
0001
0000
0000
0000
0000
0000
0010
0000
0000
0000
,
0000
0000
0100
0000
0000
0000
0000
0000
0010
0000
0000
0010
,
0000
0000
0010
0000
0000
0000
0000
0000
1000
0000
0000
0000
,
0000
0000
0001
0000
0000
0000
0000
0000
0100
0000
0000
0100
,
0000
0000
0100
0000
0000
0000
0000
0000
0001
0000
0000
0000
,
0000
0000
1001
0000
,
2000
3000
0002
0003
,
0200
0300
0020
0030
,
1000
1000
2000
3000
,
0001
0001
0002
0003
,
1000
0000
0001
0000
,
0000
0000
0110
0000
0000
0000
0000
0000
0100
0000
0000
0000
,
0000
0000
0000
0000
1001
0000
0000
0000
0000
0000
0001
0000
,
0000
0000
1000
0000
,
0000
0000
0000
0000
0010
0000
0000
0000
0000
0000
0000
0000
,
1001
0000
0001
0000
,
0000
0000
0110
0000
0000
0000
0000
0000
0010
0000
0000
0000
,
0000
0000
0000
0000
0100
0000
0000
0000
0000
0000
0000
0000
,
0000
0000
0001
0000
0000
0001
0000
0000
0001
0000
0000
0000
,
0000
0000
1000
0000
0000
1000
0000
0000
1000
0000
0000
0000
,
0000
0000
0010
0000
0000
0000
0000
0000
0110
0000
0000
0000
,
0000
0000
0000
1001
,
0000
0000
0000
0000
0000
2002
0000
0000
0000
0000
0000
0000
,
0000
0000
0000
0000
0000
3003
0000
0000
0000
0000
0000
0000
;
