#TITLE:Broken;
#SUBTITLE:;
#ARTIST:dj TAKA feat. AiMEE;
#TITLETRANSLIT:;
#SUBTITLETRANSLIT:;
#ARTISTTRANSLIT:;
#GENRE:;
#CREDIT:;
#MENUCOLOR:;
#METERTYPE:DDR;
#BANNER:Broken.png;
#BACKGROUND:Broken-bg.png;
#LYRICSPATH:;
#CDTITLE:;
#MUSIC:Broken.mp3;
#OFFSET:-0.844;
#SAMPLESTART:59.201;
#SAMPLELENGTH:12.000;
#SELECTABLE:YES;
#LISTSORT:;
#BPMS:0.000=148.000;
#STOPS:;
#BGCHANGES:;
#ATTACKS:;

//---------------dance-single - ----------------
#NOTES:
     dance-single:
     :
     Hard:
     9:
     0.386,0.415,0.148,0.328,0.027:
0000
0000
0000
0000
,
0000
0000
0000
0000
,
0000
0000
0000
0000
,
0000
0000
0000
0000
,
1000
0010
1000
0010
0100
0000
0100
0000
,
0001
0010
0001
0010
0100
0000
0100
0000
,
1000
0100
0010
0000
0001
0100
0010
0000
,
0100
0000
0000
0100
0000
0000
0100
0000
0000
0000
0001
0000
1001
0000
0000
0000
,
1000
0100
0010
0000
0100
0000
1000
0000
,
0001
0100
0010
0000
0100
0000
0001
0000
,
1000
0100
1000
0000
0001
0100
0001
0000
,
0010
1000
0100
0001
,
1000
0100
0001
0000
0100
0000
1000
0000
,
0001
0100
1000
0000
0100
0000
0001
0000
,
1100
0010
0101
0010
,
1000
1000
0001
0001
,
0002
0000
0020
0033
,
2000
0000
0020
3030
,
0002
0000
2000
3003
,
0020
0000
0000
0030
,
0100
0000
0100
0010
0000
0000
1000
0000
,
0001
0000
0001
0100
0000
0000
0010
0000
,
0100
0000
0100
0001
0000
0000
0001
0000
,
1000
0100
0010
0001
,
0100
0000
0000
0010
0020
0000
1000
0000
,
0000
1000
0130
0001
,
0010
1000
0100
0001
,
0100
0000
1000
0000
0001
0100
0001
0000
,
1000
0200
0010
0000
1000
0000
0310
0000
,
0001
0200
0010
0000
0001
0000
0310
0000
,
1000
0001
0100
0000
0001
1000
0100
0000
,
0010
0010
0100
1001
,
0002
1000
0100
0003
,
2000
0001
0100
3000
,
0020
0000
0200
0330
,
1001
0110
1001
0010
,
0100
0001
0010
0000
0100
1000
0010
0000
,
0100
0001
0100
0001
1000
0100
0010
0000
,
0100
1000
0010
0000
0100
0001
0010
0000
,
0100
0100
1100
0011
,
1000
0001
1000
0001
,
2000
3100
0002
0013
,
0100
0100
0000
0010
0010
0000
0100
0100
,
0000
0000
0000
1001
0000
0000
0001
0010
,
0100
0000
0000
1100
0000
0000
0001
0100
,
0010
0000
0000
0110
0000
0000
1000
0010
,
0100
0000
0001
1000
0000
0100
0000
0010
,
0000
0001
1000
0000
0001
0010
0100
1000
,
0002
0000
1000
1000
0003
0000
0000
0000
,
2000
0000
0001
0001
3000
0000
0000
0000
,
2002
0000
0000
3003
,
0010
0010
0010
0010
,
1000
0000
0000
1000
0000
0000
1000
0000
0100
0000
0000
0000
0010
0000
0000
0000
,
0001
0000
0000
0001
0000
0000
0001
0000
0100
0000
0000
0000
0010
0000
0000
0000
,
1000
0000
0000
1000
0000
0000
1000
0000
0001
0000
0000
0001
0000
0000
0001
0000
,
2000
3001
0002
1003
,
0010
0000
0000
0010
0000
0000
0010
0000
0100
0000
0000
0000
1000
0000
0000
0000
,
0010
0000
0000
0010
0000
0000
0010
0000
0100
0000
0000
0000
0001
0000
0000
0000
,
2000
3001
0002
1003
,
0100
0110
0010
0110
,
2000
0100
0001
3100
,
0002
0100
1000
0103
,
2000
0010
0001
3010
,
0002
0010
1000
0013
,
1100
0000
0001
0001
,
0101
0000
1000
1000
,
1010
0000
0001
0001
,
0011
0000
1000
0000
0001
1000
0001
1000
,
0002
0000
0023
0000
,
0230
0000
2300
0000
,
3002
0000
0203
0000
,
0020
0000
0330
0000
,
2000
0000
3200
0000
,
0320
0000
0032
0000
,
2003
0000
3020
0000
,
0200
0000
0000
0000
,
0330
0000
0000
0000
;

//---------------dance-single - ----------------
#NOTES:
     dance-single:
     :
     Medium:
     6:
     0.277,0.380,0.023,0.140,0.000:
0000
0000
0000
0000
,
0000
0000
0000
0000
,
0000
0000
0000
0000
,
0000
0000
0000
0000
,
0010
1000
0010
0000
0001
0000
0001
0000
,
0010
0001
0010
0000
1000
0000
1000
0000
,
0001
1000
0100
0000
1000
0001
0100
0000
,
0010
0010
0010
0000
,
0100
0001
0010
0000
,
0100
1000
0010
0000
,
0100
0001
0010
0001
,
0100
1000
0010
0000
,
0100
0001
1000
0100
,
0001
1000
0100
0000
,
0010
0001
1000
0010
,
0001
1000
0010
0010
,
0020
0000
0000
0030
,
2000
0000
0000
3000
,
0002
0000
0000
0003
,
0200
0000
0000
0300
,
0001
1000
0000
1000
,
0001
1000
0000
0010
,
0100
0010
0000
1000
,
0100
0010
0001
1000
,
0002
0000
0000
1000
1003
0000
0000
0000
,
1000
0100
0010
0100
,
1000
0000
0100
0010
,
0010
0000
0010
0100
,
0100
0000
0001
0010
,
1000
0000
0001
0010
,
1000
0000
0001
0100
,
1000
0000
0001
0100
,
2000
0000
0000
3000
,
0002
0000
0000
0003
,
2000
0000
0100
3000
,
0010
0001
2000
3001
,
0010
1000
0100
0000
0010
0000
0100
0000
,
0010
0001
0100
0000
0010
0000
0100
0000
,
0001
0010
0100
1000
,
0001
0100
0001
0000
1000
0100
1000
0000
,
0001
1000
0100
0010
,
0001
1000
0010
0100
,
0001
0000
0000
0001
0000
0000
0001
0000
,
0000
0100
0010
0100
,
0010
0010
0100
0000
,
0010
0010
0100
0000
,
0001
0001
1000
1000
,
0001
0010
0100
1000
,
0002
0000
1003
0000
,
2000
0000
3001
0000
,
0001
0000
1000
0000
,
0001
1000
0001
1000
,
0010
1000
0100
0000
,
0010
1000
0100
0000
,
0010
0001
0100
0000
,
0010
0001
0100
0000
,
0001
0100
1000
0000
,
0001
0100
1000
0000
,
0010
1000
0100
0000
,
0001
1000
0001
1000
,
0001
0010
0100
0000
0001
0000
0100
0000
,
1000
0010
0100
0000
1000
0000
0100
0000
,
0001
1000
0100
0000
0001
0000
0100
0000
,
0010
0001
0100
0000
0010
0000
0100
0000
,
0001
1000
0001
0000
1000
0000
1000
0000
,
1000
0001
1000
0000
0001
0000
0001
0000
,
1000
0010
0100
0000
0001
0010
0100
0000
,
1000
0001
1001
1001
,
0020
0000
0030
0000
,
0200
0000
0300
0000
,
0002
0000
0003
0000
,
2000
0000
3000
0000
,
0200
0000
0300
0000
,
0020
0000
0030
0000
,
0002
0000
0003
0000
,
1001
0000
0000
0000
;

//---------------dance-single - ----------------
#NOTES:
     dance-single:
     :
     Easy:
     4:
     0.183,0.234,0.008,0.109,0.000:
0000
0000
0000
0000
,
0000
0000
0000
0000
,
0000
0000
0000
0000
,
0000
0000
0000
0000
,
0001
0001
0100
0100
,
0010
0010
1000
0000
,
1000
1000
0010
0010
,
0100
0100
0001
0000
,
1000
0001
0100
0000
,
0001
1000
0100
0000
,
0010
0000
0100
0000
,
1000
0000
0001
0000
,
1000
0010
0100
0000
,
0001
0010
0100
0000
,
1000
0000
0001
0000
,
0100
0000
0010
0000
,
1000
0000
0100
0000
,
0001
0000
0010
0000
,
1000
0000
0100
0000
,
0001
0000
0000
0000
,
1000
0000
0000
0000
,
0001
0000
0000
0000
,
0100
0000
0000
0000
,
0010
0000
0000
0000
,
0001
0000
0001
0000
,
0000
0000
1000
0000
,
1000
0000
0000
0000
,
0010
0000
0000
0000
,
0010
1000
0000
1000
,
0100
0001
0000
0001
,
0010
0001
0000
0001
,
0100
1000
0000
1000
,
0002
0000
0103
0000
,
0001
0000
2000
0000
,
0002
0000
0000
0000
,
0000
0000
3003
0000
,
0010
0000
0100
0000
,
0001
0010
0100
0000
,
1000
0010
0100
0000
,
0002
0000
0103
0000
,
0002
0000
1003
0000
,
0001
0000
0010
0000
,
0100
0000
0000
0100
0000
0000
0100
0000
,
0000
0000
0000
0000
,
1000
0000
0010
0000
,
0100
0000
0001
0000
,
1000
0100
1000
0000
,
0001
0100
0001
0000
,
2000
0000
0000
0000
,
0002
0000
0000
0000
,
3003
0000
0000
0000
,
0010
0010
0010
0000
,
0100
0000
0001
0000
,
0010
0000
0001
0000
,
0100
0000
0010
0000
,
1000
0000
0010
0000
,
0100
0001
0010
0000
,
0100
1000
0010
0000
,
0001
1000
0100
0000
,
0010
0010
0010
0000
,
0001
0000
0100
0000
,
1000
0000
0100
0000
,
0001
0000
0010
0000
,
1000
0000
0010
0000
,
0001
0000
0100
0000
,
1000
0000
0010
0000
,
0001
0000
0010
0000
,
0100
0000
1000
0000
,
0002
0000
0103
0000
,
2000
0000
3100
0000
,
0002
0000
0013
0000
,
2000
0000
3000
0000
,
2000
0000
3100
0000
,
0002
0000
0103
0000
,
2000
0000
3010
0000
,
1001
0000
0000
0000
;

//---------------dance-single - ----------------
#NOTES:
     dance-single:
     :
     Beginner:
     1:
     0.085,0.117,0.000,0.086,0.000: // measure 1
0000
0000
0000
0000
,  // measure 2
0000
0000
0000
0000
,  // measure 3
0000
0000
0000
0000
,  // measure 4
0000
0000
0000
0000
,  // measure 5
0001
0000
0000
0000
,  // measure 6
1000
0000
0000
0000
,  // measure 7
0001
0000
0000
0000
,  // measure 8
1000
0000
0000
0000
,  // measure 9
0001
0000
0000
0000
,  // measure 10
1000
0000
0000
0000
,  // measure 11
0001
0000
0000
0000
,  // measure 12
1000
0000
0000
0000
,  // measure 13
0001
0000
0000
0000
,  // measure 14
1000
0000
0000
0000
,  // measure 15
0001
0000
0000
0000
,  // measure 16
1000
0000
0000
0000
,  // measure 17
0020
0000
0000
0000
,  // measure 18
0030
0000
0000
0000
,  // measure 19
0200
0000
0000
0000
,  // measure 20
0300
0000
0000
0000
,  // measure 21
1000
0000
0000
0000
,  // measure 22
0001
0000
0000
0000
,  // measure 23
1000
0000
0000
0000
,  // measure 24
1000
0000
0000
0000
,  // measure 25
0002
0000
0000
0000
,  // measure 26
0003
0000
0000
0000
,  // measure 27
2000
0000
0000
0000
,  // measure 28
3000
0000
0000
0000
,  // measure 29
0001
0000
0000
0000
,  // measure 30
0001
0000
0000
0000
,  // measure 31
0001
0000
0000
0000
,  // measure 32
0001
0000
0000
0000
,  // measure 33
1000
0000
0000
0000
,  // measure 34
0000
0000
1000
0000
,  // measure 35
2000
0000
0000
0000
,  // measure 36
3000
0000
0000
0000
,  // measure 37
0001
0000
0000
0000
,  // measure 38
0001
0000
0000
0000
,  // measure 39
1000
0000
0000
0000
,  // measure 40
1000
0000
0000
0000
,  // measure 41
0001
0000
0000
0000
,  // measure 42
0001
0000
0000
0000
,  // measure 43
2000
0000
0000
0000
,  // measure 44
3000
0000
0000
0000
,  // measure 45
0001
0000
0000
0000
,  // measure 46
1000
0000
0000
0000
,  // measure 47
0001
0000
0000
0000
,  // measure 48
0001
0000
0000
0000
,  // measure 49
1000
0000
0000
0000
,  // measure 50
0001
0000
0000
0000
,  // measure 51
2000
0000
0000
0000
,  // measure 52
3000
0000
0000
0000
,  // measure 53
1000
0000
1000
0000
,  // measure 54
1000
0000
0000
0000
,  // measure 55
0001
0000
0001
0000
,  // measure 56
0001
0000
0000
0000
,  // measure 57
1000
0000
1000
0000
,  // measure 58
1000
0000
0000
0000
,  // measure 59
0001
0000
0001
0000
,  // measure 60
0001
0000
0000
0000
,  // measure 61
1000
0000
0000
0000
,  // measure 62
0001
0000
0000
0000
,  // measure 63
1000
0000
0000
0000
,  // measure 64
0001
0000
0000
0000
,  // measure 65
0001
0000
0000
0000
,  // measure 66
1000
0000
0000
0000
,  // measure 67
0001
0000
0000
0000
,  // measure 68
1000
0000
0000
0000
,  // measure 69
0002
0000
0000
0000
,  // measure 70
0003
0000
0000
0000
,  // measure 71
2000
0000
0000
0000
,  // measure 72
3000
0000
0000
0000
,  // measure 73
2000
0000
0000
0000
,  // measure 74
3000
0000
0000
0000
,  // measure 75
0002
0000
0000
0000
,  // measure 76
0003
0000
0000
0000
;
