#TITLE:Bleep Code;
#SUBTITLE:;
#ARTIST:The 4th;
#TITLETRANSLIT:;
#SUBTITLETRANSLIT:;
#ARTISTTRANSLIT:;
#GENRE:;
#CREDIT:;
#MENUCOLOR:;
#METERTYPE:DDR;
#BANNER:Bleep Code.png;
#BACKGROUND:Bleep Code-bg.png;
#LYRICSPATH:;
#CDTITLE:cdtitle.png;
#MUSIC:Bleep Code.mp3;
#OFFSET:-0.040;
#SAMPLESTART:22.614;
#SAMPLELENGTH:12.000;
#SELECTABLE:YES;
#LISTSORT:;
#BPMS:0.000=170.000,125.000=85.000,157.000=170.000;
#STOPS:60.000=1.059
,217.000=1.059
;
#BGCHANGES:;
#ATTACKS:;

//---------------dance-single - ----------------
#NOTES:
     dance-single:
     :
     Hard:
     11:
     0.507,0.499,0.083,0.233,0.000: // measure 1
0000
0000
0000
0000
,  // measure 2
0000
0000
0000
0000
,  // measure 3
0000
0000
0000
0000
,  // measure 4
0000
0000
0000
0000
,  // measure 5
1000
0100
0010
0000
0010
0000
0000
0000
,  // measure 6
0001
0100
0010
0000
0010
0000
0000
0000
,  // measure 7
1000
0001
0100
0000
0100
0000
0000
0000
,  // measure 8
0001
1000
0100
0000
0100
0000
0000
0000
,  // measure 9
1000
1000
0010
0010
,  // measure 10
0001
0001
1000
1000
,  // measure 11
0100
0100
0010
0010
,  // measure 12
1000
1000
0001
0001
,  // measure 13
0010
0100
0010
0000
0100
0010
0100
0000
,  // measure 14
1000
0001
1000
0000
0001
1000
0001
0000
,  // measure 15
1000
0010
1000
0010
0100
0001
0100
0001
,  // measure 16
0020
0030
0000
0000
0000
0000
0000
0000
1000
0000
0000
0000
0010
0000
0000
0000
0100
0000
0000
0000
0000
0000
0000
0000
0100
0000
0000
0000
0000
0000
0000
0000
,  // measure 17
0001
0010
0000
1000
0010
0100
0001
0000
,  // measure 18
0010
0100
1000
0001
0100
0000
0100
0000
,  // measure 19
0010
1000
0000
1000
0001
0010
0100
0000
,  // measure 20
1000
0100
0001
0100
1000
0000
0010
0000
,  // measure 21
0100
0001
0000
1000
0100
1000
0010
0000
,  // measure 22
0100
0001
0010
0100
1000
0000
0001
0000
,  // measure 23
1000
0010
0000
0001
0010
1000
0000
0100
,  // measure 24
0010
0000
0001
1000
0100
0000
0110
0000
,  // measure 25
0010
0001
0000
1000
0010
0100
0001
0000
,  // measure 26
1000
0100
0001
0100
0010
0000
0011
0000
,  // measure 27
0001
0100
0000
1000
0100
0010
0100
0000
,  // measure 28
0001
0100
1000
0100
0010
0000
1010
0000
,  // measure 29
1000
0001
0000
0001
0100
1000
0010
0000
,  // measure 30
0100
0001
0010
0100
0010
0000
0110
0000
,  // measure 31
0100
1000
0000
0001
0010
1000
0000
0001
,  // measure 32
0100
0000
0020
0001
0000
0001
0230
0010
,  // measure 33
0000
0010
2300
0100
0000
0100
3002
0100
,  // measure 34
0000
0100
2003
0010
0000
0010
3020
0100
,  // measure 35
0000
0100
0230
0001
0000
0001
0302
0000
,  // measure 36
0023
0000
0230
1000
0000
1000
0320
0001
,  // measure 37
0000
0001
0032
0100
0000
0100
2003
0010
,  // measure 38
0000
0010
3002
0000
2003
0000
3020
0000
,  // measure 39
0230
0302
0000
0000
,  // measure 40
0000
1003
1000
1000
,  // measure 41
1000
0001
0100
0000
0100
0000
0100
0000
,  // measure 42
0100
0010
0001
0000
0001
0000
0001
0000
,  // measure 43
0001
1000
0100
0000
0100
0000
0100
0000
,  // measure 44
0100
0010
1000
0000
1000
0000
1000
0000
,  // measure 45
1000
0010
0001
0000
0001
0000
0001
0000
,  // measure 46
0001
1000
0100
0000
0100
0000
0100
0000
,  // measure 47
0100
0010
1000
0000
1000
0000
1000
0100
,  // measure 48
1000
0100
0001
0100
1000
0000
0001
0100
,  // measure 49
1000
0000
0001
0010
1000
0000
0001
0010
,  // measure 50
1000
0000
0001
0100
0001
0000
1000
0100
,  // measure 51
1000
0000
0001
0010
0001
0000
1000
0010
,  // measure 52
1000
0000
0002
0003
0020
0030
0200
0300
,  // measure 53
2000
3000
0002
0003
0200
0300
0020
0030
,  // measure 54
2000
3000
0001
0010
0001
0010
0100
1000
,  // measure 55
0100
0000
0000
0000
1000
0000
0000
0000
0020
0030
0000
0000
0000
0000
0000
0000
0101
0000
0000
0000
0001
0000
0000
0000
1000
0000
0000
0000
0100
0000
0000
0000
,  // measure 56
0010
0100
1000
0000
0100
0010
0100
1000
,  // measure 57
0010
0100
0001
0000
0100
0010
0100
0001
,  // measure 58
1000
0100
0001
0100
1000
0010
0100
0001
,  // measure 59
0010
0100
1000
0000
0100
1000
0010
0100
,  // measure 60
0001
1000
0100
0000
1000
0100
0001
0100
,  // measure 61
0010
0001
0100
0000
0100
0001
0100
0010
,  // measure 62
0100
0001
1000
0100
0010
0001
1000
0010
,  // measure 63
0100
0010
1000
0000
0101
0001
1000
0100
,  // measure 64
1000
0001
0010
0100
1000
0001
0100
0001
,  // measure 65
1000
0100
0010
0001
1000
0100
0001
0100
,  // measure 66
1000
0010
0001
0010
1000
0100
0001
1000
,  // measure 67
0010
0001
1000
0010
0001
0010
0100
0001
,  // measure 68
0010
0100
1000
0100
0001
1000
0010
0001
,  // measure 69
1000
0010
0100
0001
1000
0001
0010
1000
,  // measure 70
0001
0100
1000
0010
0001
0000
1100
0000
,  // measure 71
1100
1100
1001
0000
;

//---------------dance-single - ----------------
#NOTES:
     dance-single:
     :
     Medium:
     8:
     0.303,0.411,0.008,0.117,0.000:
0000
0000
0000
0000
,
0000
0000
0000
0000
,
0000
0000
0000
0000
,
0000
0000
0000
0000
,
1000
0000
0001
0000
,
0100
0000
0010
0000
,
1000
0000
0001
0000
,
0010
0000
0100
0000
,
1000
1000
0100
0100
,
0010
0010
0001
0001
,
1000
1000
0010
0010
,
0100
0100
0001
0001
,
1000
0100
0010
0001
,
1000
0010
0100
0001
,
2000
3020
0032
0203
,
1300
0000
0001
0100
0001
0000
0010
0000
,
0100
1000
0001
0100
,
0000
0000
1000
0100
1000
0000
0010
0000
,
0100
0001
0010
0100
,
0000
0000
0001
0010
0001
0000
0010
0000
,
0100
1000
0001
0100
,
0000
0000
1000
0010
1000
0000
0001
0000
,
0100
0010
1000
0001
,
0001
0000
0010
0100
0010
0000
0001
0000
,
0100
0001
1000
0100
,
0000
0000
0100
1000
0100
0000
0010
0000
,
0100
0001
1000
0010
,
0000
0000
0001
0100
0001
0000
1000
0000
,
0100
0010
0100
1000
,
0000
0000
1000
0100
1000
0000
0001
0000
,
0010
0000
1000
0000
0100
0000
0000
1000
,
0001
2000
3000
0002
,
0003
0200
0300
0000
,
0000
0002
0003
2000
,
3000
0020
0030
0000
,
0100
0200
0300
0002
,
0003
2000
3000
0000
,
0010
0010
0100
1000
,
0001
0100
0000
0000
,
0000
1000
0100
0100
,
0000
0001
0100
0100
,
0000
1000
0010
0010
,
0000
0001
0010
0010
,
0000
1000
0000
0100
,
0000
0010
0000
0001
,
0000
1000
0000
0010
,
0000
0100
0000
0001
,
0000
1000
0100
0010
,
0100
1000
0100
0010
,
0100
1000
0001
0100
,
0001
1000
0001
0100
,
0001
1000
0001
0010
,
0100
1000
0001
0010
,
0100
1000
0001
0100
,
0010
1000
0100
0000
1000
0000
0100
0000
,
1000
0100
0010
0001
,
0010
0001
0100
0001
,
0100
0001
1000
0010
,
1000
0000
0001
0010
,
0001
0010
0100
1000
,
0100
1000
0001
0100
,
0001
0100
0010
1000
,
0010
0000
0000
0000
0100
0001
0100
0000
,
0010
1000
0100
1000
,
0010
0000
0100
0000
0001
0010
0001
0000
,
1000
0100
0010
0100
,
1000
0000
0001
0000
1000
0100
1000
0000
,
0001
0100
0001
0000
1000
0010
1000
0000
,
0001
0010
0001
0000
1000
0000
0100
0000
,
0010
0001
0010
0001
2000
0000
0001
0000
,
0001
3001
1001
0000
;

//---------------dance-single - ----------------
#NOTES:
     dance-single:
     :
     Easy:
     4:
     0.170,0.264,0.000,0.000,0.000:
0000
0000
0000
0000
,
0000
0000
0000
0000
,
0000
0000
0000
0000
,
0000
0000
0000
0000
,
0000
0000
0000
0000
,
0000
0000
0000
0000
,
0000
0000
0000
0000
,
0000
0000
0000
0000
,
1000
0000
1000
0000
,
0001
0000
0001
0000
,
1000
0000
1000
0000
,
0001
0000
0001
0000
,
1000
0000
0001
0000
,
1000
0000
0001
0000
,
1000
0001
1000
0001
,
0000
0001
0000
0010
,
0000
0100
0000
1000
,
0000
0001
0000
0100
,
0000
0010
0000
1000
,
0000
0001
0000
0010
,
0000
0100
1000
0010
,
0000
1000
0000
0100
,
0000
0010
0001
0000
,
0100
0001
0000
1000
,
0000
0001
0000
1000
,
0000
0100
0000
0010
,
0000
0100
0000
0010
,
0000
0100
0000
1000
,
0000
0001
0000
1000
,
0000
0100
0000
0001
,
0000
0100
1000
0000
,
1000
0001
0000
0000
,
0000
0010
0000
0000
,
0000
0100
0000
0000
,
0000
1000
0000
0000
,
0000
0001
0000
0000
,
0000
0010
0000
0000
,
0000
0100
0000
0000
,
0000
1000
0000
0000
,
0000
0001
0000
0001
,
0000
0010
0000
0010
,
0000
0100
0000
0100
,
0000
1000
0000
1000
,
0000
0001
0000
0010
,
0000
0100
0000
1000
,
0000
0001
0000
0010
,
0000
0100
0000
1000
,
0000
0001
0100
0001
,
0000
1000
0100
1000
,
0000
0001
0010
0001
,
0000
1000
0010
1000
,
0000
0001
0001
0001
,
0001
1000
1000
1000
,
1000
0010
0010
0010
,
0010
0100
0100
0000
,
0100
0000
0001
0000
,
0010
0000
0100
0000
,
0100
0000
1000
0000
,
0010
0000
0100
0000
,
0001
0000
0100
0000
,
0001
0000
1000
0000
,
0100
0000
1000
0100
,
1000
0000
0001
0010
,
0100
0000
1000
0001
,
0010
0000
0100
1000
,
0001
0000
0010
0100
,
1000
0000
0001
0100
,
0010
0000
1000
0001
,
0100
0000
0010
1000
,
0001
0000
0100
0100
,
0100
0100
0100
0000
;

//---------------dance-single - ----------------
#NOTES:
     dance-single:
     :
     Beginner:
     1:
     0.063,0.088,0.000,0.000,0.000:
0000
0000
0000
0000
,
0000
0000
0000
0000
,
0000
0000
0000
0000
,
0000
0000
0000
0000
,
0000
0000
0000
0000
,
0000
0000
0000
0000
,
0000
0000
0000
0000
,
0000
0000
0000
0000
,
1000
0000
0000
0000
,
0000
0000
0000
0000
,
0001
0000
0000
0000
,
0000
0000
0000
0000
,
0010
0000
0000
0000
,
0100
0000
0000
0000
,
1000
0000
0000
0000
,
0000
0001
0000
0000
,
0000
0000
0000
0000
,
0000
0010
0000
0000
,
0000
0000
0000
0000
,
0000
0100
0000
0000
,
0000
0000
0000
0000
,
0000
1000
0000
0000
,
0000
0000
0000
0000
,
0000
0001
0000
0000
,
0000
0000
0000
0000
,
0000
1000
0000
0000
,
0000
0000
0000
0000
,
0000
0010
0000
0000
,
0000
0000
0000
0000
,
0000
1000
0000
0000
,
0000
0000
0000
0000
,
0000
0001
0000
0000
,
0000
1000
0000
0000
,
0000
0010
0000
0000
,
0000
0100
0000
0000
,
0000
0001
0000
0000
,
0000
1000
0000
0000
,
0000
0100
0000
0000
,
0000
0010
0000
0000
,
0000
0001
0000
0000
,
0000
0000
0000
0000
,
0000
1000
0000
0000
,
0000
0000
0000
0000
,
0000
0010
0000
0000
,
0000
0000
0000
0000
,
0000
0100
0000
0000
,
0000
0000
0000
0000
,
0000
0001
0000
0000
,
0000
0001
0000
0000
,
0000
1000
0000
0000
,
0000
1000
0000
0000
,
0000
0001
0000
0000
,
0000
1000
0000
0000
,
0000
0010
0000
0000
,
0000
0000
1000
0000
,
0000
0000
0100
0000
,
0000
0000
0010
0000
,
0000
0000
0001
0000
,
0000
0000
1000
0000
,
0000
0000
0010
0000
,
0000
0000
0100
0000
,
0000
0000
0001
0000
,
0000
0000
1000
0000
,
1000
0000
1000
0000
,
0000
0000
0001
0000
,
0001
0000
0001
0000
,
0000
0000
1000
0000
,
1000
0000
1000
0000
,
0000
0000
0001
0000
,
0001
0000
0001
0000
,
0000
0000
1000
0000
;
