#TITLE:BEYOND THE EARTH;
#SUBTITLE:;
#ARTIST:猫叉Master;
#TITLETRANSLIT:;
#SUBTITLETRANSLIT:;
#ARTISTTRANSLIT:Nekomata Master;
#GENRE:;
#CREDIT:;
#MENUCOLOR:;
#METERTYPE:DDR;
#BANNER:BEYOND THE EARTH.png;
#BACKGROUND:BEYOND THE EARTH-bg.png;
#LYRICSPATH:;
#CDTITLE:cdtitle.png;
#MUSIC:BEYOND THE EARTH.mp3;
#OFFSET:-0.046;
#SAMPLESTART:42.677;
#SAMPLELENGTH:13.500;
#SELECTABLE:YES;
#LISTSORT:;
#BPMS:0.000=140.000;
#STOPS:;
#BGCHANGES:;
#ATTACKS:;

//---------------dance-single - ----------------
#NOTES:
     dance-single:
     :
     Hard:
     10:
     0.467,0.516,0.150,0.338,0.174:
0000
0000
0000
0000
,
0000
0000
0000
0000
,
0000
0000
0000
0000
,
0000
0000
0000
0000
,
0000
0000
0000
0000
0000
0000
0000
0001
,
1000
0000
0000
0000
1001
0000
0000
0010
,
0100
0000
0000
1000
0000
0000
0010
0000
0100
0000
0000
0000
0000
0000
0001
0000
,
0010
0000
0100
1000
0010
0000
0100
0001
,
0010
0000
0000
0001
0000
0000
1000
0000
0000
0000
0000
0000
0000
0000
0001
0000
,
1000
0100
1000
0000
0010
0000
0100
0001
,
0010
0100
0010
0001
0100
0000
0010
1000
,
0200
0010
0320
0100
,
0130
0000
0000
0010
0000
0000
0001
0000
2000
0000
0000
0000
3000
0000
0001
0000
,
1000
0100
0010
0000
0001
0000
1000
0100
,
0001
0100
1000
0000
0010
0000
0100
0001
,
0020
0001
0032
1000
,
1003
0000
0000
0100
0000
0000
0010
0000
0000
0000
0000
0000
0110
0000
0000
0000
,
0200
0310
0200
1300
,
0010
0100
0001
0000
0100
0000
0101
0000
,
0002
0013
2000
3010
,
0001
1000
0010
0100
0001
0010
1000
0000
,
0020
0130
2000
3100
,
0010
0001
1000
0000
0010
0000
0110
0000
,
0002
0103
0020
0130
,
0001
0100
1000
0001
0010
0100
1000
0000
,
0200
0000
0302
0000
,
0023
0000
0000
0000
0130
1000
0100
0010
,
0002
0010
1000
0100
,
2003
0010
0001
0100
,
3020
0000
0230
0000
,
0302
0000
0000
0000
1003
0100
0001
0100
,
2000
0100
0001
0010
,
3002
0100
1000
0010
,
1003
0000
0000
1000
0000
0000
1000
0000
0010
0000
0100
0000
0000
0000
0001
0000
,
0010
0000
0000
0010
0000
0000
0010
0000
0100
0000
1000
0000
0100
0000
0001
0000
,
0100
0000
0000
0010
0000
0000
0100
0000
1000
0000
0001
0000
0000
0000
0001
0000
,
0010
0000
0000
0100
0000
0000
1000
0000
0001
0000
0010
0000
1000
0000
0010
0000
,
0001
0000
0000
0101
0000
0000
0000
0000
1000
0000
0000
1010
0000
0000
0000
0000
,
0100
0000
0000
0110
0000
0000
0000
0000
0010
0000
0000
1010
0000
0000
0000
0000
,
0100
0000
0000
0101
0000
0000
0000
0000
0010
0000
0000
0110
0000
0000
0000
0000
,
1000
0001
1000
0001
0000
0000
2002
0000
0000
3003
0000
0000
,
2000
0100
0000
0001
0000
0100
3000
0001
,
0200
0010
0000
0001
0000
0010
0300
0001
,
0020
0100
0000
0001
0000
0100
0030
1000
,
0002
0100
0000
1000
0000
0100
0003
1000
,
0020
0100
0000
1000
0000
0100
0030
1000
,
0002
0010
0000
0100
0000
0010
0003
0100
,
0020
0000
0000
0001
0000
0000
0001
0000
0001
0000
0000
0000
0031
0000
0000
0000
,
2002
0000
0000
0000
3003
0000
0000
0000
1010
0000
0000
0110
0000
0000
0101
0000
,
0001
0000
0010
0000
0100
0000
0001
0000
0100
0000
0000
1000
0010
0000
0000
0000
,
0100
0000
0001
0000
0010
0000
0100
0000
1000
0000
0000
0010
0100
0000
0000
0000
,
0001
0000
0010
0000
1000
0000
0010
0000
0001
0000
0000
0100
0010
0000
0000
0000
,
1000
0000
0000
1000
0010
0000
0000
0010
0001
0000
0000
0001
0100
0000
0000
0100
,
1000
0000
0001
0000
0100
0000
0001
0000
1000
0000
0000
0010
0100
0000
0000
0000
,
0001
0000
1000
0000
0010
0000
1000
0000
0001
0000
0000
0010
0100
0000
0000
0000
,
1000
0000
0100
0000
0001
0000
0100
0000
1000
0000
0000
0001
0010
0000
0000
0000
,
0001
0000
0000
0001
0100
0000
0000
0100
1000
0000
0000
1000
0010
0000
0000
0010
,
0001
0000
0000
1000
0000
0000
0010
0000
0100
0000
0001
0000
0010
0000
0000
0000
,
0100
0000
0000
1000
0000
0000
0001
0000
0100
0000
0001
0000
0010
0000
0100
0000
,
1000
0000
0000
0010
0000
0000
0100
0000
0001
0000
1000
0000
0100
0000
0000
0000
,
0010
0000
0000
0001
0000
0000
1000
0000
0010
0100
0000
0000
0220
0000
0000
0000
,
0330
0000
0000
0000
;

//---------------dance-single - ----------------
#NOTES:
     dance-single:
     :
     Medium:
     8:
     0.318,0.401,0.132,0.235,0.052:
0000
0000
0000
0000
,
0000
0000
0000
0000
,
0000
0000
0000
0000
,
0000
0000
0000
0000
,
0000
0000
0000
0000
0000
0000
0000
0010
,
0100
0000
0000
0010
0000
0100
0000
0100
,
0000
0001
0000
0001
0010
0000
0000
0001
,
0100
0001
0000
0001
0000
0010
0000
0010
,
0000
0100
0000
0100
0000
0000
0000
0000
,
1000
0000
0001
0000
1000
0010
0100
0000
,
0001
0000
1000
0100
0010
0000
0100
0000
,
1000
0010
0001
0100
,
1000
0001
2000
3000
,
0001
0000
0100
0000
0010
0100
0001
0000
,
1000
0000
0001
0010
0100
0000
1000
0000
,
0001
0010
1000
0100
,
0001
1000
0002
0003
,
1000
1000
0100
0100
,
1000
0100
1000
0000
0001
0000
0000
0000
,
0100
0100
0010
0010
,
0100
0001
0100
0000
0010
0000
0000
0000
,
0010
1000
0100
0001
,
0010
0100
1000
0000
0001
0000
0000
0000
,
0010
0100
0001
0010
,
1000
0001
0100
0000
0010
0000
0000
0000
,
1000
0000
0001
0000
,
0100
0000
0010
0000
,
1000
0001
0010
0100
,
2000
0000
0001
0000
3001
0001
0001
0000
,
0001
0000
1000
0000
,
0010
0000
0001
0000
,
0100
0010
1000
0001
,
0020
0000
0100
0000
0130
0100
0100
0000
,
0002
1000
0000
1003
,
0020
0100
0000
0130
,
0002
0010
0000
0013
,
0200
1000
0000
1300
,
1100
0000
0011
0000
,
0110
0000
1001
0000
,
0001
0000
0000
0001
0000
0000
0000
0000
0010
0000
0000
0010
0000
0000
0000
0000
,
0100
0010
1001
0000
,
2000
0000
0000
3000
,
0200
0000
0000
0300
,
0002
0000
0000
0003
,
0020
0000
0000
0030
,
0200
0000
0000
0300
,
2000
0000
0000
3000
,
0002
1000
1000
1003
,
1001
0000
0000
0000
0000
0000
0000
0000
0010
0000
0000
0010
0000
0000
0010
0000
,
1000
0000
0001
0000
1000
0100
0001
0000
,
1000
0000
0001
0000
1000
0100
0001
0000
,
2000
3020
0230
0302
,
1003
0101
1000
0101
,
0010
0000
0100
0000
0010
1000
0100
0000
,
0010
0000
0100
0000
1000
0010
0100
0000
,
0002
0023
2030
3200
,
0301
1100
0001
1100
,
0001
0000
0000
0001
0000
0000
0000
0000
0010
0000
0000
0010
0000
0000
0000
0000
,
0100
0000
0000
0100
0000
0000
0000
0000
1000
0000
0000
1000
0000
0000
0000
0000
,
0001
0000
0000
0101
0000
0000
0000
0000
1000
0000
0000
1100
0000
0000
0000
0000
,
0010
0000
0000
0110
0000
0000
0000
0000
0001
1000
0000
0000
2002
0000
0000
0000
,
3003
0000
0000
0000
;

//---------------dance-single - ----------------
#NOTES:
     dance-single:
     :
     Challenge:
     12:
     0.551,0.573,0.310,0.122,0.291:
0000
0000
0000
0000
,
0000
0000
0000
0000
,
0000
0000
0000
0000
,
0000
0000
0000
0000
,
0000
0000
0000
0000
,
1000
1000
0010
0010
,
0100
0100
0001
0001
,
0010
0100
1000
0100
0010
0001
0100
0010
,
2000
0000
0001
0000
3001
0000
0000
0001
,
0100
0000
0000
0010
0100
0000
0001
0000
0010
0000
0000
0000
0100
0000
1000
0000
,
0010
0100
0001
0010
0200
0000
1300
0000
,
0002
0100
1000
0103
,
0010
0000
0000
0100
0000
0000
0010
0000
0110
0000
0000
0000
0000
0000
0001
0000
,
1000
0000
0000
0010
1000
0000
0100
0000
0010
0000
0000
0000
0100
0000
1000
0000
,
0010
0001
0010
1000
0002
0000
0013
0000
,
0200
1000
0001
1300
,
0001
0000
0000
0100
0000
0000
0001
0000
0000
0000
0000
0000
1010
0000
0000
0000
,
0001
0000
0010
0000
0100
0000
0000
0000
1000
0001
1000
0000
0010
0000
0000
0000
,
0100
0000
0001
0000
0010
0000
0000
0000
0100
1000
0100
0000
0010
0000
0000
0000
,
0001
0100
0010
0000
1000
0100
0010
0000
,
0001
0100
1000
0100
0001
0100
1000
0000
,
0100
0000
0010
0000
1000
0000
0000
0000
0001
0010
0001
0000
0010
0000
0000
0000
,
0100
0000
1000
0000
0010
0000
0000
0000
0100
0001
0100
0000
0010
0000
0000
0000
,
1000
0010
0001
0010
1000
0001
1000
0010
,
0200
0000
0000
0000
0001
0000
0000
0000
0010
0000
0000
0000
1300
0000
0000
0100
,
0001
0000
0010
0000
0100
0000
0000
1000
0010
0000
0100
0000
0001
0000
0000
1000
,
0100
0000
0010
0000
0100
0000
0000
1000
0010
0000
0100
0000
0001
0000
0010
0000
,
0200
0001
1000
0301
,
0100
0000
0000
0000
1100
0000
0000
0000
0010
0000
0000
0000
0011
0000
0000
1000
,
0010
0000
0100
0000
0001
0000
0000
0010
1000
0000
0010
0000
0001
0000
0000
0100
,
1000
0000
0100
0000
0001
0000
0000
1000
0100
0000
0001
0000
0100
0000
1000
0000
,
0020
1000
0100
0031
,
0010
1010
0100
0101
,
0001
0100
0000
0001
0000
0000
0010
0000
0100
1000
0000
0100
0000
0000
0010
0000
,
0001
0100
0000
1000
0000
0000
0100
0000
0001
0010
0000
1000
0000
0000
0010
0000
,
0001
0100
0000
0010
0000
0000
0100
0000
0010
1000
0000
0001
0000
0000
0010
0000
,
0100
1000
0000
0001
0000
0000
0010
0000
0100
0001
0000
0100
0000
0000
1000
0000
,
1100
0000
0000
1100
0000
0000
0000
0000
0110
0000
0000
0110
0000
0000
0000
0000
,
0011
0000
0000
0011
0000
0000
0000
0000
1000
0001
0000
1000
0001
0000
0010
0000
,
0110
0000
0000
0110
0000
0000
0000
0000
1010
0000
0000
1010
0000
0000
0000
0000
,
0001
0000
0000
0000
0100
0000
0000
0000
0001
0000
0000
0000
0010
0000
0000
0000
0000
0000
0100
0000
0000
1000
0000
0000
0200
0000
0000
0000
0000
0000
0000
0000
0000
0000
0000
0000
0310
0000
0000
0000
0000
0000
0000
0000
0000
0000
0000
0000
,
0011
0010
0000
0100
0000
0010
0000
1000
,
1100
0100
0000
0010
0000
0001
0000
0100
,
0110
0010
0000
0100
0000
0001
0000
1000
,
1100
0100
0000
1000
0000
0010
0000
0100
,
0101
0001
0000
0100
0000
0010
0000
1000
,
1001
0001
0000
1000
0000
0010
0000
0100
,
0110
0000
0000
1010
0000
0000
0101
0000
1001
0000
0000
0000
0011
0000
0000
0000
,
2200
0000
0000
0000
3300
0000
0000
0000
0011
0000
0000
1100
0000
0000
0110
0000
,
1001
0000
1000
0000
0100
0000
0001
0000
0100
0000
1000
0000
0010
0000
0000
1000
,
0100
0000
0001
0000
0100
0000
1000
0000
0010
0000
0100
0000
0001
0000
0000
0010
,
0100
0000
1000
0000
0100
0000
0001
0000
0100
0000
1000
0000
0010
0000
0000
0100
,
0001
0000
1000
0000
0100
0000
0001
0000
0100
0000
1000
0000
0001
0000
0100
0001
,
0100
0000
0001
0000
0010
0000
0100
0000
1000
0000
0001
0000
0100
0000
0001
1000
,
0001
0000
0100
0000
1000
0000
0100
0000
0010
0000
1000
0000
0010
0000
1000
0100
,
1000
0000
0010
0000
0100
0000
0001
0000
0100
0000
0010
0000
1000
0000
0001
0100
,
0001
0000
1000
0000
0010
0000
1000
0000
0100
1000
0000
1000
0001
0000
0100
0000
,
0001
0100
0000
0001
0010
0000
0001
0000
0100
0000
0010
0000
1000
0000
0100
0000
,
0010
0100
0000
1000
0100
0000
0010
0000
0100
0000
0001
0000
0100
0000
1000
0000
,
0010
0100
0000
0001
0100
0000
0010
0000
1000
0000
0100
0000
0001
0000
0100
0000
,
1000
0010
0000
0010
0001
0000
0010
0000
1000
0001
0000
0000
2002
0000
0000
0000
,
3003
0000
0000
0000
;

//---------------dance-single - ----------------
#NOTES:
     dance-single:
     :
     Easy:
     4:
     0.164,0.201,0.000,0.188,0.000: // measure 1
0000
0000
0000
0000
,  // measure 2
0000
0000
0000
0000
,  // measure 3
0000
0000
0000
0000
,  // measure 4
0000
0000
0000
0000
,  // measure 5
0000
0000
0000
0000
,  // measure 6
1000
0000
0000
1000
,  // measure 7
0100
0000
0000
0100
,  // measure 8
0010
0000
0000
0010
,  // measure 9
0001
0000
0000
0001
,  // measure 10
0100
0000
0010
1000
,  // measure 11
0100
0000
0010
0001
,  // measure 12
0100
0000
0001
1000
,  // measure 13
0100
0000
0000
0000
,  // measure 14
0010
0000
0010
1000
,  // measure 15
0100
0000
0100
0001
,  // measure 16
0010
0000
0010
0100
,  // measure 17
2000
0000
3000
0000
,  // measure 18
0001
0000
0100
0000
,  // measure 19
0001
0000
0100
0000
,  // measure 20
0010
0000
1000
0000
,  // measure 21
0010
0000
1000
0000
,  // measure 22
0100
0000
0001
0000
,  // measure 23
0100
0000
1000
0000
,  // measure 24
0010
0000
0100
0000
,  // measure 25
0001
0000
1000
0000
,  // measure 26
0200
0000
0300
0000
,  // measure 27
0002
0000
0003
0000
,  // measure 28
0020
0000
0030
0000
,  // measure 29
2000
0000
3000
0000
,  // measure 30
0200
0000
0300
0000
,  // measure 31
2000
0000
3000
0000
,  // measure 32
0020
0000
0030
0000
,  // measure 33
0002
0000
0003
0000
,  // measure 34
1000
0000
0000
0001
,  // measure 35
0001
0000
0000
0010
,  // measure 36
0010
0000
0000
1000
,  // measure 37
1000
0000
0000
0100
,  // measure 38
0100
0000
0000
0100
0000
0000
0100
0000
,  // measure 39
0001
0000
0000
0001
0000
0000
0001
0000
,  // measure 40
1000
0000
0000
1000
0000
0000
1000
0000
,  // measure 41
0100
0000
0010
0000
,  // measure 42
0002
0000
0003
0000
,  // measure 43
0020
0000
0030
0000
,  // measure 44
2000
0000
3000
0000
,  // measure 45
0200
0000
0300
0000
,  // measure 46
0002
0000
0003
0000
,  // measure 47
0200
0000
0300
0000
,  // measure 48
2000
0000
3000
0000
,  // measure 49
0010
0000
0000
0000
,  // measure 50
0100
0000
0001
0000
,  // measure 51
0010
0000
0100
0000
,  // measure 52
1000
0000
0010
0000
,  // measure 53
0200
0000
0300
0000
,  // measure 54
0010
0000
0100
0000
,  // measure 55
0001
0000
0010
0000
,  // measure 56
0100
0000
1000
0000
,  // measure 57
0002
0000
0003
0000
,  // measure 58
1000
0000
0100
0000
,  // measure 59
0010
0000
0001
0000
,  // measure 60
1000
0000
0010
0000
,  // measure 61
0100
0000
0002
2000
,  // measure 62
3003
0000
0000
0000
;

//---------------dance-single - ----------------
#NOTES:
     dance-single:
     :
     Beginner:
     1:
     0.074,0.086,0.000,0.000,0.000: // measure 1
0000
0000
0000
0000
,  // measure 2
0000
0000
0000
0000
,  // measure 3
0000
0000
0000
0000
,  // measure 4
0000
0000
0000
0000
,  // measure 5
0000
0000
0000
0000
,  // measure 6
1000
0000
0000
0000
,  // measure 7
0001
0000
0000
0000
,  // measure 8
0010
0000
0000
0000
,  // measure 9
0100
0000
0000
0000
,  // measure 10
1000
0000
0000
0000
,  // measure 11
0001
0000
0000
0000
,  // measure 12
0010
0000
0000
0000
,  // measure 13
0100
0000
0000
0000
,  // measure 14
1000
0000
0000
0000
,  // measure 15
0001
0000
0000
0000
,  // measure 16
0100
0000
0000
0000
,  // measure 17
0000
0000
0000
0000
,  // measure 18
1000
0000
0000
0000
,  // measure 19
0001
0000
0000
0000
,  // measure 20
0010
0000
0000
0000
,  // measure 21
0100
0000
0000
0000
,  // measure 22
1000
0000
0000
0000
,  // measure 23
0001
0000
0000
0000
,  // measure 24
0100
0000
0000
0000
,  // measure 25
0010
0000
0000
0000
,  // measure 26
1000
0000
0000
0000
,  // measure 27
0100
0000
0000
0000
,  // measure 28
0010
0000
0000
0000
,  // measure 29
0001
0000
0000
0000
,  // measure 30
0100
0000
0000
0000
,  // measure 31
0010
0000
0000
0000
,  // measure 32
1000
0000
0000
0000
,  // measure 33
0001
0000
0000
0000
,  // measure 34
0001
0000
0001
0000
,  // measure 35
0000
0000
0010
0000
,  // measure 36
0000
0000
0100
0000
,  // measure 37
0000
0000
1000
0000
,  // measure 38
0000
0000
0001
0000
,  // measure 39
0000
0000
0001
0000
,  // measure 40
0000
0000
1000
0000
,  // measure 41
1000
0000
0000
0000
,  // measure 42
1000
0000
0000
0000
,  // measure 43
0000
0000
0000
0000
,  // measure 44
0001
0000
0000
0000
,  // measure 45
0000
0000
0000
0000
,  // measure 46
0010
0000
0000
0000
,  // measure 47
0000
0000
0000
0000
,  // measure 48
0001
0000
0000
0000
,  // measure 49
0000
0000
0000
0000
,  // measure 50
1000
0000
0000
0000
,  // measure 51
1000
0000
0000
0000
,  // measure 52
0100
0000
0000
0000
,  // measure 53
0010
0000
0000
0000
,  // measure 54
0001
0000
0000
0000
,  // measure 55
0001
0000
0000
0000
,  // measure 56
0010
0000
0000
0000
,  // measure 57
0100
0000
0000
0000
,  // measure 58
1000
0000
1000
0000
,  // measure 59
0000
0000
0001
0000
,  // measure 60
1000
0000
1000
0000
,  // measure 61
0000
0000
0010
0010
;
