#TITLE:BALLAD THE FEATHERS ~Another~;
#SUBTITLE:;
#ARTIST:SHIN SOUND DESIGN feat.Naomi Koizumi;
#TITLETRANSLIT:;
#SUBTITLETRANSLIT:;
#ARTISTTRANSLIT:;
#CREDIT:;
#BANNER:BALLAD THE FEATHERS ~Another~.png;
#BACKGROUND:BALLAD THE FEATHERS ~Another~-bg.png;
#LYRICSPATH:;
#CDTITLE:;
#MUSIC:BALLAD THE FEATHERS ~Another~.mp3;
#OFFSET:0.000;
#SAMPLESTART:118.580;
#SAMPLELENGTH:15.000;
#SELECTABLE:YES;
#BPMS:0.000=60.000,20.000=132.000,208.000=66.000,224.000=132.000;
#STOPS:;
#BGCHANGES:;

//---------------dance-single - ----------------
#NOTES:
     dance-single:
     :
     Challenge:
     11:
     0.507,0.690,0.150,0.266,0.252: // measure 1
0000
0000
0000
0000
0000
0000
0000
0000
1000
0000
0000
0100
0000
0000
0010
0000
0002
0000
0000
0000
0000
0000
0203
0000
0000
0000
0320
0000
0000
0000
2030
0000
,  // measure 2
0000
3000
0000
0002
0000
2003
0000
3020
0000
0030
0000
2000
0000
3002
0000
2003
,  // measure 3
0000
3000
0000
0020
0000
0000
0130
0000
1001
0010
0100
1000
0000
0001
1000
0000
,  // measure 4
0010
0100
0010
0100
0000
0001
1000
0000
1000
0010
0100
0001
0000
1000
0001
0000
,  // measure 5
1001
0000
0000
1001
0000
0000
0000
0002
2000
0000
0000
0000
3003
0000
0001
0000
,  // measure 6
1000
0010
0100
0001
0100
0010
0100
0001
,  // measure 7
0100
0010
1000
0100
1000
0010
1000
0100
,  // measure 8
1000
0010
0100
0001
0100
0010
0100
0001
,  // measure 9
0100
0001
1000
0100
1000
0001
1000
0100
,  // measure 10
2000
3001
0020
0130
,  // measure 11
0002
0000
0013
0000
0200
0000
1300
0001
,  // measure 12
0100
0000
0000
0100
0000
0000
0100
0000
0000
0000
0001
0000
1000
0000
0000
0000
,  // measure 13
1001
1000
0001
1000
0010
0100
0010
0000
,  // measure 14
2000
0000
0000
0000
0020
3000
0000
0000
,  // measure 15
0200
0030
0000
0000
0002
0300
0000
0000
,  // measure 16
2000
0003
0000
0000
0002
3000
0000
0000
,  // measure 17
0020
0003
0000
0000
0100
0030
0100
0000
,  // measure 18
2000
0001
0010
0100
,  // measure 19
3002
0010
0100
1000
,  // measure 20
2003
3020
0230
0302
,  // measure 21
1003
0000
0000
0000
0001
0000
1000
0000
0001
0000
0000
0100
0010
0000
0000
0000
,  // measure 22
0010
1000
0010
0000
1000
0000
0001
0000
,  // measure 23
0010
0001
0010
0000
0100
0000
1000
0000
,  // measure 24
0001
1000
0001
0000
1000
0001
1000
0000
,  // measure 25
0001
0000
0000
0001
0010
0000
0000
0010
0100
0000
0000
0100
1000
0000
0000
0000
,  // measure 26
0001
0000
0100
0000
0001
0000
0100
0000
0001
0000
0000
0010
0001
0000
0000
0000
,  // measure 27
0100
0000
1000
0000
0100
0000
1000
0000
0100
0000
0000
0100
0010
0000
0000
0000
,  // measure 28
0001
0000
1000
0000
0001
0000
1000
0000
0001
0000
0000
0001
0100
0000
0000
0000
,  // measure 29
0010
1000
0100
0010
0001
0100
0010
0000
,  // measure 30
1000
0100
1000
0100
1000
0100
1000
0000
,  // measure 31
0001
0100
0001
0100
0001
0100
0001
0000
,  // measure 32
1000
0010
1000
0010
1000
0010
1000
0000
,  // measure 33
0001
0010
0100
1000
0001
0010
0100
0000
,  // measure 34
1000
0010
0100
0001
0010
0200
1300
0000
,  // measure 35
0001
0100
0001
0010
0100
2000
3001
0000
,  // measure 36
1000
0010
0100
0010
1000
0200
0310
0000
,  // measure 37
0001
0010
0100
1000
0100
0020
0031
0000
,  // measure 38
1000
0100
0010
0001
0000
1000
0000
0010
,  // measure 39
0100
0010
1000
0100
0000
0010
0000
0001
,  // measure 40
0010
0100
1000
0010
0000
0100
0000
0001
,  // measure 41
1000
0000
0000
1010
0000
0000
0100
0000
0101
0000
0000
0001
0100
0000
0000
0000
,  // measure 42
0010
1000
0010
1000
0100
0100
0100
0000
,  // measure 43
0010
0000
0000
0001
0000
0000
0010
0000
0100
0000
0000
0010
0100
0000
1000
0000
,  // measure 44
0010
0100
0010
1000
0100
0100
0100
0000
,  // measure 45
0010
0001
0010
0100
1000
1000
1000
1000
,  // measure 46
1000
0010
0100
0001
0010
0100
1000
0000
,  // measure 47
0001
1000
0001
0010
0100
0100
0100
0000
,  // measure 48
0010
0000
0000
0010
0000
0000
0010
0000
0000
0000
1001
0000
0000
0000
0110
0000
,  // measure 49
0100
0000
0000
0100
0000
0000
0100
0000
0000
0000
1100
0000
0000
0000
0011
0000
,  // measure 50
1000
0100
0010
0100
0010
0001
1000
0010
,  // measure 51
0100
0000
0000
0100
0000
0000
0100
0000
0010
0000
0000
0010
0000
0000
0220
0000
,  // measure 52
0000
0330
0000
0000
,  // measure 53
0001
0010
0100
1000
0010
0000
1001
0000
0010
0100
0010
1000
0100
0000
1001
0000
,  // measure 54
0010
1000
0010
0100
0001
0100
0010
0000
1000
0001
1000
0010
0100
0000
0110
0000
,  // measure 55
0001
0010
0001
1000
0100
0000
0110
0000
0001
1000
0001
0010
0100
0000
0110
0000
,  // measure 56
1000
0000
0001
0000
1000
0000
0001
0000
0100
0000
0010
0000
0100
0000
0010
0000
1000
0000
0000
1000
0000
0000
1000
0000
0001
0000
0000
0000
1001
0000
0000
0000
,  // measure 57
0001
0000
1000
0000
0001
0000
0000
0001
0100
0000
0000
0100
0010
0000
0000
0000
,  // measure 58
0010
0000
1000
0000
0100
0000
0000
0100
0010
0000
0000
0010
0001
0000
0000
0000
,  // measure 59
0001
0000
1000
0000
0001
0000
0000
0001
0010
0000
0000
0010
0100
0000
0000
0000
,  // measure 60
0010
0000
0000
0010
0001
0000
0000
0001
0100
0000
0000
0100
0010
0000
0000
0010
,  // measure 61
1000
0001
1000
0010
0100
0100
0100
0000
,  // measure 62
0001
0000
0100
0000
0001
0000
0010
0000
0100
0000
0000
0101
0000
0000
0010
0000
,  // measure 63
1000
0010
0100
0010
0100
0010
1000
0100
,  // measure 64
0010
0001
0010
0100
1000
0001
0100
0010
,  // measure 65
1000
0001
1000
0010
0100
0100
0001
0001
,  // measure 66
0010
0000
0000
0110
0000
0000
0100
0000
1000
0000
1000
0000
1000
0000
1000
0000
,  // measure 67
0002
0000
0000
0000
1003
0000
0000
0000
0010
0000
0000
0010
0100
0000
0000
0000
,  // measure 68
0200
0000
0000
0000
0301
0000
0000
0000
1000
0000
0000
1000
0010
0000
0000
0000
,  // measure 69
0200
0001
1000
0001
,  // measure 70
0310
0000
0000
1010
0000
0000
1000
0000
0001
0000
0000
0101
0000
0000
1001
0000
;
