#TITLE:Apocalypse ~dirge of swans~;
#SUBTITLE:;
#ARTIST:Zektbach;
#TITLETRANSLIT:;
#SUBTITLETRANSLIT:;
#ARTISTTRANSLIT:;
#GENRE:;
#CREDIT:;
#MENUCOLOR:;
#METERTYPE:DDR;
#BANNER:Apocalypse ~dirge of swans~.png;
#BACKGROUND:Apocalypse ~dirge of swans~-bg.png;
#LYRICSPATH:;
#CDTITLE:;
#MUSIC:Apocalypse ~dirge of swans~.mp3;
#OFFSET:-0.039;
#SAMPLESTART:33.914;
#SAMPLELENGTH:12.000;
#SELECTABLE:YES;
#LISTSORT:;
#DISPLAYBPM:170.000;
#BPMS:0.000=85.000,8.000=170.000;
#STOPS:;
#BGCHANGES:0.000=Apocalypse ~dirge of swans~.avi=1.000=1=0=0,
99999=-nosongbg-=1.000=0=0=0 // don't automatically add -songbackground-
;
#ATTACKS:;

//---------------dance-single - ----------------
#NOTES:
     dance-single:
     :
     Hard:
     12:
     0.512,0.682,0.217,0.177,0.056: // measure 1
0000
0000
0000
0000
,  // measure 2
0000
0000
0000
0000
0000
0000
0000
0000
0000
0000
0000
0000
0000
0000
0000
0002
,  // measure 3
2000
0000
0000
0000
,  // measure 4
0000
0000
0000
0000
,  // measure 5
0000
0000
0000
0000
,  // measure 6
0000
0000
3003
0000
,  // measure 7
0010
0000
1000
0000
0001
0100
0000
0100
,  // measure 8
0001
0000
1000
0000
0100
0010
0100
1000
,  // measure 9
0001
0000
0100
0000
0001
1000
0000
1000
,  // measure 10
0001
0000
0100
0000
0010
0100
0001
0100
,  // measure 11
0010
0000
1000
0000
0100
0010
0000
0010
,  // measure 12
0100
0000
1000
0000
0001
0100
1000
0000
,  // measure 13
0100
0001
0010
1000
,  // measure 14
0100
0001
0100
1000
,  // measure 15
0001
1000
0220
0330
,  // measure 16
1001
0000
0000
0010
0100
0000
0001
0000
,  // measure 17
1000
0010
0202
0303
,  // measure 18
1010
0000
0000
0100
0001
0000
1000
0000
,  // measure 19
0001
0010
2200
3300
,  // measure 20
0011
0000
0000
1000
0100
0000
1000
0000
,  // measure 21
0001
0001
1000
1000
,  // measure 22
0010
0100
0001
0000
1000
0010
0100
0001
,  // measure 23
1000
0100
0010
0100
1000
0100
0010
0100
,  // measure 24
1000
0001
0100
0001
1000
0001
0100
0000
,  // measure 25
0010
1000
0100
1000
0010
1000
0100
1000
,  // measure 26
0010
0100
0001
0100
0010
0100
0001
0000
,  // measure 27
1000
0100
0001
0100
1000
0100
0001
0100
,  // measure 28
1000
0010
0100
0010
1000
0010
0100
0000
,  // measure 29
0001
0100
1000
0100
0001
0100
1000
0100
,  // measure 30
0001
0010
0100
0010
0001
0010
0100
0000
,  // measure 31
1000
0100
0010
0001
1000
0010
0100
0001
,  // measure 32
1000
0100
0001
0100
0010
0001
0100
0010
,  // measure 33
0100
0001
0010
0100
1000
0010
0100
0001
,  // measure 34
0100
0001
0010
0100
1000
0100
0010
0001
,  // measure 35
1000
0001
0100
0010
0100
0001
0100
0010
,  // measure 36
1000
0001
0100
1000
0100
0010
1000
0001
,  // measure 37
0100
0001
0010
1000
0010
0001
0100
0010
,  // measure 38
0100
0000
0000
0000
0001
0000
0000
0000
1000
0000
0010
0000
0100
0001
0100
0001
,  // measure 39
0100
0100
0000
0000
0001
0001
0000
0000
,  // measure 40
1000
1000
0000
0000
0010
0010
0000
0000
,  // measure 41
0101
0101
0000
0000
1100
1100
0000
0000
,  // measure 42
1010
1010
0000
0000
0011
0011
0000
0000
,  // measure 43
1000
0000
0000
0001
0010
0100
2000
0000
0000
0000
0000
0000
,  // measure 44
3001
0000
0010
0000
,  // measure 45
0100
0000
1000
0000
,  // measure 46
0010
0000
0100
0000
,  // measure 47
0101
0000
0010
0000
,  // measure 48
1100
1000
0001
0000
,  // measure 49
0110
0000
0001
0000
,  // measure 50
1001
0000
0000
0010
0000
0000
1000
0100
0010
0001
0010
0100
,  // measure 51
1000
0000
0001
0100
0001
0000
1000
0000
,  // measure 52
0010
0000
0100
0001
0100
0000
0010
0000
,  // measure 53
1000
0000
0100
0010
0100
0000
1000
0000
,  // measure 54
0001
0000
1000
0100
1000
0000
0001
0000
,  // measure 55
0110
0000
0010
0100
0001
0000
1000
0000
,  // measure 56
0010
0000
0100
0001
0010
0000
0100
0000
,  // measure 57
1000
0000
0010
1000
0100
0000
0010
0000
,  // measure 58
0001
0000
0100
0001
0010
0000
0100
0000
,  // measure 59
2001
0000
0000
0000
,  // measure 60
3002
0000
0000
0000
,  // measure 61
0203
0000
0000
0000
,  // measure 62
0320
0000
0000
0000
,  // measure 63
2030
0000
0000
0000
,  // measure 64
3002
0000
0000
0000
,  // measure 65
0203
0000
0000
0000
,  // measure 66
0320
0000
0000
0000
,  // measure 67
1030
0100
0010
0001
1000
0100
0010
0001
,  // measure 68
1000
0010
0100
0001
1000
0010
0100
0001
,  // measure 69
1000
0100
0001
0100
1000
0100
0001
0100
,  // measure 70
1000
0010
0001
0010
1000
0010
0001
0010
,  // measure 71
1000
0100
0001
0100
0010
0001
0100
1000
,  // measure 72
0100
0010
1000
0010
0001
1000
0100
0001
,  // measure 73
0010
0100
1000
0001
0010
1000
0001
0100
,  // measure 74
1000
0000
0000
0000
1001
0000
0000
0000
0110
0000
0000
0010
0100
0000
0001
0000
,  // measure 75
1001
0010
1000
0000
0100
0010
1000
0000
,  // measure 76
1100
0010
0001
0000
0100
0010
0001
0000
,  // measure 77
1100
0001
0100
0000
1000
0001
0100
0000
,  // measure 78
0101
1000
0100
0000
0001
1000
0100
0000
,  // measure 79
1010
0100
0001
0000
1000
0100
0001
0000
,  // measure 80
0100
0000
1000
0000
0010
0000
0100
0000
0001
0010
0001
0010
0100
1000
0100
1000
,  // measure 81
0020
0000
2030
0000
,  // measure 82
3002
0000
0203
0000
,  // measure 83
0020
0000
0000
0000
,  // measure 84
0000
0000
0000
0000
,  // measure 85
0000
0000
0000
0330
;

//---------------dance-single - ----------------
#NOTES:
     dance-single:
     :
     Easy:
     5:
     0.261,0.330,0.121,0.161,0.000:
0000
0000
0000
0000
,
0000
0000
0000
0000
,
2002
0000
0000
0000
,
0000
0000
0000
0000
,
0000
0000
0000
0000
,
0000
0000
3003
0000
,
0010
0000
0100
0001
,
0010
0000
0100
0000
,
0100
0000
0100
0100
,
0001
0000
0100
0000
,
0100
0000
0001
0010
,
0200
0000
2300
0000
,
3002
0000
0203
0000
,
0310
0000
0010
0000
,
0100
0001
0101
0000
,
0100
0000
0101
0000
,
1000
0100
1100
0000
,
0100
0000
1100
0000
,
0010
1000
0100
0000
,
0001
0100
0010
0000
,
1000
0000
0001
0000
,
1000
0001
1000
1000
,
0001
0100
0010
0000
,
0001
1000
0100
0000
,
0010
1000
0100
0000
,
0010
0100
0001
0000
,
0010
0001
0100
0000
,
1000
0100
0010
0000
,
0001
0000
0001
0000
,
1000
0000
1000
0000
,
1000
0100
0010
0000
,
0001
0010
0100
0000
,
1000
0001
0100
0000
,
0001
1000
0100
0000
,
0010
0000
0010
0000
,
0100
0001
0010
0000
,
0100
0000
0100
0000
,
0100
1000
0010
0000
,
1001
0000
0100
0000
,
1001
0000
0010
0000
,
1001
0000
0100
0000
,
1001
0000
0010
0000
,
1000
0000
0002
0000
,
0103
0000
0100
0000
,
0002
0000
1003
0000
,
1000
0000
0001
0000
,
1001
0000
0010
0000
,
0100
0010
0110
0000
,
1001
0000
0010
0000
,
0100
0001
0010
0100
,
1000
0001
0001
0000
,
0100
0100
1000
0000
,
0001
0100
0100
0000
,
1000
1000
0001
0000
,
0100
0010
0010
0000
,
0001
0001
0100
0000
,
0010
1000
1000
0000
,
0100
0100
0010
0000
,
1000
0000
0100
0000
,
0010
0000
0001
0000
,
2000
0000
3200
0000
,
0320
0000
0032
0000
,
1003
0000
0010
0000
,
0100
0000
0001
0000
,
2000
0000
3020
0000
,
0230
0000
0302
0000
,
1003
0000
0001
0000
,
1000
0001
1000
0000
,
0001
0000
1000
0000
,
0001
1000
0001
0000
,
1000
0100
0010
0000
,
0001
0010
0100
0000
,
1000
0000
0001
0000
,
1001
0000
0110
0000
,
0010
0000
0100
0000
,
0100
0000
0001
0000
,
0001
0000
0010
0000
,
0010
0000
0100
0000
,
0100
0000
1000
0000
,
1000
0001
1000
0001
,
2001
0000
3020
0000
,
0230
0000
0302
0000
,
0013
0000
0000
0000
;

//---------------dance-single - ----------------
#NOTES:
     dance-single:
     :
     Medium:
     10:
     0.380,0.511,0.185,0.088,0.000:
0000
0000
0000
0000
,
0000
0000
0000
0000
,
2002
0000
0000
0000
,
0000
0000
0000
0000
,
0000
0000
0000
0000
,
0000
0000
3003
0000
,
0001
0000
0100
0000
0001
0100
0000
0100
,
0001
0000
1000
0000
0010
0100
1000
0000
,
0100
0000
0001
0000
0010
0100
0000
0100
,
1000
0000
0001
0000
0100
0010
0001
0000
,
0010
1000
0100
0001
,
0100
1000
0010
0100
,
0001
0010
0100
0000
1000
0100
0010
0000
,
0100
0100
0110
0000
,
0010
0100
0101
0000
,
1100
0000
0101
0000
,
1000
0100
1100
0000
,
0101
0000
1100
0000
,
0010
0100
0101
0000
,
1100
0000
0101
0000
,
1000
0100
0010
0001
,
1000
0100
1000
0000
0001
0100
0001
0000
,
1000
0010
1000
0010
,
1000
0100
0010
0000
1000
0100
0010
0000
,
0001
0100
0001
0100
,
0001
0010
0100
0000
0001
0010
0100
0000
,
1000
0001
1000
0001
,
1000
0001
0100
0000
1000
0001
0100
0000
,
0010
0100
0010
0100
,
0010
1000
0100
0000
0010
1000
0100
0000
,
0010
0001
0010
0001
,
1000
0001
0100
0000
1000
0001
0100
0000
,
0001
1000
0001
1000
,
0010
1000
0100
0000
0010
1000
0100
0000
,
1000
0100
0010
0001
,
1000
0100
0010
0000
0001
0010
0100
0000
,
1000
0000
0001
1000
0001
0000
1000
0000
,
0010
0010
0110
0000
,
1100
0000
0011
0000
,
1010
0000
0101
0000
,
0011
0000
1010
0000
,
1100
0000
0101
0000
,
1001
1000
1000
0000
,
0001
0000
0100
0000
,
0010
0000
0100
0000
,
0001
0000
1000
0000
,
0110
0000
0001
0000
,
1000
0001
0110
0000
,
0001
0000
1000
0000
,
0100
0010
0001
1000
,
0100
1000
1000
0001
,
0100
0001
0001
0010
,
0001
1000
1000
0100
,
0010
0100
0100
1000
,
0001
0100
0100
0010
,
1000
0100
0100
0010
,
0001
1000
1000
0100
,
0010
0001
0001
1000
,
0002
0000
0100
0000
,
0100
0000
0103
0000
,
2000
0000
0100
0000
,
0100
0000
3100
0000
,
0002
0000
0010
0000
,
0010
0000
0013
0000
,
2000
0000
0010
0000
,
0010
0000
3010
0000
,
0001
0100
0001
0000
1000
0100
1000
0000
,
0001
0000
1000
0000
0001
1000
0001
0000
,
1000
0010
1000
0000
0001
0010
0001
0000
,
1000
0000
0010
0000
0100
0001
0010
0000
,
1000
0100
1000
0000
0100
0001
0100
0000
,
0001
0010
0001
0000
0010
1000
0010
0000
,
0100
0001
0010
0100
,
1000
0010
0100
0000
0001
0010
0100
1000
,
0001
1000
0001
1000
,
0010
0100
0010
0100
,
0001
1000
0001
1000
,
0100
0010
0100
0010
,
0100
1000
0001
0000
0100
1000
0001
0000
,
0100
0001
1000
0100
0010
0001
0100
0010
,
2000
0000
3200
0000
,
0320
0000
0032
0000
,
2000
0000
0000
0000
,
0000
0000
0000
0000
,
0000
0000
0000
3003
;

//---------------dance-single - ----------------
#NOTES:
     dance-single:
     :
     Beginner:
     3:
     0.123,0.198,0.000,0.000,0.000:
0000
0000
0000
0000
,
0000
0000
0000
0000
,
1000
0000
0000
0000
,
0000
0000
0000
0000
,
0000
0000
0000
0000
,
0000
0000
0000
0000
,
0010
0000
0010
0000
,
0010
0000
0000
0000
,
0100
0000
0100
0000
,
0100
0000
0000
0000
,
0001
0000
0001
0000
,
0001
0000
0000
0000
,
1000
0000
1000
0000
,
1000
0000
0000
0000
,
0001
0000
0000
0000
,
1000
0000
0000
0000
,
0001
0000
0000
0000
,
1000
0000
0000
0000
,
0010
0000
0000
0000
,
0100
0000
0000
0000
,
0010
0000
0000
0000
,
0000
0000
0000
0000
,
0100
0000
0100
0000
,
0100
0000
0000
0000
,
0001
0000
0001
0000
,
0001
0000
0000
0000
,
1000
0000
1000
0000
,
1000
0000
0000
0000
,
0010
0000
0010
0000
,
0010
0000
0000
0000
,
0100
0000
0100
0000
,
0001
0000
0000
0000
,
0100
0000
0100
0000
,
1000
0000
0000
0000
,
0010
0000
0010
0000
,
0001
0000
0000
0000
,
0010
0000
0010
0000
,
1000
0000
0000
0000
,
0001
0000
0001
0000
,
0001
0000
0001
0000
,
0001
0000
0001
0000
,
0001
0000
0001
0000
,
0001
0000
0000
0000
,
0000
0000
0000
0000
,
1000
0000
0000
0000
,
0000
0000
0000
0000
,
0001
0000
0000
0000
,
1000
0000
0000
0000
,
0001
0000
0000
0000
,
1000
1000
1000
0000
,
1000
0000
0000
0000
,
0001
0000
0000
0000
,
0001
0000
0000
0000
,
1000
0000
0000
0000
,
0010
0000
0000
0000
,
0100
0000
0000
0000
,
0001
0000
0000
0000
,
0100
0000
0000
0000
,
0001
0000
0001
0000
,
0001
0000
0000
0000
,
1000
0000
1000
0000
,
1000
0000
0000
0000
,
0001
0000
0001
0000
,
0001
0000
0000
0000
,
1000
0000
1000
0000
,
1000
0000
0000
0000
,
0001
0000
0001
0000
,
0001
0000
0000
0000
,
0100
0000
0100
0000
,
0100
0000
0000
0000
,
0010
0000
0010
0000
,
0010
0000
0000
0000
,
0100
0000
0100
0000
,
0100
0000
0100
0000
,
0100
0000
0000
0000
,
0001
0000
0000
0000
,
1000
0000
0000
0000
,
0100
0000
0000
0000
,
0010
0000
0000
0000
,
1000
1000
1000
1000
,
1000
0000
1000
0000
,
0001
0000
0001
0000
,
1000
0000
0000
0000
;
