#TITLE:アルストロメリア;
#SUBTITLE:;
#ARTIST:TAG;
#TITLETRANSLIT:Alstroemeria;
#SUBTITLETRANSLIT:;
#ARTISTTRANSLIT:;
#GENRE:;
#CREDIT:;
#MENUCOLOR:;
#METERTYPE:DDR;
#BANNER:Alstroemeria.png;
#BACKGROUND:Alstroemeria-bg.png;
#LYRICSPATH:;
#CDTITLE:cdtitle.png;
#MUSIC:Alstroemeria.mp3;
#OFFSET:-0.443;
#SAMPLESTART:50.467;
#SAMPLELENGTH:13.000;
#SELECTABLE:YES;
#LISTSORT:;
#BPMS:0.000=144.000;
#STOPS:;
#BGCHANGES:;
#ATTACKS:;

//---------------dance-single - ----------------
#NOTES:
     dance-single:
     :
     Hard:
     12:
     0.552,0.554,0.170,0.032,0.389: // measure 1
0000
0000
0000
0000
,  // measure 2
0000
0000
0000
0000
,  // measure 3
0000
0000
0000
0000
,  // measure 4
0000
0000
0000
0000
,  // measure 5
1001
0000
0000
0000
0010
0000
1000
0000
0100
0000
1000
0000
0001
0100
0000
0100
,  // measure 6
0000
0000
0000
0000
0001
0000
0010
0000
0100
0000
1000
0000
0010
0100
0000
0100
,  // measure 7
0000
0000
0000
0000
1000
0000
0001
0000
1001
0000
0000
0000
0010
0000
0000
0110
,  // measure 8
0000
0001
1000
0000
0010
0100
0001
0000
,  // measure 9
1000
0100
0010
0100
1000
0000
0001
1000
,  // measure 10
0010
0100
0001
0100
0010
0000
0100
0000
,  // measure 11
0010
1000
0100
1000
0010
0000
0100
0001
,  // measure 12
1000
0100
1000
0100
0010
0000
0001
0000
,  // measure 13
1000
0001
0100
0001
1000
0000
0010
0100
,  // measure 14
0001
0010
0100
1000
0100
0000
1000
0000
,  // measure 15
0010
0100
0001
0010
0100
0000
1000
0001
,  // measure 16
1000
0010
0001
0010
1000
0000
0001
0000
,  // measure 17
1000
0100
0010
0100
1000
0001
0100
0000
,  // measure 18
0001
1000
0100
0010
0000
0100
1000
0000
,  // measure 19
0001
0100
0001
1000
0010
0100
0001
0000
,  // measure 20
1000
0001
0100
0001
0000
1000
0100
1000
,  // measure 21
0002
0000
0000
1000
1003
0001
0100
0001
,  // measure 22
0000
1000
0010
0000
0100
0001
1000
0000
,  // measure 23
0100
0000
0010
0001
1000
0001
1000
0000
,  // measure 24
0100
0000
0000
0010
0000
0000
0100
0000
0110
0000
0000
0000
0000
0000
0000
0000
,  // measure 25
2000
0000
0000
0001
3001
1000
0100
1000
,  // measure 26
0000
0010
1000
0000
0001
0010
0100
0000
,  // measure 27
1000
0010
0100
1000
0100
0001
1000
0000
,  // measure 28
0001
0000
0000
1000
0000
0000
0001
0000
1001
0000
0000
0000
0110
0000
0000
0000
,  // measure 29
1000
0000
0000
0001
0000
0000
1000
0000
1001
0000
0000
0000
0000
0000
0000
0110
,  // measure 30
0000
0000
0000
0100
0000
0000
0010
0000
0000
1000
0000
0000
0001
0000
1000
0000
0001
0000
1000
0000
0000
0000
0000
0000
,  // measure 31
0001
0000
0000
0100
0000
0000
0001
0000
0000
1000
0000
0000
0010
0000
0100
0000
,  // measure 32
0010
0000
0000
0100
0000
0000
0010
0000
0000
1000
0000
0000
0100
0000
0010
0000
,  // measure 33
0001
0000
0000
1000
0000
0000
0001
0000
0000
0100
0000
0000
0001
0000
0100
0000
,  // measure 34
0110
0000
0000
1001
0000
0000
0001
1000
,  // measure 35
0010
0000
0000
0100
0000
0000
0010
0000
0000
1000
0000
0000
0001
0000
1000
0000
,  // measure 36
0100
0000
0000
1000
0000
0000
0001
0000
0000
0010
0000
0000
0100
0000
1000
0000
,  // measure 37
0001
0000
0000
1000
0000
0000
0010
0000
0000
0100
0000
0000
0001
0000
0010
0000
,  // measure 38
0100
0000
0000
1000
0000
0000
0001
0000
1000
0000
0000
0000
0000
0000
0000
0000
,  // measure 39
0001
0000
0000
0010
0000
0000
0100
0000
1000
0000
0000
0010
0000
0000
0100
0000
,  // measure 40
0001
0000
0000
1000
0000
0000
0100
0000
0010
0000
0000
0100
0000
0000
1000
0000
,  // measure 41
0001
0000
0000
0100
0000
0000
0010
0000
0100
0000
0000
0001
0000
0000
1000
0000
,  // measure 42
0100
0000
0000
0010
0000
0000
0100
0000
1000
0000
0000
0001
0000
0000
0100
0000
,  // measure 43
0001
0000
1000
0100
0000
0000
1000
0000
0010
0000
0100
0001
0000
0000
0100
0000
,  // measure 44
0010
0000
1000
0001
0000
0000
0100
0000
0001
0000
0010
0100
0000
0000
0010
0000
,  // measure 45
0001
0000
1000
0100
0000
0000
0001
0000
0100
0000
1000
0010
0000
0000
0100
0000
,  // measure 46
0001
0000
0000
1000
0000
0000
0010
0000
0100
0000
0000
0001
0000
0000
0010
0000
,  // measure 47
0100
0000
0000
0000
0000
0000
1001
0000
0000
0000
0000
0000
0000
0010
0000
0100
,  // measure 48
0000
0000
0000
1000
0000
0000
0001
0000
0000
0100
0000
0000
0010
0000
0100
0000
0001
0000
1000
0000
0100
0000
0010
0000
,  // measure 49
0001
0000
0000
0010
0001
0000
0000
1000
0010
0000
0100
0000
0001
0000
0010
0000
,  // measure 50
0100
0000
0000
0100
1000
0000
0000
1000
0100
0000
0010
0000
0001
0000
0100
0000
,  // measure 51
0010
0000
0000
0010
0100
0000
0000
0100
0001
0000
1000
0000
0100
0000
0010
0000
,  // measure 52
0110
0000
0000
1001
0000
0000
0010
0100
,  // measure 53
0001
0000
0000
0010
0001
0000
0000
0001
0100
0000
0010
0000
1000
0000
0001
0000
,  // measure 54
0010
0000
0000
0010
0100
0000
0000
1000
0100
0000
0010
0000
0001
0000
0100
0000
,  // measure 55
0010
0000
0000
1000
0010
0000
0000
0100
0010
0000
1000
0000
0001
0000
0010
0000
,  // measure 56
0100
0000
0000
1000
0000
0000
0001
1000
0001
0000
0000
0000
0000
0000
1000
0001
,  // measure 57
1000
0000
0000
0001
1000
0000
0010
0000
0000
1000
0001
0000
0010
0000
0100
0000
,  // measure 58
1000
0000
0000
0100
0010
0000
0100
0000
0000
1000
0001
0000
0100
0000
0001
0000
,  // measure 59
0010
0000
0000
0100
1000
0000
0100
0000
0000
0010
0001
0000
0100
0000
0010
0000
,  // measure 60
0110
0000
0000
1001
0000
0000
0001
1000
,  // measure 61
0100
0000
0000
0010
0001
0000
0010
0000
0100
1000
0000
1000
0010
0000
0100
0000
,  // measure 62
0001
0000
0000
1000
0010
0000
0100
0000
0001
0010
0000
0010
0100
0000
1000
0000
,  // measure 63
0010
0000
0000
0100
0001
0000
1000
0000
0100
0010
0000
0010
0001
0000
1000
0000
,  // measure 64
0001
0000
0000
1000
0000
0000
0001
0000
2002
0000
0000
0000
3003
0000
0000
0000
,  // measure 65
0001
0000
0000
1000
0100
0000
1000
0000
0010
0000
0100
0000
0001
0010
0000
0010
,  // measure 66
0000
0000
0000
0100
1000
0000
0001
0000
0100
0000
0010
0000
1000
0010
0000
0010
,  // measure 67
0000
0000
0000
0100
0001
0000
1000
0000
1001
0000
0000
0000
0000
0000
0000
0110
,  // measure 68
0000
0001
1000
0001
0010
0100
1000
0001
,  // measure 69
1000
0000
0000
0001
0100
0000
0001
0000
0010
0000
0100
0000
1000
0100
0000
0100
,  // measure 70
0000
0000
0000
0010
0100
0000
1000
0000
0001
0000
0100
0000
0010
0100
0000
0100
,  // measure 71
0000
0000
0000
0001
0010
0000
0001
0000
0110
0000
0000
0000
1010
0000
0000
0101
,  // measure 72
0000
0000
0001
0000
0010
0000
0100
0000
1000
0000
0001
0000
0100
0001
0100
0001
,  // measure 73
1000
0010
0000
0000
0000
0000
0000
0000
0000
0000
0000
0000
0000
0000
0000
0000
0000
0000
0000
0000
0000
0000
0000
0000
0000
0000
0000
0000
0000
0000
0000
0000
;

//---------------dance-single - ----------------
#NOTES:
     dance-single:
     :
     Medium:
     8:
     0.359,0.489,0.113,0.276,0.057: // measure 1
0000
0000
0000
0000
,  // measure 2
0000
0000
0000
0000
,  // measure 3
0000
0000
0000
0000
,  // measure 4
0000
0000
0000
0000
,  // measure 5
0001
0000
1000
0000
0001
1000
0100
0000
,  // measure 6
1000
0000
0001
0000
1000
0001
0100
0000
,  // measure 7
0010
0000
1000
0000
0100
0010
0001
0000
,  // measure 8
0010
0100
1000
0001
,  // measure 9
0100
0000
0000
0100
0000
0100
0001
0000
,  // measure 10
0000
0010
0000
0010
0100
0000
1000
0000
,  // measure 11
0001
0000
0000
0100
0000
0010
1000
0000
,  // measure 12
0000
0001
0000
0000
0001
0000
0000
0100
,  // measure 13
0010
0000
0000
0010
0000
0001
0100
0000
,  // measure 14
1000
0000
0001
0000
1000
0100
0000
0000
,  // measure 15
0001
0010
0100
0000
0010
0100
1000
0000
,  // measure 16
0010
0000
0000
0000
0100
0000
0000
0000
0010
0000
0000
0010
0000
0000
0000
0000
,  // measure 17
0001
0100
0010
1000
,  // measure 18
0001
1000
0100
0010
,  // measure 19
1000
0001
0100
0010
,  // measure 20
0001
0000
1000
0000
0001
1000
1001
0000
,  // measure 21
0002
0010
1000
0103
,  // measure 22
2000
0010
0001
3100
,  // measure 23
0020
1000
0100
0031
,  // measure 24
0200
1000
0010
0301
,  // measure 25
1000
0100
1000
0000
0001
0100
0001
0000
,  // measure 26
1000
0100
0010
0001
,  // measure 27
0100
0001
0010
0000
0100
1000
0010
0000
,  // measure 28
0100
0000
0101
0000
,  // measure 29
0010
0000
0000
0000
0000
0000
0000
0000
0010
0000
0000
0000
0000
0000
0000
2002
,  // measure 30
0000
0000
3003
0000
,  // measure 31
0001
0000
1000
0000
0001
0000
1000
0100
,  // measure 32
0010
0000
0100
0000
0010
0000
0100
1000
,  // measure 33
0001
0000
0100
0000
0001
0000
1000
0001
,  // measure 34
0100
0000
0000
0110
0000
0000
0010
1000
,  // measure 35
0100
0000
0010
0000
0100
0000
1000
0001
,  // measure 36
0100
0000
0010
0000
0100
0000
0010
1000
,  // measure 37
0100
0000
1000
0000
0100
0000
1000
0001
,  // measure 38
0100
0110
0010
0110
,  // measure 39
2000
3000
0002
0003
,  // measure 40
0200
0300
0020
0030
,  // measure 41
0002
0003
2000
3000
,  // measure 42
0200
0300
0020
0030
,  // measure 43
2000
3000
0002
0003
,  // measure 44
0200
0300
0020
0030
,  // measure 45
2000
3000
0002
0003
,  // measure 46
0020
0030
0200
0300
,  // measure 47
2000
0000
0000
0002
0000
0000
3003
0000
,  // measure 48
0000
0000
0000
0000
,  // measure 49
1000
0000
0000
1000
0000
0000
1000
0000
0000
0000
1000
0000
0001
0000
0000
0000
,  // measure 50
0001
0000
0000
0001
0000
0000
0001
0000
0000
0000
0001
0000
0100
0000
0000
0000
,  // measure 51
0100
0000
0000
0100
0000
0000
0100
0000
0000
0000
0100
0000
0010
0000
0000
0000
,  // measure 52
0010
0000
0000
0100
0000
0000
0000
0000
,  // measure 53
0010
0000
0000
0010
0000
0000
0010
0000
0000
0000
0010
0000
1000
0000
0000
0000
,  // measure 54
1000
0000
0000
1000
0000
0000
1000
0000
0000
0000
1000
0000
0001
0000
0000
0000
,  // measure 55
0001
0000
0000
0001
0000
0000
0001
0000
0000
0000
0001
0000
0100
0000
0000
0000
,  // measure 56
0100
0000
0000
0100
0000
0000
0100
0000
0010
0000
0000
0000
0000
0000
0000
0000
,  // measure 57
2001
3100
1002
0103
,  // measure 58
2001
3010
1002
0013
,  // measure 59
0100
1000
0010
0100
,  // measure 60
0001
0000
0000
1000
0000
0000
0000
0000
,  // measure 61
0010
0000
0000
0010
0000
0000
0010
0000
0000
0000
0100
0000
0010
0000
0100
0000
,  // measure 62
0001
0000
0000
0001
0000
0000
0001
0000
0000
0000
1000
0000
0001
0000
0010
0000
,  // measure 63
0100
0000
0000
0100
0000
0000
0100
0000
0000
0000
1000
0000
0001
0000
0100
0000
,  // measure 64
0010
0000
0000
1000
0000
0000
0001
0000
0010
0000
0000
0000
0110
0000
0000
0000
,  // measure 65
0002
0100
0100
0103
,  // measure 66
2000
0100
0100
3100
,  // measure 67
0001
0010
0100
1000
,  // measure 68
2002
3003
0011
1100
,  // measure 69
2000
0010
0010
3010
,  // measure 70
0002
0010
0010
0013
,  // measure 71
1000
0000
0000
0000
0001
0000
0000
0000
0100
0000
0000
0000
0000
0000
0000
0100
;

//---------------dance-single - ----------------
#NOTES:
     dance-single:
     :
     Easy:
     5:
     0.213,0.259,0.000,0.057,0.000:
0000
0000
0000
0000
,
0000
0000
0000
0000
,
0000
0000
0000
0000
,
0000
0000
0000
0000
,
1000
0000
1000
1000
,
0100
0000
0100
0100
,
0010
0000
0010
0010
,
0001
0000
1000
0000
,
0001
1000
0100
0000
,
1000
0001
0100
0000
,
0001
1000
0100
0000
,
1000
0001
0100
0000
,
0001
1000
0010
0000
,
1000
0001
0010
0000
,
0001
0100
0010
0000
,
1000
0100
0010
0000
,
0100
1000
0001
0000
,
0100
0010
1000
0000
,
0100
0010
0001
0000
,
0010
0100
1000
0000
,
0002
0000
0103
0100
,
2000
0000
3100
0100
,
0020
0000
1030
1000
,
0200
0000
0300
0000
,
0002
0000
0013
0010
,
0200
0000
1300
1000
,
0020
0000
0130
0100
,
0001
1000
0001
0000
,
1000
0001
1000
0000
,
0000
0000
0000
0000
,
0010
1000
0100
1000
,
0010
1000
0100
0000
,
0010
0001
0100
0001
,
0010
0000
0010
0000
,
0100
1000
0001
1000
,
0100
1000
0001
0000
,
1000
0001
0100
0001
,
1000
0001
0100
0000
,
0010
0000
0100
0000
,
0010
0000
1000
0000
,
0001
0000
1000
0000
,
0100
0000
0010
0000
,
0100
0000
1000
0000
,
0001
0000
1000
0000
,
0010
0000
0100
0000
,
0010
0000
1000
0000
,
0100
0000
0000
0100
0000
0000
0000
0000
,
0000
0000
0000
0000
,
1000
0000
0100
0000
,
0010
0000
0001
0000
,
0010
0000
0100
0000
,
1000
0000
0001
0000
,
1000
0000
0001
0000
,
0100
0000
0010
0000
,
0100
0000
0001
0000
,
1000
0000
0000
0000
,
0001
0010
0100
0010
,
0001
0010
0100
0000
,
1000
0100
0010
0100
,
1000
0000
1000
0000
,
0001
1000
0100
1000
,
0001
1000
0100
1000
,
0001
0100
0010
0100
,
0001
0000
0001
0000
,
1000
0000
0100
0100
,
0010
0000
0010
0010
,
0001
0000
0001
0000
,
1000
0000
0000
0000
,
0001
0000
0001
0001
,
0100
0000
0100
0100
,
0010
0000
0010
0000
,
0010
0000
0000
0000
;

//---------------dance-single - ----------------
#NOTES:
     dance-single:
     :
     Challenge:
     9:
     0.337,0.489,0.113,0.259,0.057: // measure 1
0000
0000
0000
0000
,  // measure 2
0000
0000
0000
0000
,  // measure 3
0000
0000
0000
0000
,  // measure 4
0000
0000
0000
0000
,  // measure 5
0001
0000
MMMM
0000
0001
1000
0100
0000
,  // measure 6
1000
0000
MMMM
0000
1000
0001
0100
0000
,  // measure 7
0010
0000
MMMM
0000
0100
0010
0001
0000
,  // measure 8
0010
0100
1000
0001
,  // measure 9
0100
0000
0000
0100
0000
0100
0001
0000
,  // measure 10
0000
0010
0000
0010
0100
0000
1000
0000
,  // measure 11
0001
0000
0000
0100
0000
0010
1000
0000
,  // measure 12
0000
0001
0000
0000
0001
0000
0000
0100
,  // measure 13
0010
0000
0000
0010
0000
0001
0100
0000
,  // measure 14
1000
0000
0001
0000
1000
0100
0000
0000
,  // measure 15
0001
0010
0100
0000
0010
0100
1000
0000
,  // measure 16
0010
0000
0000
0000
0100
0000
0000
0000
0010
0000
0000
0010
0000
0000
0000
0000
,  // measure 17
0001
0100
0010
1000
,  // measure 18
0001
1000
0100
0010
,  // measure 19
1000
0001
0100
0010
,  // measure 20
0001
0000
1000
0000
0001
1000
1001
0000
,  // measure 21
0002
0010
1003
MMMM
,  // measure 22
2000
0010
3001
MMMM
,  // measure 23
0020
1000
0130
MMMM
,  // measure 24
0200
1000
0310
MMMM
,  // measure 25
1000
0100
1000
0000
0001
0100
0001
0000
,  // measure 26
1000
0100
0010
MMMM
,  // measure 27
0100
0001
0010
0000
0100
1000
0010
0000
,  // measure 28
0100
MMMM
0101
MMMM
,  // measure 29
0010
0000
0000
0000
MMMM
0000
0000
0000
0010
0000
0000
0000
MMMM
0000
0000
2002
,  // measure 30
0000
0000
3003
MMMM
,  // measure 31
0001
0000
1000
0000
0001
0000
MMMM
0100
,  // measure 32
0010
0000
0100
0000
0010
0000
MMMM
1000
,  // measure 33
0001
0000
0100
0000
0001
0000
MMMM
0001
,  // measure 34
0100
0000
0000
0110
0000
0000
0010
1000
,  // measure 35
0100
0000
0010
0000
0100
0000
MMMM
0001
,  // measure 36
0100
0000
0010
0000
0100
0000
MMMM
1000
,  // measure 37
0100
0000
1000
0000
0100
0000
1000
0001
,  // measure 38
0100
0110
0010
0110
,  // measure 39
2000
3000
0002
0003
,  // measure 40
0200
0300
0020
0030
,  // measure 41
0002
0003
2000
3000
,  // measure 42
0200
0300
MMMM
MMMM
,  // measure 43
2000
3000
0002
0003
,  // measure 44
0200
0300
0020
0030
,  // measure 45
2000
3000
0002
0003
,  // measure 46
0020
0030
MMMM
MMMM
,  // measure 47
2000
0000
0000
0002
0000
0000
3003
0000
,  // measure 48
MMMM
MMMM
MMMM
MMMM
,  // measure 49
1000
0000
0000
1000
0000
0000
1000
0000
0000
0000
1000
0000
0001
0000
0000
0000
,  // measure 50
0001
0000
0000
0001
0000
0000
0001
0000
0000
0000
0001
0000
0100
0000
0000
0000
,  // measure 51
0100
0000
0000
0100
0000
0000
0100
0000
0000
0000
0100
0000
0010
0000
0000
0000
,  // measure 52
0010
0000
0000
0100
0000
0000
MMMM
0000
,  // measure 53
0010
0000
0000
0010
0000
0000
0010
0000
0000
0000
0010
0000
1000
0000
0000
0000
,  // measure 54
1000
0000
0000
1000
0000
0000
1000
0000
0000
0000
1000
0000
0001
0000
0000
0000
,  // measure 55
0001
0000
0000
0001
0000
0000
0001
0000
0000
0000
0001
0000
0100
0000
0000
0000
,  // measure 56
0100
0000
0000
0100
0000
0000
0100
0000
0010
0000
0000
0000
MMMM
0000
0000
0000
,  // measure 57
2001
3100
1002
0103
,  // measure 58
2001
3010
1002
0013
,  // measure 59
0100
1000
0010
MMMM
,  // measure 60
0001
0000
0000
1000
0000
0000
MMMM
0000
,  // measure 61
0010
0000
0000
0010
0000
0000
0010
0000
0000
0000
0100
0000
0010
0000
0100
0000
,  // measure 62
0001
0000
0000
0001
0000
0000
0001
0000
0000
0000
1000
0000
0001
0000
0010
0000
,  // measure 63
0100
0000
0000
0100
0000
0000
0100
0000
0000
0000
1000
0000
0001
0000
0100
0000
,  // measure 64
0010
0000
0000
1000
0000
0000
0001
0000
0010
0000
0000
0000
0110
0000
0000
0000
,  // measure 65
0002
0100
0100
0103
,  // measure 66
2000
0100
0100
3100
,  // measure 67
0001
0010
0100
MMMM
,  // measure 68
2002
3003
0011
1100
,  // measure 69
2000
0010
0010
3010
,  // measure 70
0002
0010
0010
0013
,  // measure 71
1000
0000
0000
0000
0001
0000
0000
0000
0100
0000
0000
0000
MMMM
0000
0000
0100
;

//---------------dance-single - ----------------
#NOTES:
     dance-single:
     :
     Beginner:
     1:
     0.097,0.144,0.024,0.032,0.000:
0000
0000
0000
0000
,
0000
0000
0000
0000
,
0000
0000
0000
0000
,
0000
0000
0000
0000
,
1000
0000
0000
0000
,
0000
0000
0000
0000
,
0001
0000
0000
0000
,
0000
0000
0000
0000
,
0100
0000
0000
0000
,
0100
0000
0000
0000
,
0010
0000
0010
0000
,
1000
0000
1000
0000
,
0001
0000
0001
0000
,
1000
0000
1000
0000
,
0010
0000
0010
0000
,
0100
0000
0100
0000
,
0001
0000
0001
0000
,
1000
0000
1000
0000
,
0010
0000
0010
0000
,
0100
0000
0100
0000
,
0002
0000
0003
0000
,
0000
0000
0000
0000
,
2000
0000
3000
0000
,
0000
0000
0000
0000
,
0020
0000
0030
0000
,
0000
0000
0000
0000
,
0200
0000
0300
0000
,
0000
0000
0000
0000
,
1001
0000
0000
0000
,
0000
0000
0000
0000
,
0010
0000
0000
0000
,
0010
0000
0000
0000
,
0100
0000
0000
0000
,
0100
0000
0000
0000
,
1000
0000
0000
0000
,
1000
0000
0000
0000
,
0001
0000
0000
0000
,
0001
0000
0000
0000
,
0010
0000
0000
0000
,
0000
0000
0000
0000
,
0100
0000
0000
0000
,
0000
0000
0000
0000
,
0001
0000
0000
0000
,
0000
0000
0000
0000
,
1000
0000
0000
0000
,
0000
0000
0000
0000
,
1001
0000
0000
0000
,
0000
0000
0000
0000
,
1000
0000
1000
0000
,
0100
0000
0100
0000
,
0010
0000
0010
0000
,
0001
0000
0000
0000
,
0100
0000
0100
0000
,
0010
0000
0010
0000
,
0100
0000
0100
0000
,
0010
0000
0000
0000
,
1000
0000
1000
0000
,
0100
0000
0100
0000
,
0010
0000
0010
0000
,
0001
0000
0000
0000
,
1000
0000
1000
0000
,
0001
0000
0001
0000
,
1000
0000
1000
0000
,
0001
0000
1000
0000
,
1000
0000
0000
0000
,
0000
0000
0000
0000
,
0001
0000
0000
0000
,
0000
0000
0000
0000
,
0100
0000
0000
0000
,
0010
0000
0000
0000
,
0100
0000
0000
0000
,
0110
0000
0000
0000
;
