#TITLE:AKATSUKI;
#SUBTITLE:;
#ARTIST:L.E.D. Vs GUHROOVY;
#TITLETRANSLIT:;
#SUBTITLETRANSLIT:;
#ARTISTTRANSLIT:;
#DISPLAYBPM:187;
#CREDIT:;
#BANNER:AKATSUKI.png;
#BACKGROUND:AKATSUKI-bg.png;
#LYRICSPATH:;
#CDTITLE:cdtitle.png;
#MUSIC:AKATSUKI.mp3;
#OFFSET:-0.438;
#SAMPLESTART:72.166;
#SAMPLELENGTH:12.000;
#SELECTABLE:YES;
#BPMS:0.000=187.237,152.000=93.618,168.000=187.237;
#STOPS:;
#BGCHANGES:;

//---------------dance-single - ----------------
#NOTES:
     dance-single:
     :
     Hard:
     14:
     0.749,0.695,0.160,0.143,0.169: // measure 1
0000
0000
0000
0000
,  // measure 2
0000
0000
0000
0000
,  // measure 3
1000
0100
0010
0100
1000
0100
0010
0100
,  // measure 4
1000
0001
0100
0001
1000
0001
0100
0000
,  // measure 5
0010
0100
0010
1000
0010
0100
0010
1000
,  // measure 6
0001
0010
0100
0010
0001
0010
0100
0000
,  // measure 7
1000
0001
0010
0001
1000
0001
0010
0001
,  // measure 8
0100
0010
1000
0010
0100
0010
1000
0000
,  // measure 9
0011
0100
1100
0010
,  // measure 10
0001
0100
1000
0100
0001
1000
0100
0000
,  // measure 11
1000
0001
0000
1000
0001
0100
0010
1000
,  // measure 12
0100
0010
0000
0001
1000
0001
0010
0100
,  // measure 13
0000
1000
0000
0010
0100
0001
1000
0001
,  // measure 14
0010
0000
0100
0000
0000
0000
1000
0000
0001
0000
0000
0001
0000
0000
0001
0000
,  // measure 15
1000
0010
0000
0100
0001
0100
0010
1000
,  // measure 16
0100
0010
0000
0100
0010
0000
0100
1000
,  // measure 17
0010
0100
0000
0001
0010
0100
1000
0001
,  // measure 18
1000
0001
1000
0000
0001
0000
0010
0000
0100
0000
0000
0000
1001
0000
0000
0000
,  // measure 19
1000
0100
1000
0100
0000
0010
0001
0100
,  // measure 20
0001
0010
0100
1000
0000
0001
0100
0010
,  // measure 21
0100
0010
1000
0100
0000
1000
0100
0001
,  // measure 22
0100
1000
0010
0100
0000
0001
0100
0010
,  // measure 23
0100
0001
0010
0100
0000
1000
0100
0010
,  // measure 24
0100
1000
0001
0100
0000
0010
0100
0001
,  // measure 25
0010
0100
1000
0001
0000
0100
0001
0100
,  // measure 26
1000
0100
0010
0100
0000
0010
1000
0001
,  // measure 27
0100
0000
0001
0010
0100
1000
0100
0010
,  // measure 28
0001
0000
0100
0001
0010
0000
0100
0000
1000
0000
0100
0000
0010
0000
0010
0000
,  // measure 29
0100
0000
1000
0001
0100
0010
0100
0001
,  // measure 30
1000
0000
0100
1000
0010
0000
0100
0000
0001
0000
0010
0000
0100
0000
0100
0000
,  // measure 31
0010
0000
0001
0100
0001
0100
1000
0100
,  // measure 32
0001
0000
0010
0001
0100
0000
0001
0000
0100
0000
0010
0000
1000
0000
1000
0000
,  // measure 33
0001
0000
1000
0001
0100
0010
0100
0001
,  // measure 34
1000
0000
0001
0100
0010
0000
0100
0000
0001
0000
0010
0000
0100
0000
0100
0000
,  // measure 35
2000
0000
0000
0000
,  // measure 36
0002
0000
0000
3003
,  // measure 37
1000
0001
1000
0001
1000
0001
1000
0001
,  // measure 38
0100
0000
0010
0000
0100
0000
0010
0000
0100
0010
0100
0010
0100
0000
0000
0000
,  // measure 39
1001
0000
1000
0010
0110
0000
0001
0010
,  // measure 40
0100
1000
0001
0100
0110
0000
0001
1000
,  // measure 41
0110
0000
1000
0001
0110
0000
0001
0100
,  // measure 42
1000
0000
0100
0000
0001
0000
0010
0000
0100
0000
0010
0001
1000
0000
0110
0000
,  // measure 43
0010
0001
0100
0001
0010
0100
1000
0000
,  // measure 44
0001
0010
0100
0001
0100
1000
0010
0000
,  // measure 45
0100
0001
0100
0010
1000
0100
0010
0000
,  // measure 46
0001
0100
1000
0000
1000
0100
0001
0000
,  // measure 47
0001
1000
0100
1000
0001
0010
0100
0000
,  // measure 48
1000
0100
0001
0100
0010
0001
0100
0000
,  // measure 49
0010
1000
0010
1000
0001
0100
0010
1000
,  // measure 50
0001
0000
0100
0000
0010
0000
1000
0000
0001
0100
0010
1000
0100
0000
1000
0000
,  // measure 51
2002
0000
0000
3003
,  // measure 52
1000
0000
0001
0100
0001
0000
1000
0000
0100
0010
0100
0000
1000
0000
0000
0000
,  // measure 53
0002
0000
0000
0000
1003
0000
0001
0100
0002
0000
0000
0000
2003
0000
0000
0000
,  // measure 54
3010
0000
0110
0000
1000
0010
0100
0001
,  // measure 55
2000
0000
0000
0000
3001
0000
1000
0100
2000
0000
0000
0000
3002
0000
0000
0000
,  // measure 56
0013
0000
0000
0000
0011
0000
0000
0000
0001
0000
1000
0100
1000
0000
0001
0000
,  // measure 57
0020
0000
0000
0000
0130
0000
1000
0001
2000
0000
0000
0000
3020
0000
0000
0000
,  // measure 58
0130
0000
0000
0000
0110
0000
0000
0000
0010
0000
1000
0001
1000
0000
0010
0000
,  // measure 59
0200
0000
0000
0000
0310
0000
1000
0100
2000
0000
0000
0000
3002
0000
0000
0000
,  // measure 60
0013
0000
0000
0000
0110
0000
0010
0000
0100
0000
1000
0001
1000
0000
0100
0000
,  // measure 61
1000
0000
0100
0000
0010
0000
0001
0100
0001
0000
0010
0000
0100
0000
1000
0000
,  // measure 62
0001
0100
0010
1000
0100
0010
0110
0000
,  // measure 63
0001
0000
1000
0000
0010
0000
0100
0010
0100
0000
0001
0000
1000
0000
0100
0000
,  // measure 64
1000
0010
0100
0001
0010
0100
1001
0000
,  // measure 65
1000
0000
0001
0000
0010
0000
0100
1000
0100
0000
0010
0000
0001
0000
0100
0000
,  // measure 66
0010
1000
0001
0100
0010
0100
1010
0000
,  // measure 67
0010
0000
0100
0000
0001
0000
1000
0010
1000
0000
0001
0000
0010
0000
0001
0000
,  // measure 68
1000
0000
0100
0000
0001
0000
0100
0000
1000
0000
0010
0000
0100
0001
0100
0001
,  // measure 69
0100
0000
0010
1000
0100
0000
0001
0000
0100
0000
0010
0000
0100
0000
1000
0000
,  // measure 70
0010
0000
0100
0001
1000
0000
0100
0000
0001
0000
0100
0000
0010
0000
0100
0000
,  // measure 71
1000
0000
0010
1000
0001
0000
0010
0000
0001
0000
0100
0000
0010
0000
0100
0000
,  // measure 72
0001
0000
1000
0001
0100
0000
0001
0000
1000
0000
0100
0000
0001
0000
0100
0000
,  // measure 73
1000
0000
0010
1000
0100
0000
1000
0000
0010
0000
1000
0000
0010
0000
0100
0000
,  // measure 74
0001
0000
1000
0001
0100
0000
0010
0000
0001
0000
1000
0000
0100
0000
0001
0000
,  // measure 75
0010
0000
0100
1000
0001
0000
0100
0000
0001
0000
0100
0000
1000
0000
0100
0000
,  // measure 76
0001
0000
1000
0001
0010
0000
0001
0000
0010
0000
1000
0000
0010
0000
0001
0000
,  // measure 77
0100
0000
0010
1000
0010
0000
0000
0000
0100
0000
0001
0010
0001
0000
0000
0000
,  // measure 78
1000
0000
0001
0100
0001
0000
0100
0000
0010
0000
1000
0010
1000
0000
0001
0000
,  // measure 79
1001
0000
0000
0000
;

//---------------dance-single - ----------------
#NOTES:
     dance-single:
     :
     Medium:
     11:
     0.482,0.556,0.062,0.080,0.000:
0000
0000
0000
0000
,
0000
0000
0000
0000
,
0000
1000
0000
1000
0000
1000
0000
1000
,
0000
0001
0000
0010
0000
0100
0000
0000
,
0000
0001
0000
0001
0000
0001
0000
0001
,
0000
1000
0000
0010
0000
0100
0000
0000
,
0000
0100
0000
0100
0000
0100
0000
0100
,
0000
0010
0000
0010
0000
0010
0000
0000
,
0100
0001
1000
0010
,
0100
0001
1000
0000
,
1000
0010
0100
0001
,
1000
0000
0100
0000
0010
0001
0000
0010
,
0100
1000
0010
0100
,
0001
0000
1000
0000
0001
1000
0001
0000
,
0010
0100
1000
0010
,
0100
0000
0001
0000
0010
0100
0000
0010
,
0001
1000
0010
0100
,
0001
1000
0001
0000
1000
0000
0001
0000
,
1000
0010
0100
0010
,
1000
0100
0010
0001
,
0100
0010
0001
0010
,
0100
0001
0010
0100
,
1000
0100
0001
0100
,
1000
0010
0001
0010
,
1000
0001
0010
0001
,
0010
0100
1000
0001
,
1000
0000
0010
0100
0010
0000
1000
0000
,
0001
0010
0001
0000
1000
0100
1000
0100
,
1000
0000
0001
0100
0001
0000
1000
0000
,
0010
0100
0010
0000
1000
0001
1000
0001
,
1000
0000
0001
0100
0001
0000
1000
0000
,
0010
1000
0010
0000
0100
0001
0100
0001
,
0100
0000
0010
1000
0010
0000
0100
0000
,
0001
0010
0100
1000
0001
0010
0100
1000
,
0002
0000
0000
0000
,
2000
0000
0000
3003
,
1000
0001
1000
0001
,
1001
0010
1001
0100
,
0002
0000
0013
0100
2000
0000
3100
0010
,
0001
0010
0100
1000
0001
0000
1000
0010
,
0200
0000
0301
0010
0200
0000
1300
0100
,
0010
0001
0010
0100
2000
0000
0000
3000
,
0001
0000
1000
0000
0001
1000
0001
0000
,
1000
0000
0010
0000
0100
0010
0100
0000
,
0001
0000
0010
0000
0100
1000
0100
0000
,
0010
0000
0100
0000
1000
0010
1000
0000
,
0010
0000
0100
0000
0001
0100
0001
0000
,
0010
0000
0001
0000
1000
0010
1000
0000
,
0100
1000
0100
0000
0010
0001
0010
0000
,
0100
1000
0010
0100
0001
0010
0100
0000
,
2002
0000
0000
0000
0000
3003
0000
0000
,
1001
0000
0100
0010
0000
1000
0001
0000
,
1000
0000
0010
0010
0010
0000
0100
0000
,
0001
0010
0100
1000
,
0001
0000
1000
1000
1000
0000
0010
0000
,
0100
0001
0010
0100
,
1000
0000
0001
0001
0001
0000
0010
0000
,
0100
1000
0001
1000
,
0100
0000
0010
0010
0010
0000
0001
0000
,
1000
1001
1001
1001
,
0001
0000
0010
0001
0010
0000
0100
0000
,
1000
0000
0010
0000
0100
0001
0100
0001
,
0100
0000
0010
1000
0010
0000
0100
0000
,
0001
0000
0010
0000
0100
1000
0100
1000
,
0100
0000
0010
0001
0010
0000
0100
0000
,
1000
0000
0010
0000
0100
0001
0100
0001
,
0100
0000
0010
1000
0010
0000
0100
0000
,
0001
0000
0010
0010
0100
0000
1000
0010
,
0100
0000
0001
0100
0010
0000
0100
0000
,
0001
0000
0010
0000
0100
1000
0010
0100
,
0001
0000
1000
0100
0010
0000
0100
0000
,
1000
0000
0001
0000
0100
0010
0100
0001
,
0010
0000
0100
1000
0010
0000
0100
0000
,
0001
0000
0010
0000
0100
1000
0001
1000
,
0010
0000
0100
0001
0010
0000
0100
0000
,
1000
0000
0001
0000
1000
0001
1000
0001
,
0010
0000
0000
0001
1000
0000
0000
0010
,
1000
0000
0010
0000
0100
0001
1000
0100
,
0010
0000
0000
0000
;

//---------------dance-single - ----------------
#NOTES:
     dance-single:
     :
     Beginner:
     3:
     0.192,0.208,0.027,0.089,0.000:
0000
0000
0000
0000
,
0000
0000
0000
0000
,
0000
0000
0000
0000
,
0000
0000
0000
0000
,
0000
0000
0000
0000
,
0000
0000
0000
0000
,
1000
0000
1000
0000
,
1000
0000
1000
0000
,
0002
0000
0000
0003
,
0000
0000
0000
0000
,
0010
0000
0010
0000
,
0010
0000
0100
0000
,
0001
0000
0001
0000
,
0001
0000
1000
0000
,
0100
0000
0100
0000
,
0100
0000
0010
0000
,
0001
0000
0001
0000
,
1000
0000
0000
0000
,
0001
0000
0001
0000
,
1000
0000
1000
0000
,
0010
0000
0010
0000
,
0100
0000
0100
0000
,
0001
0000
0000
0010
,
0010
0000
0000
0100
,
0100
0000
0000
1000
,
1000
0000
0000
0001
,
0001
0000
0000
0010
,
0010
0000
0000
0100
,
0100
0000
0000
1000
,
1000
0000
1000
0000
,
0002
0000
0000
0000
,
1003
0000
1000
0000
,
2000
0000
0000
0000
,
3001
0000
0001
0000
,
0001
0000
0000
0000
,
1001
0000
0000
0000
,
0220
0000
0000
0000
,
0000
0000
0330
0000
,
0001
0000
0001
0000
,
0001
0000
0001
0000
,
1000
0000
1000
0000
,
1000
0000
1000
0000
,
0010
0010
0010
0000
,
0010
0000
0000
0000
,
0100
0100
0100
0000
,
0100
0000
0000
0000
,
0001
0001
0001
0000
,
0001
0000
0000
0000
,
1000
0000
1000
1000
,
2000
0000
0000
0000
,
3001
0000
0000
0000
,
1001
0000
0000
0000
,
0010
0000
0010
0000
,
0010
0000
0010
0000
,
0100
0000
0100
0000
,
0100
0000
0100
0000
,
0001
0000
0001
0000
,
0001
0000
0001
0000
,
1000
0000
1000
0000
,
1000
0000
1000
1000
,
2000
0000
3001
0001
,
0001
0000
0000
0000
,
0002
0000
1003
1000
,
1000
0000
0000
0000
,
0020
0000
0130
0100
,
0100
0000
0000
0000
,
0200
0000
0310
0010
,
0010
0000
0000
0000
,
1000
0000
1000
0000
,
0001
0000
0001
0001
,
0001
0000
0001
0000
,
1000
0000
1000
1000
,
1000
0000
1000
0000
,
0001
0000
0001
0001
,
0001
0000
0001
0000
,
1000
1000
1000
0000
,
0001
0000
0001
0000
,
0001
0000
0100
0100
,
0100
0000
0000
0000
;

//---------------dance-single - ----------------
#NOTES:
     dance-single:
     :
     Easy:
     7:
     0.328,0.417,0.098,0.071,0.000:
0000
0000
0000
0000
,
0000
0000
0000
0000
,
0000
0000
0000
0000
,
0000
0000
0000
0000
,
0000
0000
0000
0000
,
0000
0000
0000
0000
,
1000
1000
0001
0001
,
1000
0001
1000
0000
,
0020
0000
0130
0000
,
0001
0010
0100
1000
,
0010
0010
0010
0000
,
0100
0000
0110
0000
,
0001
0001
0001
0000
,
1000
0000
1001
0000
,
0010
1000
0100
0000
,
0010
0000
0011
0000
,
0010
0001
0100
0000
,
0010
0000
1100
0000
,
0001
0001
1000
0001
,
1000
1000
0001
0000
,
1000
1000
0001
1000
,
0001
0001
1000
0000
,
0010
1000
0100
0100
,
1000
0010
0100
0000
,
0001
0010
0100
0100
,
0010
0001
0100
0000
,
0020
0000
0130
0100
,
0001
0001
0010
0100
,
2000
0000
3001
0001
,
0100
0100
0010
1000
,
0200
0000
0310
0010
,
0100
0100
1000
0100
,
0002
0000
0103
0100
,
1000
1000
0010
0100
,
0001
0000
0000
0000
,
1000
0000
0000
0000
,
1001
0000
0000
0000
,
0110
0000
0000
0000
,
1000
0000
1000
0000
1000
0000
1000
0100
,
0010
0100
1000
0100
0010
0000
0010
0000
,
0001
0000
0001
0000
0001
0000
0001
1000
,
0100
1000
0001
1000
0200
0000
0300
0000
,
1000
1000
1000
0100
,
0010
0010
0010
0001
,
0100
0100
0100
0010
,
1000
1000
1000
0100
,
0010
0010
0010
0100
,
0001
0001
0001
0100
,
1000
0010
0100
0001
,
1000
0000
0000
0000
,
2002
0000
0000
3003
,
1000
0000
0000
1000
0000
0000
1000
0000
,
0001
0001
0010
0100
,
1000
0010
0100
0000
,
0001
0010
0010
0100
,
1000
0010
0100
0000
,
0001
1000
0100
0010
,
0100
1000
0001
0000
,
0010
0010
0100
1000
,
0001
1000
0001
0000
,
0010
0010
0100
1000
,
0010
0100
0001
0000
,
1000
0001
0010
0100
,
1000
0100
0010
0000
,
0100
0100
0010
0001
,
0100
0010
0100
0000
,
0001
0001
0100
0001
,
0010
0100
1000
0001
,
1001
1000
1000
1000
,
1000
1000
1000
0000
,
0001
0001
0001
0001
,
0001
0001
0001
0000
,
0010
0100
0010
0100
,
1000
0100
0010
0000
,
0100
0010
0100
0010
,
0001
0010
0100
0000
,
1001
0000
0110
0000
,
0001
0010
0100
1000
,
1001
0000
0000
0000
;
