#TITLE:3254 Techno Party;
#SUBTITLE:;
#ARTIST:Audition;
#TITLETRANSLIT:;
#SUBTITLETRANSLIT:;
#ARTISTTRANSLIT:;
#GENRE:;
#CREDIT:;
#MENUCOLOR:;
#METERTYPE:DDR;
#BANNER:3254 Techno Party.png;
#BACKGROUND:3254 Techno Party-bg.png;
#LYRICSPATH:;
#CDTITLE:;
#MUSIC:3254 Techno Party.mp3;
#OFFSET:-0.040;
#SAMPLESTART:72.714;
#SAMPLELENGTH:14.000;
#SELECTABLE:YES;
#LISTSORT:;
#BPMS:0.000=142.000;
#STOPS:;
#BGCHANGES:;
#ATTACKS:;

//---------------dance-single - ----------------
#NOTES:
     dance-single:
     :
     Hard:
     12:
     0.501,0.494,0.049,0.069,0.020:
0000
0000
0000
0000
,
0000
0000
0000
0000
,
0000
0000
0000
0000
,
0000
0000
0000
0000
,
0000
0000
0000
0000
,
0000
0000
0000
0000
,
0010
0000
1000
0000
0001
0100
0010
0000
,
1000
0000
0100
0000
0010
0001
0100
0000
,
0010
0000
1000
0000
0100
0001
0010
0000
,
0001
0000
1000
0000
0010
0100
0010
0100
,
0010
1000
0100
0000
0010
1000
0100
0000
,
0010
0001
0100
0000
0010
0001
0100
0001
,
0010
0100
1000
0000
0010
0100
1000
0000
,
0010
0100
0001
0000
0010
0100
0001
0010
,
0100
1000
0010
0000
0100
1000
0010
0000
,
0100
0001
0010
0000
0100
0001
1000
0100
,
0010
0001
1000
0000
0010
0001
1000
0000
,
0220
0000
0000
0330
,
2000
0000
0010
0000
0100
0100
3100
0000
,
0002
0000
0010
0000
0100
0100
0103
0000
,
2000
0000
0100
0000
0010
0010
3010
0000
,
0002
0000
0100
0000
0010
0010
0013
0001
,
0100
0010
0100
0010
0100
0010
1000
0000
,
0100
0010
0100
0010
0100
0010
0001
0000
,
1100
0000
0101
0000
0001
0010
0100
1000
,
0001
0100
1000
0100
0001
0010
1000
0010
,
0001
0000
0000
0000
,
1000
0100
0010
0100
1000
0001
0000
0001
,
0000
0001
0100
0010
0100
0010
0000
0010
,
1000
0100
0010
0100
1000
0010
0000
0100
,
0000
0010
1000
0001
0010
0100
1000
0001
,
0100
0010
1000
0100
0010
0100
0000
0100
,
0000
1000
0010
0100
0001
0010
0000
0100
,
1000
0001
0100
1000
0100
0001
0000
1000
,
0000
0001
1000
0001
0100
0100
0100
0100
,
0010
1000
0001
0010
0100
1000
0001
0000
,
0100
0001
0010
0100
1000
0001
0100
0000
,
0010
1000
0100
1000
0010
0100
0001
0000
,
0100
1000
0001
0100
0010
0010
0010
0000
,
0100
0001
0010
0100
1000
0001
0100
0000
,
0010
1000
0100
0010
0100
1000
0001
0000
,
0100
0010
0100
0010
1000
0001
1000
0001
,
0200
0000
0000
0300
,
0010
1000
0100
0001
0100
1000
0010
0000
,
0100
0001
0010
1000
0010
0001
0100
0000
,
0010
0001
0010
1000
0100
0010
0001
0000
,
0100
1000
0100
0001
0010
0100
1000
0000
,
0001
0100
0001
0010
0100
1000
0001
0000
,
0100
0010
1000
0100
0010
0001
0100
0000
,
0010
1000
0100
0001
0100
1000
0010
0000
,
0101
0000
1100
0000
0010
0100
0010
0100
,
0010
1000
0100
0001
0100
1000
0010
0100
,
0001
0010
0100
1000
0001
0100
1000
0100
,
0001
0010
0100
1000
0100
0010
0001
0100
,
0010
1000
0100
0001
0100
1000
0010
0100
,
0001
1000
0100
1000
0001
0100
0001
0010
,
0100
1000
0010
1000
0100
0010
0001
0100
,
0010
0000
0010
0000
0010
0100
0010
0100
,
0001
0000
0100
0000
1000
0000
0100
0000
0010
0100
0010
0100
0001
1000
0001
1000
,
0010
0000
0000
0000
;

//---------------dance-single - ----------------
#NOTES:
     dance-single:
     :
     Medium:
     7:
     0.365,0.378,0.020,0.099,0.000:
0000
0000
0000
0000
,
0000
0000
0000
0000
,
0000
0000
0000
0000
,
0000
0000
0000
0000
,
0000
0000
0000
0000
,
0000
0000
0000
0000
,
1000
0100
0010
0010
,
0001
0100
0010
0010
,
1000
0001
0010
0100
,
1000
0000
0001
0000
1000
0001
1000
0001
,
2000
0010
3100
0010
,
0002
0010
0103
0010
,
2000
0100
3010
0100
,
0002
0100
0013
0100
,
2000
0100
3001
0010
,
0002
0100
1003
0010
,
2000
0010
3001
0100
,
1001
0000
0000
0000
,
0010
0010
0100
0001
,
0010
0000
0100
0000
1000
0001
1000
0000
,
0010
0010
0100
0001
,
1000
0000
1000
0000
0100
0010
0100
0000
,
1000
1000
0001
0100
,
0010
0000
0010
0000
0100
0001
0100
0000
,
0010
1000
0001
0100
,
0001
1000
0001
1000
0001
1000
0001
1000
,
0001
0000
0000
0000
,
0010
0000
0010
0000
1000
0001
0000
0001
,
1000
0000
0100
0000
0010
0100
0000
0100
,
1000
0000
0001
0000
0100
0010
0000
0010
,
0100
0001
1000
0001
,
1000
0000
0100
0000
0010
0100
0000
0100
,
1000
0000
0001
0000
0100
0010
0000
0010
,
0100
0000
0001
0000
0010
0100
0000
0100
,
1000
0000
0001
0000
0100
0010
0100
0010
,
0100
0001
0010
0100
,
1000
0010
1000
0000
0001
0010
0001
0000
,
1000
0010
0100
0001
,
0010
0100
0010
0000
0001
0100
0001
0000
,
1000
0001
0010
0100
,
1000
0001
1000
0000
0001
0010
0001
0000
,
1000
0010
0100
0001
,
1001
0000
0000
0000
,
0010
1000
0010
0000
0010
1000
0010
0000
,
0020
1000
0100
0031
,
0100
0001
0100
0000
0100
0001
0100
0000
,
0200
0001
0010
1300
,
0001
0100
0001
0000
1000
0100
1000
0000
,
0020
1000
0100
0031
,
1000
0010
1000
0000
0001
0010
0001
0000
,
0010
0000
0010
0000
0010
0100
0010
0100
,
0010
1000
0010
0000
0100
0000
0010
0000
,
0100
0001
0100
0000
0010
0000
0100
0000
,
0001
1000
0001
0000
1000
0000
0100
0000
,
1000
0001
1000
0000
0001
0000
0100
0000
,
0010
1000
0100
0001
,
0010
1000
0100
0001
,
0010
0000
0010
0000
0010
0100
0010
0100
,
0010
1000
0001
0100
0010
1000
0001
0100
,
0010
0000
0000
0000
;

//---------------dance-single - ----------------
#NOTES:
     dance-single:
     :
     Easy:
     5:
     0.175,0.233,0.010,0.118,0.000:
0000
0000
0000
0000
,
0000
0000
0000
0000
,
0000
0000
0000
0000
,
0000
0000
0000
0000
,
0000
0000
0000
0000
,
0000
0000
0000
0000
,
1000
1000
1000
0000
,
0100
0100
0100
0000
,
0010
0010
0010
0000
,
0001
0001
0001
0000
,
1000
0000
0100
0000
,
1000
0000
0100
0000
,
0010
0000
0001
0000
,
0010
0000
0001
0000
,
1000
0000
0010
0000
,
1000
0000
0010
0000
,
0100
0000
0001
0000
,
0200
0000
0000
0300
,
0100
0000
0001
0000
,
0010
0100
1000
0000
,
0010
0000
0100
0000
,
0001
0010
0100
0000
,
1000
0000
0010
0000
,
0100
0001
0010
0000
,
0100
0100
0100
0000
,
0020
0000
0000
0000
,
0130
0000
0000
0000
,
1000
0000
0100
0000
,
1000
0000
0100
0000
,
0010
0000
0100
0000
,
1000
0000
0001
0000
,
0100
0000
0010
0000
,
0100
0000
0001
0000
,
0100
0000
0010
0000
,
1000
1000
1000
0000
,
0001
0000
0010
0000
,
0100
0000
1000
0000
,
0100
0000
0010
0000
,
0001
0000
0100
0000
,
0010
0000
1000
0000
,
0001
0000
0010
0000
,
0100
0000
1000
0000
,
0002
0000
0000
0003
,
0020
0000
0030
0000
,
0200
0000
0300
0000
,
2000
0000
3000
0000
,
0002
0000
0003
0000
,
0200
0000
0300
0000
,
0020
0000
0030
0000
,
2000
0000
3000
0000
,
0001
0001
0001
0000
,
0001
0000
1000
0100
,
1000
0000
0010
0100
,
0010
0000
1000
0100
,
1000
0000
0001
0100
,
0001
0000
0010
0100
,
0010
0000
0001
1000
,
0001
0001
0001
0000
,
2002
0000
0000
0000
,
3003
0000
0000
0000
;

//---------------dance-single - ----------------
#NOTES:
     dance-single:
     :
     Beginner:
     2:
     0.083,0.116,0.000,0.030,0.000: // measure 1
0000
0000
0000
0000
,  // measure 2
0000
0000
0000
0000
,  // measure 3
0000
0000
0000
0000
,  // measure 4
0000
0000
0000
0000
,  // measure 5
0000
0000
0000
0000
,  // measure 6
0000
0000
0000
0000
,  // measure 7
1000
0000
0000
0000
,  // measure 8
0001
0000
0000
0000
,  // measure 9
0010
0000
0000
0000
,  // measure 10
2000
0000
3000
0000
,  // measure 11
0001
0000
0000
0000
,  // measure 12
1000
0000
0000
0000
,  // measure 13
0001
0000
0000
0000
,  // measure 14
0010
0000
0000
0000
,  // measure 15
0100
0000
0000
0000
,  // measure 16
0100
0000
0000
0000
,  // measure 17
1000
0000
0000
0000
,  // measure 18
0000
0000
0000
0000
,  // measure 19
0001
0000
0000
0000
,  // measure 20
0010
0000
0000
0000
,  // measure 21
0001
0000
0000
0000
,  // measure 22
0010
0000
0010
0000
,  // measure 23
0010
0000
0000
0000
,  // measure 24
0010
0000
0000
0000
,  // measure 25
1000
0000
1000
0000
,  // measure 26
2000
0000
0000
0000
,  // measure 27
3000
0000
0000
0000
,  // measure 28
0001
0000
0000
0000
,  // measure 29
0000
0000
0001
0000
,  // measure 30
0001
0000
0000
0000
,  // measure 31
0000
0000
1000
0000
,  // measure 32
1000
0000
0000
0000
,  // measure 33
0010
0000
0000
0000
,  // measure 34
0000
0000
0010
0000
,  // measure 35
0010
0000
0000
0000
,  // measure 36
0010
0000
0000
0000
,  // measure 37
1000
0000
0000
0000
,  // measure 38
0100
0000
0000
0000
,  // measure 39
0001
0000
0000
0000
,  // measure 40
0010
0000
0000
0000
,  // measure 41
1000
0000
0000
0000
,  // measure 42
0100
0000
0000
0000
,  // measure 43
0000
0000
0000
0000
,  // measure 44
1000
0000
0000
0000
,  // measure 45
1000
0000
0000
0000
,  // measure 46
0100
0000
0000
0000
,  // measure 47
0100
0000
0100
0000
,  // measure 48
0100
0000
0000
0000
,  // measure 49
0010
0000
0000
0000
,  // measure 50
0001
0000
0000
0000
,  // measure 51
1000
0000
1000
0000
,  // measure 52
1000
0000
0000
0000
,  // measure 53
0001
0000
0000
0000
,  // measure 54
0100
0000
0000
0000
,  // measure 55
1000
0000
1000
0000
,  // measure 56
1000
0000
0000
0000
,  // measure 57
0010
0000
0000
0000
,  // measure 58
0001
0000
0001
0000
,  // measure 59
0002
0000
0000
0000
,  // measure 60
0003
0000
0000
0000
;
