#TITLE:SOMEDAY -00.prologue-;
#SUBTITLE:;
#ARTIST:TЁЯRA;
#TITLETRANSLIT:;
#SUBTITLETRANSLIT:;
#ARTISTTRANSLIT:TERRA;
#GENRE:;
#CREDIT:;
#MENUCOLOR:;
#METERTYPE:DDR;
#BANNER:SOMEDAY-00.prologue-.png;
#BACKGROUND:SOMEDAY-00.prologue--bg.png;
#LYRICSPATH:;
#CDTITLE:;
#MUSIC:SOMEDAY -00.prologue-.mp3;
#OFFSET:0.000;
#SAMPLESTART:60.680;
#SAMPLELENGTH:15.000;
#SELECTABLE:YES;
#LISTSORT:;
#BPMS:0.000=170.000,108.000=85.000,132.000=170.000,212.000=85.000,220.000=170.000,252.000=85.000,268.000=84.000,271.000=81.000,272.000=78.000,274.000=75.000,274.500=70.000,275.000=57.500,275.500=45.000;
#STOPS:;
#BGCHANGES:0.000=SOMEDAY_-00prologue-.avi=1.000=0=0=0,
99999=-nosongbg-=1.000=0=0=0 // don't automatically add -songbackground-
;
#ATTACKS:;

//---------------dance-single - ----------------
#NOTES:
     dance-single:
     :
     Beginner:
     3:
     0.173,0.224,0.057,0.041,0.000:
0000
0000
0000
0000
,
0000
0000
0000
0000
,
0000
0000
0000
0000
,
0000
0000
0000
0000
,
0000
0000
0000
0000
,
1000
0000
0000
0000
,
0001
0000
0000
0000
,
1000
0000
0001
0000
,
0010
0000
0100
0000
,
2002
0000
0000
0000
,
3003
0000
0000
0000
,
1000
0000
0001
0000
,
0100
0010
0100
0000
,
0001
0000
1000
0000
,
0100
0000
0000
0000
,
0001
0000
1000
0000
,
0100
0010
0100
0000
,
1000
0000
0001
0000
,
0010
0000
0000
0000
,
1000
0000
0001
0000
,
1000
0001
0100
0000
,
0001
0000
1000
0000
,
0001
1000
0010
0000
,
1000
0000
0100
0000
,
0010
0000
0001
0000
,
0010
0000
0100
0000
,
1001
0000
0000
0000
,
1000
0000
0100
0000
,
0010
0000
0001
0000
,
1000
0000
0001
0000
,
0010
0000
0100
0000
,
1000
0001
0100
0000
,
0010
1000
0001
0000
,
1000
0000
0100
0000
,
0010
0000
0001
0000
,
0010
0000
0100
0000
,
2002
0000
3003
0000
,
0010
1000
0001
0000
,
0010
0000
0001
0000
,
0100
0010
1000
0000
,
0001
0000
0010
0000
,
0001
0100
0010
0000
,
1000
0000
0001
0000
,
0010
0100
1000
0000
,
0100
0000
0010
0000
,
1001
0000
0010
0000
,
0100
0000
1000
0000
,
0100
1000
0010
0000
,
0100
0000
0001
0000
,
1000
0100
0010
0000
,
0001
0000
0100
0000
,
0010
1000
0001
0000
,
0200
0000
0300
0000
,
0010
1000
0001
0000
,
0100
0000
0010
0000
,
0100
0000
0001
0000
,
1000
0000
0010
0000
,
0100
0000
0010
1000
,
0001
0000
0010
0000
,
0110
0000
0001
0000
,
0100
0000
0010
0000
,
1000
0000
0001
0100
,
0010
0000
0100
0000
,
1001
0000
0010
0000
,
0100
0000
0001
0000
,
1000
0000
0001
0000
,
0100
0000
0010
0000
,
1000
0000
0100
0000
,
0010
0001
0010
0100
,
1001
0000
0000
0000
;

//---------------dance-single - ----------------
#NOTES:
     dance-single:
     :
     Easy:
     7:
     0.354,0.477,0.252,0.276,0.000:
0000
0000
0000
0000
,
0000
0000
0000
0000
,
0000
0000
0000
0000
,
0000
0000
0000
0000
,
0000
0000
0000
0000
,
2000
0000
3100
0010
,
0002
0000
0103
0010
,
1000
0010
0100
0001
,
0020
0000
0130
0000
,
2002
0000
0000
0000
,
0000
0000
0000
3003
,
1001
0100
0010
0100
,
1000
0010
0100
0000
,
0001
0010
0100
0010
,
0002
0000
1003
0000
,
1001
0100
0010
0100
,
0001
0010
0100
0000
,
1000
0010
0100
0010
,
2000
0000
3001
0000
,
0100
0010
1000
0001
,
0010
0100
1000
0000
,
0110
0000
0100
0010
,
1000
0001
0020
0000
,
0130
0100
0010
0000
,
0001
0100
0010
1000
,
0002
1000
2000
3003
,
0220
0000
0000
0330
,
1001
0100
0020
0031
,
0100
1000
0020
0130
,
0001
0010
0200
1300
,
0010
0000
0001
0000
2002
0000
0000
3003
,
0100
0010
1000
0000
0002
0000
0013
0100
,
0010
0000
0001
0100
0020
0000
1030
0000
,
1100
0001
0100
0010
,
2000
0000
3001
0010
,
0200
0000
0310
0001
,
2002
0000
0000
3003
,
0110
1000
0010
0100
,
0002
0000
0013
0001
,
0100
0010
1000
0001
,
0020
0000
0130
0000
,
0011
0001
0100
0010
,
2000
0000
3001
0010
,
0100
0010
0001
0100
,
0020
1000
1000
1030
,
1001
0100
0010
0001
,
0200
0000
0310
1000
,
0001
0010
0100
1000
,
0002
0000
1003
0000
,
0110
1000
0010
0100
,
0002
0000
1003
0010
,
0100
0010
1000
0001
,
0010
0010
1001
0110
,
1001
0100
0010
0001
0200
0000
0310
1000
,
0002
0000
0013
0100
0110
0001
1001
0110
,
1001
0010
0100
0001
,
2000
0000
3001
0010
,
0100
0010
0001
0100
,
0010
0010
0110
1001
,
0110
0001
0100
0010
,
1000
0001
0010
0100
,
0010
0001
0100
0010
,
1000
0001
1001
0110
,
1001
1000
0100
0010
0001
0000
0100
0010
,
1000
0000
0001
0010
0200
0310
0110
0000
,
1001
0000
0100
0010
1000
0000
0001
0100
,
0010
0000
0100
0001
1000
0001
1001
0000
,
0110
0000
1000
0001
0100
0000
0010
0100
,
0001
0000
0010
0100
0010
0001
0100
0010
,
1001
0000
0000
0000
;

//---------------dance-single - ----------------
#NOTES:
     dance-single:
     :
     Medium:
     10:
     0.506,0.673,0.358,0.407,0.126: // measure 1
0000
0000
0000
0000
,  // measure 2
0000
0000
0000
0000
,  // measure 3
0000
0000
0000
0000
,  // measure 4
0000
0000
0000
0000
,  // measure 5
0000
0000
0000
0000
,  // measure 6
0200
0000
0000
1000
0000
0000
0320
0000
,  // measure 7
0001
0000
0000
1000
0000
0000
0130
0000
,  // measure 8
0210
1300
0120
0031
,  // measure 9
2000
0000
0000
0001
0002
0000
3003
0000
,  // measure 10
0020
0000
0000
1000
0000
0000
0001
0000
,  // measure 11
0230
0000
0000
1000
0000
0000
0301
0000
,  // measure 12
1000
0100
1000
0000
0001
0100
0001
0000
,  // measure 13
1000
0100
0010
0001
0100
0000
0110
0000
,  // measure 14
0001
0010
0001
0000
1000
0010
1000
0000
,  // measure 15
0002
0000
0013
0100
0100
0000
1100
0000
,  // measure 16
0001
0100
0001
0000
1000
0100
1000
0000
,  // measure 17
0001
0100
0010
1000
0010
0000
0100
0010
,  // measure 18
1000
0000
0010
1000
0000
0001
0010
0001
,  // measure 19
2000
0000
3010
0100
0100
0000
0101
0000
,  // measure 20
1000
0000
0000
0100
0000
0000
1000
0000
0001
0000
0000
0100
0000
0000
0001
0000
,  // measure 21
1000
0000
0000
0100
0000
0000
0010
0000
0001
0000
0000
0000
1000
0000
0001
0000
,  // measure 22
1000
0000
0000
0000
0001
0000
0010
0000
0100
0000
0000
0010
0000
0000
0001
0000
,  // measure 23
1000
0000
0000
0001
0000
0000
0010
0000
0100
0000
0000
0000
1100
0000
0000
0000
,  // measure 24
0001
0000
0000
0100
0000
0000
0001
0000
1000
0000
0000
0100
0000
0000
1000
0000
,  // measure 25
0002
0203
0320
2030
,  // measure 26
3001
0000
0000
0010
0000
0000
0100
0000
1000
0000
0000
0000
0100
0000
0010
0000
,  // measure 27
0001
1000
2002
3003
,  // measure 28
0110
1000
0010
0100
0002
0000
1000
0000
,  // measure 29
1003
0010
0100
0001
0020
0000
0100
0000
,  // measure 30
0130
0010
0001
0100
0020
0000
1030
0001
,  // measure 31
0020
0000
0031
1000
2002
0000
0000
3003
,  // measure 32
0110
0000
1000
0000
0010
0000
0100
0000
0002
0000
0000
1000
0003
0000
0200
0000
,  // measure 33
0320
0000
0000
0001
0030
0000
0200
0000
0320
0000
0000
1000
2000
0000
3030
0000
,  // measure 34
1100
1000
0100
0010
,  // measure 35
0002
0000
0000
0100
0003
0000
0020
0000
,  // measure 36
2030
0000
0010
0010
3000
0000
0110
0000
,  // measure 37
2002
0000
0000
3003
,  // measure 38
0110
1000
0101
0010
,  // measure 39
1100
0000
0001
0100
0000
0010
1000
0010
,  // measure 40
0100
0001
0011
0100
,  // measure 41
1010
0000
0100
0010
0002
0000
0003
0000
,  // measure 42
1010
0100
0011
1000
,  // measure 43
0110
0000
0001
1000
0000
0001
0100
0010
,  // measure 44
1000
0001
0011
0100
,  // measure 45
2010
0100
0002
3003
,  // measure 46
0101
0010
1100
0001
,  // measure 47
0110
0000
1000
0001
0000
0100
0010
0100
,  // measure 48
0001
0010
0110
1000
,  // measure 49
0101
0000
1000
0001
0020
0000
0030
0000
,  // measure 50
1100
0001
0110
1000
,  // measure 51
0011
0000
0100
0010
0000
1000
0001
0010
,  // measure 52
0100
0010
0011
0100
,  // measure 53
1000
0000
0000
0001
0000
0000
1001
0000
0000
0000
0010
0000
0100
0000
0000
0000
,  // measure 54
1010
0000
0100
0000
0010
0000
0001
0000
0200
0000
0000
0010
0300
0000
2000
0000
,  // measure 55
3002
0000
0000
0010
0003
0000
0200
0000
0010
0000
0010
0000
0310
0000
0001
1000
,  // measure 56
0001
0000
0010
0100
0010
0000
0100
0000
,  // measure 57
1000
0000
0010
0100
0010
0000
0100
0000
,  // measure 58
0001
0000
0010
0100
1000
0000
0001
0000
,  // measure 59
1200
1300
0201
0301
,  // measure 60
1001
0000
0100
0010
0100
0000
0010
0000
,  // measure 61
0001
0000
0100
0010
0100
0000
0010
0000
,  // measure 62
1000
0000
0001
0010
0100
0000
0010
0000
,  // measure 63
0021
0031
1020
1030
,  // measure 64
1001
0000
1000
0100
0010
0000
0001
0000
1000
0000
0001
0010
0100
0000
1000
0000
,  // measure 65
0001
0000
1000
0010
0100
0000
0001
0000
0010
0000
0011
0000
1000
0000
1010
0000
,  // measure 66
0100
0000
0010
0001
0100
0000
0001
0000
0010
0000
0100
1000
0010
0000
0100
0000
,  // measure 67
0010
0000
1000
0001
0010
0000
0100
0000
1000
0000
0001
0000
2002
0000
3003
0000
,  // measure 68
0020
0000
0000
1000
1030
0100
0010
0000
0200
0000
0000
1000
1300
0001
0010
0000
,  // measure 69
0200
0000
0000
0010
0310
0001
0100
0000
0010
1000
0001
0100
0001
1000
0010
0100
,  // measure 70
1001
0000
0000
0000
;

//---------------dance-single - ----------------
#NOTES:
     dance-single:
     :
     Hard:
     14:
     0.689,0.813,0.423,0.423,0.260: // measure 1
0000
0000
0000
0000
,  // measure 2
0000
0000
0000
0000
,  // measure 3
0000
0000
0000
0000
,  // measure 4
0000
0000
0000
0000
,  // measure 5
0000
0000
0000
0000
,  // measure 6
0110
0000
1000
0002
0000
0000
0013
0000
,  // measure 7
0100
0000
1000
0020
0000
0000
0130
0000
,  // measure 8
0102
0013
2100
3010
,  // measure 9
0201
0000
0302
1000
2000
0000
3003
0000
,  // measure 10
1000
0100
0010
0001
0010
0001
0010
0001
,  // measure 11
0100
0010
1000
0100
1000
0100
1000
0100
,  // measure 12
0011
0000
0001
0100
0010
1000
0100
0010
,  // measure 13
0002
0100
0103
0001
0201
0000
0310
0100
,  // measure 14
0001
0000
0010
0100
1000
0100
0010
0001
,  // measure 15
2000
0000
0000
0000
3010
0000
1000
0000
1010
0000
0000
0100
0001
0000
0010
0000
,  // measure 16
0011
0000
0010
0100
1000
0010
0100
0001
,  // measure 17
0200
0001
0301
0100
0101
0000
0010
0100
,  // measure 18
1001
0000
0100
1100
0000
0011
0100
0010
,  // measure 19
2000
0000
0000
0000
3100
0000
0010
0000
0001
0000
0000
1000
0100
0010
0100
0010
,  // measure 20
0100
0000
0000
1000
0100
0000
0010
0000
0100
0000
0000
1000
0010
0000
0100
0000
,  // measure 21
0001
0000
0000
0010
0100
0000
0010
0000
0001
0000
0000
0000
1000
0000
0001
0000
,  // measure 22
0100
0000
0000
0000
0010
0000
1000
0000
0001
0000
0000
0010
0001
0000
0100
0000
,  // measure 23
0010
0000
0000
1010
0000
0000
0101
0000
0220
0000
0000
0000
0330
0000
0000
0000
,  // measure 24
1000
0000
0000
0100
1000
0000
0010
0000
0100
0000
0001
0000
1000
0000
0001
0000
,  // measure 25
0012
1000
0203
0010
,  // measure 26
0301
0000
0000
0011
0000
0000
0110
0000
2100
0000
0000
0000
3100
0000
0010
0000
,  // measure 27
0001
0010
0100
2000
0002
0000
3003
0000
,  // measure 28
1100
0000
0100
0000
0010
0000
0001
0000
1000
0010
0100
0001
0020
0000
0030
0000
,  // measure 29
0101
0000
0100
0000
0010
0000
1000
0000
0001
0010
0100
1000
0020
0000
0030
0000
,  // measure 30
0110
0000
0010
0000
1000
0000
0001
0000
0010
0000
0100
0020
0001
0030
0100
0000
,  // measure 31
0010
0000
1000
0200
0010
0300
0001
0000
2001
0000
0000
0001
0002
0000
3003
0000
,  // measure 32
0110
0000
1000
0000
0001
0000
0010
0000
0100
0010
0001
0100
0020
0000
1030
0001
,  // measure 33
0200
0000
0310
1000
0002
0000
0013
0100
2000
0000
3100
0010
0001
0010
0100
1000
,  // measure 34
0001
0200
0001
0300
1000
0200
1000
0300
,  // measure 35
0001
0020
0001
0030
1000
0020
1000
1030
,  // measure 36
1010
0000
0100
0101
0000
0010
0110
0000
,  // measure 37
1001
0000
0000
0000
0110
0000
0000
0000
1001
0000
0000
1000
0001
0100
0001
0100
,  // measure 38
0010
1000
0010
1000
0100
0010
0100
0010
,  // measure 39
0001
0010
0100
1100
0000
1000
0010
0100
,  // measure 40
0001
0010
0001
0010
0100
1000
0100
1000
,  // measure 41
0100
0010
0002
1000
1003
0000
1001
0000
,  // measure 42
0100
0010
0100
0010
0001
0100
0001
0100
,  // measure 43
0010
1000
0001
0011
0000
0100
0010
1000
,  // measure 44
0010
0100
0010
0100
0001
1000
0001
1000
,  // measure 45
0100
0000
0000
0000
0101
0000
0000
0000
1010
0000
0000
0100
0010
0000
0001
0000
,  // measure 46
0100
0010
0100
0010
1000
0100
1000
0100
,  // measure 47
0010
0001
0100
0110
0000
0010
1000
0001
,  // measure 48
0010
0001
0010
0001
0100
0010
0100
0010
,  // measure 49
1000
0001
0020
0100
0130
0000
0110
0000
,  // measure 50
1000
0010
1000
0010
0100
0010
0100
0010
,  // measure 51
1000
0001
0100
0101
0000
0010
1000
0001
,  // measure 52
0010
0001
0010
0001
0100
0010
0100
0010
,  // measure 53
1000
0000
0000
1001
0000
0000
0110
0000
0000
0000
0100
0000
0010
0000
0000
0000
,  // measure 54
1001
0100
0010
0000
0001
0100
0010
0000
0100
0001
2000
0010
3000
0010
0100
0010
,  // measure 55
1000
0001
0010
0000
0100
0010
0001
0000
1001
0000
0110
0000
1001
0000
0100
0010
,  // measure 56
0001
0100
0001
0100
0001
0100
0001
0010
,  // measure 57
0100
1000
0100
1000
0100
1000
0010
0100
,  // measure 58
0001
0010
0001
0101
0000
0100
0010
1000
,  // measure 59
0001
0020
0001
0030
1000
0020
1000
1030
,  // measure 60
1000
0010
1000
0010
1000
0010
0100
0001
,  // measure 61
0010
0100
0010
0100
0010
0100
1000
0100
,  // measure 62
0010
0001
0100
0101
0000
0001
0010
0100
,  // measure 63
1001
0000
0000
0000
0110
0000
0000
0000
1001
0000
0000
1000
0001
0100
0001
0100
,  // measure 64
0010
0000
1000
0002
0100
0003
0010
0000
1000
0000
0001
0020
0100
0030
0100
0000
,  // measure 65
0010
0000
0001
0200
0010
0300
0010
0000
2000
0000
3100
0010
0002
0000
0013
0100
,  // measure 66
1000
0000
0001
0200
0010
0300
1000
0000
0001
0000
0010
0200
0010
0300
0001
0000
,  // measure 67
0100
0000
0010
2000
0001
3000
0010
0000
0100
0000
1000
0000
2002
0000
3003
0000
,  // measure 68
0220
0000
0330
0100
0010
0001
0010
0100
2000
0000
3000
0010
1000
0010
0100
0001
,  // measure 69
0020
0000
0030
0001
0100
0010
1000
0010
0100
0001
0010
0100
1000
0001
0100
0010
,  // measure 70
1001
0000
0000
0000
;

//---------------dance-single - ----------------
#NOTES:
     dance-single:
     :
     Challenge:
     17:
     0.902,1.000,0.439,0.439,0.882: // measure 1
0000
0000
0000
0000
,  // measure 2
0000
0000
0000
0000
,  // measure 3
0000
0000
0000
0000
,  // measure 4
0000
0000
0000
0000
,  // measure 5
0000
0000
0000
0000
,  // measure 6
2200
0000
0000
3300
,  // measure 7
0022
0000
0000
0033
,  // measure 8
2010
3100
0012
0103
,  // measure 9
2001
0000
0000
0001
0002
0000
3003
0000
,  // measure 10
1000
0100
0010
0001
0100
0000
0010
0000
0100
0000
0010
0000
0100
0000
0010
0000
,  // measure 11
1000
0001
1000
0001
1000
0001
1000
0001
,  // measure 12
1001
0100
0010
0001
0100
0010
1000
0001
,  // measure 13
0020
0000
0001
0000
0230
0000
1000
0000
0310
0000
0001
0000
1000
0000
0001
0100
,  // measure 14
0010
0100
0010
1000
0100
0010
0001
0100
,  // measure 15
2010
0000
0010
0000
3020
0000
0100
0000
0130
0000
0001
0100
0001
0000
1000
0000
,  // measure 16
1010
0001
0100
0010
1000
0100
0010
0001
,  // measure 17
0200
0000
0010
0000
0302
0000
0010
0000
1003
0000
0100
0000
0010
0000
0001
0100
,  // measure 18
0001
0011
0011
1001
0000
1100
0110
0011
,  // measure 19
0102
0000
0000
0000
0010
0000
1000
0000
1003
0000
0001
0100
0010
1000
0010
1000
,  // measure 20
0001
0000
0010
0100
0010
0000
0100
0000
1000
0000
0010
0100
0010
0000
0100
0000
,  // measure 21
0001
0000
0100
0010
0100
0000
0010
0000
1000
0000
0001
0100
0001
0100
0010
1000
,  // measure 22
0001
0000
0010
0100
0010
0000
0001
0000
0100
0000
0010
1000
0010
0000
0100
0000
,  // measure 23
0101
0000
0000
0110
0000
0000
1010
0000
1001
0000
0000
0000
0110
0000
1000
0001
,  // measure 24
0100
0000
0010
1000
0010
0000
0100
0000
0001
0000
0010
0000
0100
0000
1000
0001
,  // measure 25
2000
0000
3001
0100
0002
0000
1003
0100
2000
0000
3001
0010
0002
0000
1003
0010
,  // measure 26
1000
0000
0000
0101
0000
0000
1010
0000
1100
0000
0100
0010
0001
0100
0010
1000
,  // measure 27
0001
0010
0100
1000
0001
0100
0010
2000
0002
0000
0000
0000
0000
0000
3003
0000
,  // measure 28
2100
0000
0100
0000
0010
0000
0001
0000
3010
0001
0100
0010
1000
0100
0010
0001
,  // measure 29
0102
0000
0100
0000
0010
0000
1000
0000
0103
1000
0010
0100
0001
0010
0100
1000
,  // measure 30
2010
0000
0100
0000
0010
0000
0001
0000
3100
0010
1000
0001
0010
0100
1000
0001
,  // measure 31
0011
0000
0001
0100
0000
0100
1000
0000
1010
0000
1000
0100
0000
0100
0001
0100
,  // measure 32
0101
0010
0100
0000
1000
0010
0100
0000
0001
0100
0010
1000
0100
0010
0001
0100
,  // measure 33
1100
0000
0100
0001
0010
0000
0100
1000
0010
0100
0001
0010
0100
0001
0100
0010
,  // measure 34
0012
0010
0010
0003
2010
0010
0010
3000
,  // measure 35
0102
0100
0100
0003
2100
0100
0100
3000
,  // measure 36
1002
0000
1000
0000
1000
0000
0003
0000
2001
0000
0001
0000
3001
0000
0001
0100
,  // measure 37
0020
0000
0000
0000
0130
0000
0000
0000
1001
0000
0000
1000
0001
0100
0001
0100
,  // measure 38
0010
0000
1000
0100
1000
0000
0010
0000
0100
0000
0001
0010
0001
0000
0100
0000
,  // measure 39
0010
0000
1000
0100
0010
0000
0001
0010
0100
0000
1000
0010
0100
0001
0100
0010
,  // measure 40
1000
0000
0100
1000
0010
0000
0100
0000
0001
0000
0010
0100
1000
0000
0100
0000
,  // measure 41
0010
0000
0001
0100
0010
0000
1000
0100
0010
0001
0010
0100
1000
0001
0100
0010
,  // measure 42
0100
0000
0001
0010
0001
0000
0100
0000
0010
0000
1000
0100
1000
0000
0010
0000
,  // measure 43
0100
0000
0001
0010
0100
0000
1000
0100
0010
0000
0001
0100
0010
1000
0010
0100
,  // measure 44
0001
0000
1000
0010
1000
0000
0100
0000
0010
0000
0001
0100
0001
0000
0100
0000
,  // measure 45
0010
0000
1000
0010
0100
0000
0001
0100
0010
1000
0100
0010
0001
0010
0100
1000
,  // measure 46
0002
0100
0000
0000
2003
0100
0000
0000
3002
0010
0000
0000
2003
0010
0000
0000
,  // measure 47
3100
0000
0001
0100
0001
0000
0100
0010
0100
0000
0100
0010
1000
0001
0010
0100
,  // measure 48
2000
0100
0000
0000
3002
0100
0000
0000
2003
0010
0000
0000
3002
0010
0000
0000
,  // measure 49
0103
0000
1000
0010
1000
0000
0001
0000
0010
0000
0100
0010
0100
1000
0010
0100
,  // measure 50
0002
0010
0000
0000
0203
1000
0000
0000
0320
0100
0000
0000
0032
1000
0000
0000
,  // measure 51
0013
0000
0100
0010
0100
0000
0010
0001
0100
0000
0010
1000
0100
0000
0010
0001
,  // measure 52
2000
0010
0000
0000
3200
0001
0000
0000
0320
0100
0000
0000
2030
0001
0000
0000
,  // measure 53
3001
0100
0000
0110
0000
0000
1001
0000
0010
0000
0100
0010
1000
0001
1000
0001
,  // measure 54
0100
0020
1000
0030
0100
0020
0001
0030
1000
0010
0100
0002
0010
0003
0001
0100
,  // measure 55
0110
0000
0000
0000
0010
0000
1000
0000
0100
0000
0010
0000
0001
0000
1000
0000
1001
0000
0000
0000
1100
0000
0000
0000
0101
0000
0000
0001
1000
0100
1000
0100
,  // measure 56
1000
0000
0010
0000
1000
0000
0100
0010
0001
0000
0100
0000
0001
0000
0100
0010
,  // measure 57
1000
0000
0001
0010
0100
0000
0100
1000
0010
0000
0010
0100
0001
0000
0001
1000
,  // measure 58
0100
0000
0010
0001
0100
0000
0010
0000
1000
0000
0001
0010
0100
0000
0010
0000
,  // measure 59
0011
0000
0100
0000
0010
0000
1000
0100
0010
0001
0100
0010
1000
0001
0010
0100
,  // measure 60
1000
0000
0001
0000
0100
0000
0010
1000
0100
0000
0010
0000
0001
0000
0100
0010
,  // measure 61
1000
0000
0010
0100
0001
0000
0010
0100
1000
0000
0001
0100
0010
1000
0100
0010
,  // measure 62
0001
0000
0100
0000
0010
0000
1000
0001
1000
0000
0100
0000
0010
0000
0001
1000
,  // measure 63
0001
0000
0010
0001
0100
0010
1000
0100
0010
0001
0010
0001
1000
0010
1000
0010
,  // measure 64
0100
0001
0010
0100
1000
0100
0010
0001
0100
0010
1000
0010
0100
0001
0010
0100
,  // measure 65
1100
0010
0001
0100
0010
1000
0001
0010
0100
0010
0002
0100
0023
1000
0130
0010
,  // measure 66
0011
0000
0100
0010
1000
0001
0010
0100
0010
0001
0100
0010
1000
0010
0100
0001
,  // measure 67
1000
0001
0200
0010
1300
0001
0020
0100
1030
0100
0010
0001
1000
0010
0100
0001
,  // measure 68
0101
0100
0010
1000
0100
0010
0001
1000
1010
0100
0001
0100
0010
1000
0100
0010
,  // measure 69
0011
0100
0010
1000
1100
0010
0001
1000
1010
0100
0010
0001
1100
0010
0101
0010
,  // measure 70
1001
0000
0000
0000
;
