#VERSION:0.83;
#TITLE:☆light ☆night;
#SUBTITLE:;
#ARTIST:愛島セシル (CV\: 鳥海浩輔);
#TITLETRANSLIT:;
#SUBTITLETRANSLIT:;
#ARTISTTRANSLIT:Cecil Aijima (CV\: Kohsuke Toriumi);
#GENRE:MAGIC ELECTRO SWING;
#ORIGIN:;
#CREDIT:Uta no☆Prince-sama♪ Solo Best of Album Aijima Cecil "☆light ☆night" (2019);
#BANNER:stella light stella night.png;
#BACKGROUND:stella light stella night-bg.png;
#PREVIEWVID:;
#JACKET:stella light stella night-jacket.png;
#CDIMAGE:;
#DISCIMAGE:;
#LYRICSPATH:stella light stella night.lrc;
#CDTITLE:;
#MUSIC:stella light stella night.ogg;
#OFFSET:-0.070000;
#SAMPLESTART:78.614998;
#SAMPLELENGTH:15.000000;
#SELECTABLE:YES;
#BPMS:0.000=110.000;
#STOPS:;
#DELAYS:;
#WARPS:;
#TIMESIGNATURES:0.000=4=4;
#TICKCOUNTS:0.000=4;
#COMBOS:0.000=1;
#SPEEDS:0.000=1.000=0.000=0;
#SCROLLS:0.000=1.000;
#FAKES:;
#LABELS:0.000=Song Start,
8.000=Intro,
44.000=Preverse,
60.000=Verse A 1/2,
76.000=Verse A 2/2,
92.000=Verse B 1/2,
108.000=Verse B 2/2,
124.000=Prechorus,
144.000=Chorus,
176.000=Intro reprise,
213.000=Song End;
#BGCHANGES:;
#KEYSOUNDS:;
#ATTACKS:
;

//---------------dance-single - ----------------
#NOTEDATA:;
#CHARTNAME:Hard;
#STEPSTYPE:dance-single;
#DESCRIPTION:;
#CHARTSTYLE:;
#DIFFICULTY:Medium;
#METER:13;
#RADARVALUES:0.540434,0.540797,0.583959,0.448548,0.291979,447.000000,378.000000,69.000000,53.000000,0.000000,0.000000,0.000000,0.000000,0.000000,0.540434,0.540797,0.583959,0.448548,0.291979,447.000000,378.000000,69.000000,53.000000,0.000000,0.000000,0.000000,0.000000,0.000000;
#CREDIT:Riako;
#NOTES:
// measure 0
0000
0000
0000
0000
,  // measure 1
0000
0000
0000
0000
,  // measure 2
1001
2001
0000
0100
0000
0001
0000
3100
,  // measure 3
1001
1002
0000
0100
0000
1000
0000
0103
,  // measure 4
0011
0012
0000
0100
0000
0010
0000
0103
,  // measure 5
1010
2010
0000
0100
0000
0010
0000
3100
,  // measure 6
1000
0000
0100
1000
0000
0000
1000
0000
0000
0000
0000
0000
0001
0000
0100
0001
0000
0000
0001
0000
0000
0000
0000
0000
,  // measure 7
2100
3001
0102
1003
2010
3001
0012
1003
,  // measure 8
0110
0000
0000
0000
,  // measure 9
1001
0000
0000
0000
0000
0000
0001
0000
0000
0100
0000
0000
0010
0000
0000
1000
0000
0000
0100
0000
0010
0000
0000
0000
,  // measure 10
0001
0000
0010
0001
0000
0000
1000
0000
0000
0010
0000
0220
0000
0000
0000
0000
0000
0000
0000
0000
0000
0330
0000
0000
,  // measure 11
1001
2000
0010
3002
1000
0203
0001
0320
,  // measure 12
0100
2030
0010
3002
0010
0103
0010
1000
,  // measure 13
1001
0002
0010
2003
0001
3200
1000
0320
,  // measure 14
0100
0032
0010
2003
0010
3200
0010
1300
,  // measure 15
2001
0000
0000
0001
0000
0000
0000
0000
3010
0000
0000
0120
0000
0000
0000
0001
0000
0000
0000
0000
0000
1030
0000
0000
,  // measure 16
2010
0000
0000
0001
0000
0000
0000
0000
3100
0000
0000
1200
0000
0000
0000
0001
0000
0000
0310
0000
0000
0001
0000
0000
,  // measure 17
1002
0000
0000
1000
0000
0000
0000
0000
0013
0000
0000
0120
0000
0000
0000
1000
0000
0000
0000
0000
0000
0031
0000
0000
,  // measure 18
0012
0000
0000
1000
0000
0000
0000
0000
0103
0000
0000
0201
0000
0000
0000
1000
0000
0000
0010
0000
0000
0301
0000
0000
,  // measure 19
1001
1000
0010
1000
0001
0010
0001
1000
,  // measure 20
0001
0100
1000
0100
0001
0010
0100
1000
,  // measure 21
0001
0010
1000
0001
0100
1000
0001
0100
,  // measure 22
0110
0000
0000
0000
0000
0000
0000
0000
0000
0000
0000
0000
0001
0000
0010
0100
0000
1000
0001
0000
0100
0000
0000
0000
,  // measure 23
0010
0000
0000
1000
0000
0000
0100
0000
0000
1000
0000
0010
0000
0000
0100
0000
0000
0001
0100
0000
0000
0001
0000
0000
,  // measure 24
0010
0000
0000
0001
0000
0000
0100
0000
0000
0010
0000
1000
0000
0000
0001
0010
0000
0001
1000
0000
0000
0100
0000
0000
,  // measure 25
0010
0000
0000
1000
0000
0000
0010
0000
0000
0001
0000
1000
0000
0000
0010
0000
0000
0100
0001
0000
0000
1000
0000
0000
,  // measure 26
2100
0000
0000
3001
0000
0000
0102
0000
0000
1003
0000
0000
2010
0000
0000
3001
0000
0000
0012
0000
0000
1003
0000
0001
,  // measure 27
0010
0000
0000
0001
0000
0000
0100
0000
0000
0001
0000
0010
0000
0000
0100
0000
0000
1000
0100
0000
0000
1000
0000
0000
,  // measure 28
0010
0000
0000
1000
0000
0000
0100
0000
0000
0010
0000
0001
0000
0000
1000
0010
0000
1000
0001
0000
0000
0100
0000
0000
,  // measure 29
0010
0000
0000
0001
0000
0000
0010
0000
0000
1000
0000
0001
0000
0000
0010
0000
0000
0100
1000
0000
0000
0001
0000
0000
,  // measure 30
2000
0000
3000
0020
0000
0030
0200
0000
0300
0002
0000
0003
1001
0000
0000
1000
0000
0001
0000
0000
1000
0001
0000
0000
,  // measure 31
0101
0000
0000
0000
0000
0000
0100
0000
0000
1000
0000
0100
0000
0000
0001
0000
0000
0010
0100
0000
0000
1000
0000
0000
,  // measure 32
1100
0000
0000
1100
0000
0000
0100
0000
0000
0001
0000
0100
0000
0000
1000
0000
0000
0010
0100
0000
0000
0001
0000
0000
,  // measure 33
0011
1100
0000
0000
1010
0101
0000
0000
,  // measure 34
1001
0000
0000
0010
0000
0000
1001
0000
0000
0100
0000
0000
1000
0000
0010
0000
0001
0000
0100
0000
1000
0000
0010
0000
,  // measure 35
0001
0000
0000
0000
0000
0000
0000
0000
0000
0000
0000
0000
1001
0000
0000
0220
0000
0330
0000
0000
2002
0000
3003
0000
,  // measure 36
1000
0000
0000
0100
0000
0000
0001
0000
0000
0100
0000
0000
0010
0000
0000
0100
0000
1000
0100
0000
0000
0010
0000
0000
,  // measure 37
0001
0000
0000
0100
0000
0000
0010
0000
0000
0100
0000
0001
0100
0000
0000
0101
0000
0000
0011
0000
0000
0110
0000
0000
,  // measure 38
0100
0000
0000
0001
0000
0000
1000
0000
0000
0010
0000
0000
0001
0000
0000
1000
0000
0010
0100
0000
0000
0001
0000
0000
,  // measure 39
0010
0000
0000
0100
0000
0000
0010
0000
0000
1000
0000
0010
0001
0000
0000
0011
0000
0000
0110
0000
0000
1100
0000
0000
,  // measure 40
0001
0000
0000
0100
0000
0000
1000
0000
0000
0100
0000
0000
0010
0000
0000
0100
0000
0001
0100
0000
0000
0010
0000
0000
,  // measure 41
1000
0000
0000
0100
0000
0000
0010
0000
0000
0100
0000
1000
0100
0000
0000
1100
0000
0000
1010
0000
0000
0110
0000
0000
,  // measure 42
0100
0000
0000
1000
0000
0000
0001
0000
0000
0010
0000
0000
1000
0000
0000
0001
0000
0010
0100
0000
0000
1000
0000
0000
,  // measure 43
0010
0000
0000
0100
0000
0000
0010
0000
0000
0001
0000
0010
1000
0000
0000
1010
0000
0000
0110
0000
0000
0101
0000
0000
,  // measure 44
1001
0000
0000
0002
0000
0100
0000
0000
0000
0100
0000
0000
1000
0000
0000
0000
0000
0100
0000
0000
0000
0103
0000
0000
,  // measure 45
1001
0000
0000
2000
0000
0100
0000
0000
0000
0100
0000
0000
0001
0000
0000
0000
0000
0100
0000
0000
0000
3100
0000
0000
,  // measure 46
1010
0000
0000
2000
0000
0100
0000
0000
0000
0100
0000
0000
0010
0000
0000
0000
0000
0100
0000
0000
0000
3100
0000
0000
,  // measure 47
0011
0000
0000
0002
0000
0100
0000
0000
0000
0100
0000
0000
0010
0000
0000
0000
0000
0100
0000
0000
0000
0103
0000
0000
,  // measure 48
0001
0000
0100
0001
0000
0000
1001
0000
0000
0000
0000
0000
1000
0000
0100
1000
0000
0000
1001
0000
0000
0000
0000
0000
,  // measure 49
2100
3001
0102
1003
2010
3001
0012
1003
,  // measure 50
0110
0000
0000
0000
,  // measure 51
1001
0000
0000
0000
0000
0000
0001
0000
0000
0100
0000
0000
0010
0000
0000
1000
0000
0000
0100
0000
0010
0000
0000
0000
,  // measure 52
0001
0000
0010
0001
0000
0000
1000
0000
0000
0010
0000
0220
0000
0000
0000
0000
0000
0000
0000
0000
0000
0000
0000
0000
,  // measure 53
0000
0330
0000
0000
;

//---------------dance-single - ----------------
#NOTEDATA:;
#CHARTNAME:Pro;
#STEPSTYPE:dance-single;
#DESCRIPTION:;
#CHARTSTYLE:;
#DIFFICULTY:Hard;
#METER:15;
#RADARVALUES:0.793120,0.833728,0.753222,0.414695,0.960570,656.000000,567.000000,89.000000,49.000000,0.000000,0.000000,0.000000,0.000000,0.000000,0.793120,0.833728,0.753222,0.414695,0.960570,656.000000,567.000000,89.000000,49.000000,0.000000,0.000000,0.000000,0.000000,0.000000;
#CREDIT:Riako;
#NOTES:
// measure 0
0000
0000
0000
0000
,  // measure 1
0000
0000
0000
0000
,  // measure 2
1010
0000
0000
0110
0000
0000
0101
0000
0001
0100
0000
0001
0000
0000
1000
0100
0000
0010
0001
0000
0000
1001
0000
1000
,  // measure 3
0001
0000
0000
0011
0000
0000
0110
0000
0100
1000
0000
0001
1000
0000
0010
1000
0000
0001
0010
0000
0100
1000
0000
0001
,  // measure 4
0010
0000
0000
0110
0000
0000
1100
0000
1000
0100
0000
1000
0000
0000
0001
0100
0000
0010
1000
0000
0000
1001
0000
0001
,  // measure 5
1000
0000
0000
1010
0000
0000
0110
0000
0100
0001
0000
1000
0001
0000
0010
0001
0000
1000
0010
0000
0100
0001
0000
0010
,  // measure 6
0001
0000
0001
0100
0000
0000
0102
0000
0000
0003
0000
0000
1000
0000
1000
0100
0000
0000
2100
0000
0000
3000
0000
0000
,  // measure 7
1000
0000
1000
0100
0000
0000
0001
0000
0001
0100
0000
0000
1000
0010
1000
0001
0010
0001
1000
0010
0100
0001
0010
0100
,  // measure 8
1000
0000
0000
0000
,  // measure 9
1001
0000
0000
0000
0000
0000
0001
0000
0001
0100
0000
0100
0010
0000
0000
1010
0000
0000
1000
0000
2002
0000
3003
0000
,  // measure 10
0001
0000
0010
0001
0000
0000
1000
0000
0000
0010
0000
0120
0000
0000
0100
0000
0000
0100
0000
0000
0130
0010
0000
0000
,  // measure 11
1001
0000
0000
2000
0000
0000
0010
0000
0000
3002
0000
0010
0000
0000
1003
0200
0000
1300
0001
0000
0000
0020
0000
0000
,  // measure 12
0100
0000
0000
0032
0000
0000
0100
0000
0000
2003
0000
3010
0000
0000
1000
0001
0010
0001
1000
0010
0100
0001
0010
0100
,  // measure 13
1000
0000
0000
0002
0000
0000
0010
0000
0000
2003
0000
0010
0000
0000
3001
0200
0000
0301
1000
0000
0000
0020
0000
0000
,  // measure 14
0100
0000
0000
2030
0000
0000
0100
0000
0000
3002
0000
0013
0000
0000
0001
1000
0010
1000
0001
0010
0100
1000
0010
0100
,  // measure 15
0002
0000
0000
0100
0000
0000
1003
0000
0001
0100
0000
0020
0100
0000
0000
1030
0000
0000
0100
0000
0000
1000
0000
0000
,  // measure 16
2100
0000
0000
0001
0000
0000
3100
0000
0010
0001
0000
0200
0010
0000
0310
0100
0000
0000
0101
0000
0000
1001
0000
0000
,  // measure 17
2010
0000
0000
0100
0000
0000
3001
0000
0010
0100
0000
0020
0100
0000
0000
1030
0000
0000
0001
0000
0000
0100
0000
0000
,  // measure 18
0210
0000
0000
0001
0000
0000
1300
0000
0100
0000
0000
0110
0000
0000
0100
0001
0000
0000
0011
0000
0000
0110
0000
0000
,  // measure 19
2100
0000
0000
0100
0000
0000
3001
0000
1000
0100
0000
0020
0100
0000
0000
0031
0000
0000
0100
0000
0000
0001
0000
0000
,  // measure 20
0102
0000
0000
1000
0000
0000
0103
0000
0010
1000
0000
0200
0010
0000
0310
0100
0000
0000
1100
0000
0000
1001
0000
0000
,  // measure 21
0012
0000
0000
0100
0000
0000
1003
0000
0010
0100
0000
0010
0100
0000
0001
0100
0000
0010
1000
0000
0001
0010
0000
0000
,  // measure 22
0110
0000
0000
0000
0000
0000
0000
0000
0000
0000
0000
0000
0010
0000
0001
1000
0000
0010
0100
0000
0110
0000
0000
0100
,  // measure 23
0001
0000
1000
0001
0000
0000
0011
0000
0000
0010
0000
0200
0001
0000
0301
0000
0000
0100
1000
0000
0000
0010
0000
0000
,  // measure 24
0110
0000
0000
0101
0000
0000
0110
0000
0010
0001
0000
0010
1000
0000
0010
0000
0000
1000
0001
0000
0000
0010
0000
0001
,  // measure 25
0100
0000
0010
1000
0000
0000
1010
0000
0000
0101
0000
0001
0000
0000
0010
0100
0000
0010
0001
0000
0000
0100
0000
0000
,  // measure 26
0001
0000
0100
0010
0000
0100
1000
0000
0001
0010
0000
0100
0010
0000
0000
1010
0000
0000
1001
0000
0001
0010
0000
0100
,  // measure 27
1000
0000
0001
1000
0000
0000
1010
0000
0000
0010
0000
0200
1000
0000
1300
0000
0000
0100
0001
0000
0000
0010
0000
0000
,  // measure 28
0110
0000
0000
1100
0000
0000
0110
0000
0010
1000
0000
0010
0001
0000
0010
0000
0000
0001
1000
0000
0000
0010
0000
1000
,  // measure 29
0100
0000
0010
0001
0000
0000
0011
0000
0000
1100
0000
1000
0000
0000
0010
0100
0000
0010
1000
0000
0000
0100
0000
0000
,  // measure 30
0001
0000
0100
0010
0000
0100
1000
0000
0010
0100
0000
0100
0001
0000
0001
1000
0000
1000
0000
0000
0010
0100
0000
0000
,  // measure 31
0101
0000
0000
0000
0000
0000
0100
0000
0000
1000
0000
0100
0000
0000
0001
0000
0000
0010
0100
0000
1000
0100
0010
0001
,  // measure 32
1000
0000
0000
1100
0000
0000
0100
0000
0000
0001
0000
0100
0000
0000
1000
0000
0000
0010
0100
0000
0001
0100
0010
1000
,  // measure 33
0001
0000
0000
0101
0000
0000
0000
0000
1000
0100
0010
0001
1000
0000
0000
1100
0000
0000
0000
0000
0001
0100
0010
1000
,  // measure 34
0001
0000
0010
0100
0000
1000
0001
0000
0100
0010
0000
1000
0001
0010
0100
1000
0001
0100
0010
1000
0100
0010
0001
1000
,  // measure 35
0001
0000
0001
0100
0000
0100
1000
0000
0010
0000
0000
0001
0100
0000
0000
0220
0000
0330
0000
0000
2002
0000
3003
0000
,  // measure 36
0001
0000
0100
0001
0000
0001
0010
0000
0001
0100
0000
0000
0010
0000
0010
1000
0000
1001
0000
0000
0001
0010
0000
0000
,  // measure 37
0110
0000
0000
1100
0000
1000
0001
0000
0000
0101
0000
0001
1000
0000
0100
0010
0000
0000
0110
0000
0000
1001
0000
0000
,  // measure 38
0001
0000
0100
0010
0000
0100
1000
0000
0000
0100
0000
0001
1000
0000
0100
0010
0000
0011
0000
0000
0001
0100
0000
0000
,  // measure 39
0110
0000
0000
1010
0000
1000
0100
0000
0001
0100
0000
0010
0001
0000
0100
0001
0000
0000
0011
0000
0000
1100
0000
0000
,  // measure 40
1000
0000
0100
1000
0000
1000
0010
0000
1000
0100
0000
0000
0010
0000
0010
0001
0000
1001
0000
0000
1000
0010
0000
0000
,  // measure 41
0110
0000
0000
0101
0000
0001
1000
0000
0000
1100
0000
1000
0001
0000
0100
0010
0000
0000
0110
0000
0000
1001
0000
0000
,  // measure 42
1000
0000
0100
0010
0000
0100
0001
0000
0000
0100
0000
1000
0001
0000
0100
0010
0000
1010
0000
0000
1000
0100
0000
0000
,  // measure 43
0110
0000
0000
0011
0000
0001
0100
0000
1000
0100
0000
0010
1000
0000
1000
0100
0000
0100
0010
0000
0010
0001
0000
0000
,  // measure 44
0011
0000
0000
0021
0000
0001
0000
0000
0000
0130
0000
0000
0010
0000
0000
0020
0000
0001
0000
0000
0000
0130
0000
0000
,  // measure 45
1100
0000
0000
1200
0000
1000
0000
0000
0000
0301
0000
0000
0100
0000
0000
0200
0000
0001
0000
0000
0000
1300
0000
0000
,  // measure 46
1010
0000
0000
1020
0000
1000
0000
0000
0000
0130
0000
0000
0010
0000
0000
0020
0000
1000
0000
0000
0000
0130
0000
0000
,  // measure 47
0101
0000
0000
0201
0000
0001
0000
0000
0000
1300
0000
0000
0100
0000
0000
0200
0000
1000
0000
0000
0000
0301
0000
0000
,  // measure 48
1001
0000
1000
0100
0000
0000
1200
0000
0000
1300
0000
0000
1001
0000
0001
0100
0000
0000
0201
0000
0000
0301
0000
0000
,  // measure 49
1000
0000
1000
0100
0000
0000
0001
0000
0001
0100
0000
0000
1000
0010
1000
0001
0010
0001
1000
0010
0100
0001
0010
0100
,  // measure 50
1000
0000
0000
0000
,  // measure 51
1001
0000
0000
0000
0000
0000
1000
0000
1000
0100
0000
0100
0010
0000
0000
0011
0000
0000
0001
0000
2002
0000
3003
0000
,  // measure 52
1000
0000
0010
1000
0000
0000
0001
0000
0000
0010
0000
0220
0000
0000
0000
0000
0000
0000
0000
0000
0000
0000
0000
0000
,  // measure 53
0000
0330
0000
0000
;

//---------------dance-single - ----------------
#NOTEDATA:;
#CHARTNAME:Normal;
#STEPSTYPE:dance-single;
#DESCRIPTION:;
#CHARTSTYLE:;
#DIFFICULTY:Easy;
#METER:8;
#RADARVALUES:0.361498,0.450664,0.380843,0.262358,0.046547,299.000000,254.000000,45.000000,31.000000,0.000000,0.000000,0.000000,0.000000,0.000000,0.361498,0.450664,0.380843,0.262358,0.046547,299.000000,254.000000,45.000000,31.000000,0.000000,0.000000,0.000000,0.000000,0.000000;
#CREDIT:Riako;
#NOTES:
// measure 0
0000
0000
0000
0000
,  // measure 1
0000
0000
0000
0000
,  // measure 2
1001
1000
0000
0001
0000
1000
0000
0001
,  // measure 3
1001
0001
0000
1000
0000
0001
0000
1000
,  // measure 4
0110
0001
0000
1000
0000
0001
0000
1000
,  // measure 5
0110
1000
0000
0001
0000
1000
0000
0001
,  // measure 6
0011
0001
0000
0000
1010
1000
0000
0000
,  // measure 7
1001
0000
0000
0000
0000
0000
0110
0000
0000
0000
0000
0000
1001
0000
0000
1100
0000
0000
1002
0000
0003
0000
0000
0000
,  // measure 8
0101
0000
0000
0000
,  // measure 9
0110
0000
0000
0000
0000
0000
1000
0000
0000
0001
0000
0000
1000
0000
0000
0001
0000
0000
2000
0000
3000
0000
0000
0000
,  // measure 10
0001
0000
0000
1000
0000
0000
0001
0000
0000
0000
0000
0002
0000
0000
0000
0000
0000
0000
0003
0000
0000
0000
0000
0000
,  // measure 11
2000
0100
0000
0001
0000
0100
0000
0020
,  // measure 12
3000
0100
0000
1000
0000
0100
0000
1030
,  // measure 13
0002
0100
0000
1000
0000
0100
0000
0020
,  // measure 14
0003
0100
0000
0001
0000
0100
0000
0031
,  // measure 15
0000
1000
0000
1000
0000
0001
0000
0001
,  // measure 16
0000
1000
0000
1000
0000
0001
0000
0001
,  // measure 17
0000
0100
0000
0100
0000
0010
0000
0010
,  // measure 18
0000
0100
0000
0100
0000
0010
0000
0010
,  // measure 19
1000
0000
0100
0000
0000
1000
0100
0000
,  // measure 20
0001
0000
0100
0000
0000
0001
0100
0000
,  // measure 21
1000
0000
0010
0000
0000
1000
0010
0000
,  // measure 22
1001
0000
0000
0000
0000
0000
0000
0000
0000
0000
0000
0000
0001
0000
0000
0010
0000
0000
0200
0000
0300
0000
0000
0000
,  // measure 23
1000
0100
1000
0100
1000
0000
2200
3300
,  // measure 24
1000
0010
1000
0010
1000
0000
2020
3030
,  // measure 25
0010
0000
0100
0000
0010
0100
0001
0000
,  // measure 26
1002
0003
0210
0300
2001
3000
0120
0030
,  // measure 27
0001
0100
0001
0100
0001
0000
0202
0303
,  // measure 28
0001
0010
0001
0010
0001
0000
0022
0033
,  // measure 29
0010
0000
0100
0000
0010
0100
1000
0000
,  // measure 30
2001
3000
0210
0300
1002
0003
0120
0030
,  // measure 31
0101
0000
0010
0000
0000
0100
0010
0000
,  // measure 32
1100
1000
0010
0000
0000
0100
0010
0000
,  // measure 33
1010
1000
0000
0000
0011
0001
0000
0000
,  // measure 34
1000
0100
0010
0001
1000
0010
0001
0100
,  // measure 35
1000
0000
0000
0000
0000
0000
0000
0000
0000
0000
0000
0000
0000
0000
0000
1001
0000
0000
0000
0000
1001
0000
0000
0000
,  // measure 36
1000
0100
0010
0100
1000
0001
0100
0000
,  // measure 37
0010
1000
0001
0100
0020
1000
1000
1030
,  // measure 38
0001
0010
0100
1000
0010
1000
0100
0000
,  // measure 39
0010
0001
1000
0010
2000
0100
0100
0100
,  // measure 40
3001
0100
0010
0100
0001
1000
0100
0000
,  // measure 41
0010
0001
1000
0100
0020
0001
0001
0031
,  // measure 42
1000
0010
0100
0001
0010
0001
0100
0000
,  // measure 43
0010
1000
0001
0010
0002
0100
0100
0103
,  // measure 44
0101
0000
0000
0000
0000
0001
0000
0000
0000
0000
0000
0000
1000
0000
0000
0000
0000
1000
0000
0000
0000
0000
0000
0000
,  // measure 45
1100
0000
0000
0000
0000
1000
0000
0000
0000
0000
0000
0000
0001
0000
0000
0000
0000
0001
0000
0000
0000
0000
0000
0000
,  // measure 46
0011
0000
0000
0000
0000
0001
0000
0000
0000
0000
0000
0000
1000
0000
0000
0000
0000
1000
0000
0000
0000
0000
0000
0000
,  // measure 47
1010
0000
0000
0000
0000
1000
0000
0000
0000
0000
0000
0000
0001
0000
0000
0000
0000
0001
0000
0000
0000
0000
0000
0000
,  // measure 48
1010
1000
1000
0000
0011
0001
0001
0000
,  // measure 49
1001
0000
0000
0000
0000
0000
0110
0000
0000
0000
0000
0000
1001
0000
0000
0101
0000
0000
2001
0000
3000
0000
0000
0000
,  // measure 50
1100
0000
0000
0000
,  // measure 51
0110
0000
0000
0000
0000
0000
0001
0000
0000
1000
0000
0000
0001
0000
0000
1000
0000
0000
0002
0000
0003
0000
0000
0000
,  // measure 52
1000
0000
0000
0001
0000
0000
1000
0000
0000
0000
0000
2000
0000
0000
0000
0000
0000
0000
0000
0000
0000
0000
0000
0000
,  // measure 53
0000
3000
0000
0000
;

//---------------dance-single - ----------------
#NOTEDATA:;
#CHARTNAME:Easy;
#STEPSTYPE:dance-single;
#DESCRIPTION:;
#CHARTSTYLE:;
#DIFFICULTY:Beginner;
#METER:5;
#RADARVALUES:0.216415,0.312503,0.279285,0.177727,0.000000,179.000000,146.000000,33.000000,21.000000,0.000000,0.000000,0.000000,0.000000,0.000000,0.216415,0.312503,0.279285,0.177727,0.000000,179.000000,146.000000,33.000000,21.000000,0.000000,0.000000,0.000000,0.000000,0.000000;
#CREDIT:Riako;
#NOTES:
// measure 0
0000
0000
0000
0000
,  // measure 1
0000
0000
0000
0000
,  // measure 2
1000
1000
0000
0000
0000
0000
0000
0000
,  // measure 3
0001
0001
0000
0000
0000
0000
0000
0000
,  // measure 4
1000
1000
0000
0000
0000
0000
0000
0000
,  // measure 5
0001
0001
0000
0000
0000
0000
0000
0000
,  // measure 6
1001
0000
0110
0000
,  // measure 7
1001
1100
1001
0101
,  // measure 8
0110
0000
0000
0000
,  // measure 9
0010
0000
0010
0010
,  // measure 10
1000
0000
2002
3003
,  // measure 11
0001
0000
0001
0000
,  // measure 12
0010
1000
0100
0000
,  // measure 13
1000
0000
1000
0000
,  // measure 14
0010
0001
0100
0000
,  // measure 15
2000
3000
2000
3000
,  // measure 16
0002
0003
0002
0003
,  // measure 17
0020
0030
0020
0030
,  // measure 18
0200
0300
0200
0300
,  // measure 19
0000
1001
0001
1000
,  // measure 20
0000
1001
1000
0001
,  // measure 21
0000
0110
0100
0010
,  // measure 22
1001
0000
0020
0030
,  // measure 23
1000
0100
1000
1001
,  // measure 24
0001
0100
0001
1001
,  // measure 25
1000
0010
0100
0001
,  // measure 26
0100
1000
0010
0001
,  // measure 27
0001
0100
0001
1001
,  // measure 28
1000
0100
1000
1001
,  // measure 29
0001
0010
0100
1000
,  // measure 30
0100
0001
0010
1000
,  // measure 31
1001
0100
0000
0100
,  // measure 32
1001
0100
0000
0100
,  // measure 33
0110
0000
1001
0000
,  // measure 34
1001
0011
1001
1010
,  // measure 35
0110
0000
0000
0000
,  // measure 36
0010
0010
0010
0000
,  // measure 37
1000
0001
2000
3001
,  // measure 38
0010
0010
0010
0000
,  // measure 39
0001
1000
0002
1003
,  // measure 40
0010
0100
0010
0000
,  // measure 41
1000
0001
2000
3100
,  // measure 42
0010
0100
0010
0000
,  // measure 43
0001
1000
0002
0103
,  // measure 44
0001
0000
0000
0001
0000
0000
0000
0000
0000
0000
0000
0000
0002
0000
0000
0000
0000
0003
0000
0000
0000
0000
0000
0000
,  // measure 45
0100
0000
0000
0100
0000
0000
0000
0000
0000
0000
0000
0000
0200
0000
0000
0000
0000
0300
0000
0000
0000
0000
0000
0000
,  // measure 46
0010
0000
0000
0010
0000
0000
0000
0000
0000
0000
0000
0000
0020
0000
0000
0000
0030
0000
0000
0000
0000
0000
0000
0000
,  // measure 47
1000
0000
0000
1000
0000
0000
0000
0000
0000
0000
0000
0000
2000
0000
0000
0000
3000
0000
0000
0000
0000
0000
0000
0000
,  // measure 48
1001
0000
0110
0000
,  // measure 49
1001
0101
1001
1100
,  // measure 50
0110
0000
0000
0000
,  // measure 51
0010
0000
0010
0010
,  // measure 52
0001
0000
2002
3003
;
