#VERSION:0.83;
#TITLE:shining stars(Ryu☆&MC Natsack MIX);
#SUBTITLE:;
#ARTIST:Koja Yukino;
#TITLETRANSLIT:;
#SUBTITLETRANSLIT:;
#ARTISTTRANSLIT:;
#GENRE:HAPPY HARDCORE;
#ORIGIN:;
#CREDIT:teranoid overground edition\: Koja Yukino (2006);
#BANNER:;
#BACKGROUND:shining stars(Ryu&MC Natsack MIX)-bg.png;
#PREVIEWVID:;
#JACKET:shining stars(Ryu&MC Natsack MIX)-jacket.png;
#CDIMAGE:;
#DISCIMAGE:;
#LYRICSPATH:;
#CDTITLE:;
#MUSIC:shining stars(Ryu&MC Natsack MIX).ogg;
#OFFSET:-2.690998;
#SAMPLESTART:42.691002;
#SAMPLELENGTH:15.000000;
#SELECTABLE:YES;
#DISPLAYBPM:90.000000:180.000000;
#BPMS:0.000=180.000,
112.000=45.000,
113.000=180.000,
245.000=90.000,
275.000=180.000;
#STOPS:;
#DELAYS:;
#WARPS:;
#TIMESIGNATURES:0.000=4=4;
#TICKCOUNTS:0.000=4;
#COMBOS:0.000=1;
#SPEEDS:0.000=1.000=0.000=0;
#SCROLLS:0.000=1.000;
#FAKES:;
#LABELS:0.000=Song Start;
#BGCHANGES:;
#KEYSOUNDS:;
#ATTACKS:
;

//---------------dance-single - This again!----------------
#NOTEDATA:;
#CHARTNAME:Expert;
#STEPSTYPE:dance-single;
#DESCRIPTION:This again!;
#CHARTSTYLE:;
#DIFFICULTY:Hard;
#METER:13;
#RADARVALUES:0.646956,0.638410,0.187538,0.104188,0.166700,652.000000,625.000000,27.000000,15.000000,80.000000,0.000000,0.000000,0.000000,0.000000,0.646956,0.638410,0.187538,0.104188,0.166700,652.000000,625.000000,27.000000,15.000000,80.000000,0.000000,0.000000,0.000000,0.000000;
#CREDIT:Riakodoadm;
#DISPLAYBPM:90.000000:180.000000;
#NOTES:
// measure 0
0000
0000
0000
0000
,  // measure 1
0000
0000
0000
0000
,  // measure 2
0000
0000
0000
0000
,  // measure 3
0000
0000
0000
0000
,  // measure 4
0000
0000
0000
0000
,  // measure 5
0000
0000
0000
0000
0000
0000
0000
0000
0000
0000
0010
0100
0010
0000
0000
0000
,  // measure 6
1000
1000
0100
0100
0020
0000
0031
0001
,  // measure 7
0100
0100
1000
1000
0100
0100
0001
0001
,  // measure 8
0010
0010
0100
0100
1000
1000
0010
0010
,  // measure 9
0100
0100
0001
0001
0010
0010
0100
0100
,  // measure 10
0001
0001
0100
0100
1000
1000
0010
0010
,  // measure 11
0001
0001
0010
0010
1000
1000
0200
0000
,  // measure 12
0310
0010
0001
0001
1000
0010
0100
0010
,  // measure 13
1000
0000
1001
0000
2002
0000
3003
0000
0000
0000
0000
0001
1000
0000
0001
0000
,  // measure 14
0100
0101
MMMM
1100
,  // measure 15
MMMM
0000
1010
0000
MMMM
0000
0011
0001
,  // measure 16
1000
1100
MMMM
0101
,  // measure 17
MMMM
0000
0000
0000
0011
0000
0000
0000
MMMM
0000
0000
1000
0010
0000
1000
0000
,  // measure 18
0001
0011
MMMM
1010
,  // measure 19
MMMM
0000
1100
0000
MMMM
0000
0101
0001
,  // measure 20
1000
1010
MMMM
0011
,  // measure 21
MMMM
0000
0000
0000
0101
0000
0000
0000
MMMM
0000
0000
1000
0100
0000
1000
0000
,  // measure 22
0010
1010
MMMM
0011
,  // measure 23
MMMM
0000
0101
0000
MMMM
0000
1100
1000
,  // measure 24
0001
0011
MMMM
1010
,  // measure 25
MMMM
0000
0000
0000
1100
0000
0000
0000
MMMM
0000
0000
0001
0100
0000
0001
0000
,  // measure 26
0010
0000
0100
0000
0010
0001
0100
0000
0000
0000
1000
0000
0000
0000
0100
0000
,  // measure 27
0001
0010
0100
1000
0010
0010
0000
0010
,  // measure 28
0000
0000
0000
0000
1000
0000
1000
0000
0001
0000
0001
0000
0100
0000
0000
1000
,  // measure 29
0100
0001
1000
0010
1000
0010
0100
0010
,  // measure 30
0100
0010
0100
0001
0100
0001
1000
0100
,  // measure 31
1000
0001
0010
0001
0010
0001
0010
0100
,  // measure 32
0010
0000
0100
0000
0010
0000
1000
0000
0010
0000
1000
0000
0010
0000
0001
1000
,  // measure 33
0100
0010
0001
1000
0001
1000
0100
1000
,  // measure 34
0100
1000
0100
0010
0100
0010
0100
0001
,  // measure 35
0100
0010
0001
1000
0001
1000
0010
1000
,  // measure 36
0010
0000
1000
0000
0010
0000
0100
0000
0010
0000
0100
0000
0010
0000
0100
0001
,  // measure 37
1000
0001
1000
0010
0100
0010
1000
0010
,  // measure 38
0100
0010
0100
0001
0100
0001
0010
0001
,  // measure 39
1000
0001
0010
0100
0010
0001
0010
0100
,  // measure 40
0010
0001
0100
0010
0100
0010
1000
0010
,  // measure 41
1000
0000
0100
1000
0001
1000
0000
0000
0001
0000
0010
0000
0110
0000
0000
0000
,  // measure 42
0100
0000
1000
0000
0001
1000
0000
0000
0010
0000
0100
0000
0110
0000
0000
0000
,  // measure 43
0010
1000
1001
0000
MMMM
0000
0001
0000
,  // measure 44
MMMM
0010
0100
1000
,  // measure 45
0110
0000
0001
0010
0001
0100
0001
0010
,  // measure 46
0001
0100
0010
1000
0010
0100
0010
1000
,  // measure 47
0001
1000
0010
1000
0100
1000
0010
1000
,  // measure 48
0100
0000
1000
0000
0001
0000
1000
0000
0100
0000
1000
0000
0001
0000
0010
0001
,  // measure 49
1000
0001
1000
0010
1000
0100
1000
0010
,  // measure 50
1000
0100
0010
0001
0010
0100
0010
0001
,  // measure 51
1000
0001
0010
0001
0100
0001
0010
0001
,  // measure 52
0100
0000
0001
0000
1000
0000
0001
0000
0100
0000
0001
0000
1000
0000
0010
1000
,  // measure 53
0001
0010
0100
1000
0010
1000
0100
1000
,  // measure 54
0010
1000
0001
0010
1000
0010
0001
0100
,  // measure 55
1000
0100
0010
0100
0001
0100
0010
0100
,  // measure 56
0001
0000
0100
0000
1000
0000
0100
0000
0001
0000
0100
0000
0010
0000
1000
0001
,  // measure 57
0100
0010
0100
0001
0010
0001
0100
0001
,  // measure 58
0010
0001
1000
0010
0001
0010
1000
0100
,  // measure 59
0001
0100
0010
0100
1000
0100
0010
0100
,  // measure 60
1000
0000
0100
0000
0001
0000
0100
0000
1000
0000
0100
0000
0010
0000
0000
0001
,  // measure 61
0100
0000
0010
0000
2000
0000
0000
0000
0000
0000
3100
0020
0000
0000
0000
0000
,  // measure 62
0030
0000
1000
0010
0001
0000
0100
1000
0000
0100
0000
0001
0000
0010
0100
1000
,  // measure 63
0000
0100
0000
0000
0002
0000
0000
0000
0000
0000
0103
0020
0000
0000
0000
0000
,  // measure 64
0030
0000
0001
0100
1000
0000
0100
0010
0000
1000
0000
0001
0000
0000
0010
0100
,  // measure 65
0000
1000
0000
0000
0002
0000
0000
0000
0000
0000
0103
0020
0000
0000
0000
0000
,  // measure 66
0030
0000
0001
0010
1000
0000
0100
0001
0000
0100
0000
1000
0000
0010
0000
0100
,  // measure 67
0000
0001
0000
0000
2000
0000
0000
0000
0000
0000
3100
0020
0000
0000
0000
0000
,  // measure 68
0030
0000
0001
0100
1000
0000
0100
0010
0000
0000
1000
0001
1000
0000
0001
0000
,  // measure 69
0020
0030
0000
0000
,  // measure 70
0000
0000
0000
0000
0000
0000
1000
0010
,  // measure 71
0001
0010
1000
0010
0001
0010
0100
0001
,  // measure 72
0010
0001
0100
0001
0010
0100
0001
0100
,  // measure 73
1000
0100
0001
0100
1000
0100
0010
0001
,  // measure 74
1000
0000
0001
0000
0100
0000
0010
1000
0001
0000
0100
0000
0010
0000
0001
0000
,  // measure 75
0010
1000
0010
0001
0010
0100
1000
0100
,  // measure 76
0001
0010
0100
0001
0100
1000
0001
0100
,  // measure 77
1000
0100
0001
0100
1000
0100
0010
1000
,  // measure 78
0100
0000
0010
0000
1000
0000
0010
0001
1000
0000
0001
0000
0010
0000
1000
0000
,  // measure 79
0010
0001
0010
1000
0010
0100
0001
0100
,  // measure 80
1000
0010
0100
1000
0100
0001
1000
0100
,  // measure 81
0001
0100
1000
0100
0001
0100
0010
0001
,  // measure 82
0100
0000
0010
0000
0001
0000
0010
1000
0001
0000
1000
0000
0001
0000
0010
0000
,  // measure 83
1000
0010
0001
0010
1000
0010
0100
0001
,  // measure 84
0100
0010
0100
0001
1000
0010
0001
0100
,  // measure 85
1000
0100
0010
1000
0100
0010
0001
0010
,  // measure 86
1000
0000
0010
0000
0100
0000
0010
0001
1000
0000
0100
0000
1000
0000
0010
0000
,  // measure 87
0100
0001
0010
0010
1000
0001
1000
0100
,  // measure 88
0010
0010
1000
0100
0001
0100
0010
0001
,  // measure 89
1000
0010
0100
0100
1000
0010
0001
0010
,  // measure 90
0100
0000
1000
0000
0100
0000
0001
0010
0100
0000
1000
0000
0001
0000
0010
0000
,  // measure 91
0100
1000
0010
0010
0001
1000
0001
0100
,  // measure 92
0010
0010
0001
0100
1000
0100
0010
1000
,  // measure 93
0001
0100
0010
0010
0001
0010
0100
0001
,  // measure 94
0100
1000
0010
0001
1000
0200
0020
0000
,  // measure 95
0000
0000
0000
0000
,  // measure 96
0000
0000
0000
0330
;

//---------------dance-single - ANOTHER 9----------------
#NOTEDATA:;
#CHARTNAME:Difficult;
#STEPSTYPE:dance-single;
#DESCRIPTION:ANOTHER 9;
#CHARTSTYLE:;
#DIFFICULTY:Medium;
#METER:9;
#RADARVALUES:0.532845,0.537608,0.319509,0.187538,0.104188,537.000000,491.000000,46.000000,27.000000,0.000000,0.000000,0.000000,0.000000,0.000000,0.532845,0.537608,0.319509,0.187538,0.104188,537.000000,491.000000,46.000000,27.000000,0.000000,0.000000,0.000000,0.000000,0.000000;
#CREDIT:Riakodoadm;
#DISPLAYBPM:90.000000:180.000000;
#NOTES:
0000
0000
0000
0000
,
0000
0000
0000
0000
,
0000
0000
0000
0000
,
0000
0000
0000
0000
,
0000
0000
0000
0000
,
0000
0000
0000
0110
,
1000
0100
0001
0100
1000
0000
0001
0100
,
0001
0100
0010
0000
0010
1000
0001
0010
,
0100
1000
0001
0000
0100
0001
1000
0000
,
0010
0100
0001
0100
0010
1000
0001
0010
,
0100
1000
0100
0000
0001
0100
0001
0000
,
0010
1000
0010
0000
1000
0010
1000
0000
,
0001
0100
0010
0000
1000
0100
0010
0001
,
0100
0010
0010
0000
0110
0000
0001
1000
,
0001
0101
0100
1100
,
1000
0000
1010
0000
0010
0000
0011
0001
,
1000
1100
0100
0101
,
0001
0000
0000
0000
0011
0000
0000
0000
1000
0000
0000
1000
0010
0000
1000
0000
,
0001
0011
0010
1010
,
1000
0000
1100
0000
0100
0000
0101
0001
,
1000
1010
0010
0011
,
0001
0000
0000
0000
0101
0000
0000
0000
1000
0000
0000
1000
0100
0000
1000
0000
,
0010
1010
0010
0011
,
0001
0000
0101
0000
0100
0000
1100
1000
,
0001
0011
0010
1010
,
1000
0000
0000
0000
1100
0000
0000
0000
0001
0000
0000
0001
0100
0000
0001
0000
,
1000
0010
0100
0001
0000
0100
0000
0100
,
0001
0010
0100
1000
0010
0100
0000
0010
,
0000
0000
0010
0100
0010
0100
0010
0000
,
1001
1000
1000
0100
,
0100
0000
0001
0000
0001
0000
0100
0010
,
0100
0010
0001
0000
0001
0000
0100
0000
,
0100
0000
1000
0000
1000
0000
0100
0010
,
0100
0010
1000
0000
1000
0000
0010
0000
,
0010
0000
0100
0000
0100
0000
0001
0100
,
0010
0100
0001
0000
0001
0000
0010
0000
,
0010
0000
0100
0000
0100
0000
1000
0100
,
0010
0100
1000
0000
0010
0000
0100
0000
,
0001
0000
1000
0000
0010
0000
0100
0001
,
0010
0001
1000
0000
0100
0000
0010
0000
,
0001
0000
1000
0000
0100
0000
0010
0001
,
1000
0100
1100
0000
0010
0000
0101
0000
,
0010
1010
0100
0011
,
0100
1001
0000
0110
,
0000
0011
1010
1100
,
0101
0000
1001
0000
1000
0100
1000
0000
,
0010
2000
0100
0000
3001
0010
0000
0010
,
0001
0100
0000
0010
1000
0001
1000
0100
,
1000
0001
0000
0010
0001
0100
0000
0010
,
1000
0000
1100
0000
0100
0010
0100
0000
,
0010
0002
1000
0000
0103
0010
0000
0010
,
1000
0001
0000
0010
0100
1000
0100
0010
,
0001
0100
0000
0001
0010
0100
0000
1000
,
0010
0000
1010
0000
0001
0100
0001
0000
,
0010
0002
0100
0000
1003
0010
0000
0010
,
1000
0100
0000
0010
0001
1000
0001
0100
,
0001
1000
0000
0010
1000
0100
0000
0010
,
0001
0000
0101
0000
0100
0010
0100
0000
,
0010
2000
0001
0000
3100
0010
0000
0010
,
0001
1000
0000
0010
0100
0001
0100
0010
,
1000
0100
1000
0000
0010
0000
0100
0000
,
0001
0000
0000
0000
2000
0000
0000
0000
0000
0000
3100
0020
0000
0000
0000
0000
,
0030
0000
0001
1000
0001
0000
1000
0100
0000
1000
0000
0010
0000
0100
0010
1000
,
0000
1000
0000
0000
0002
0000
0000
0000
0000
0000
0103
0020
0000
0000
0000
0000
,
0030
0000
1000
0001
1000
0000
0100
0010
0000
0001
0000
0010
0000
0000
0100
1000
,
0000
1000
0000
0000
0002
0000
0000
0000
0000
0000
0103
0020
0000
0000
0000
0000
,
0030
0000
1000
0010
0100
0000
0001
0010
0000
0100
0000
1000
0000
0010
0000
0100
,
0000
0001
0000
0000
2000
0000
0000
0000
0000
0000
3100
0020
0000
0000
0000
0000
,
0030
0000
0001
0100
0010
0000
1000
0010
0000
0000
1000
0001
1000
0000
0001
0000
,
0020
0030
0000
0000
,
0000
0000
0000
2010
,
0001
0000
0010
0000
3100
0020
0001
0000
,
0100
0000
0031
0000
0010
0001
0100
0000
,
0010
1000
0000
1200
0000
0310
0000
0010
,
0001
0100
0000
0001
1000
0000
2010
0000
,
0100
0000
0010
0000
3100
0020
0001
0000
,
1000
0000
0031
0000
0100
0010
1000
0000
,
0100
0010
0000
0012
0000
1003
0000
0001
,
0100
1000
0000
0100
0001
0000
0012
0000
,
1000
0000
0010
0000
0103
0020
1000
0000
,
0100
0000
1030
0000
0010
1000
0100
0000
,
0010
0001
0000
0201
0000
0310
0000
0010
,
1000
0100
0000
1000
0001
0000
0012
0000
,
0100
0000
0010
0000
0103
0020
1000
0000
,
0001
0000
1030
0000
0100
0010
0001
0000
,
0100
0010
0000
2010
0000
3001
0000
1000
,
0100
0001
0000
0100
1000
0001
1000
0010
,
1000
0100
1000
0000
0001
0010
0001
0100
,
0001
0000
1000
0010
0100
0001
1000
0100
,
1000
0001
1000
0000
0001
0100
0001
1000
,
0001
0000
0010
0100
1000
0010
1000
0010
,
1000
0001
0100
0000
0001
0010
0001
1000
,
0100
0000
1000
0010
0001
0010
1000
0010
,
1000
0001
0010
0000
0001
0010
0001
0010
,
0100
0010
0100
1000
0100
2000
0002
0000
,
0000
0000
0000
0000
,
0000
0000
0000
3003
;

//---------------dance-single - ----------------
#NOTEDATA:;
#CHARTNAME:Basic;
#STEPSTYPE:dance-single;
#DESCRIPTION:;
#CHARTSTYLE:;
#DIFFICULTY:Easy;
#METER:5;
#RADARVALUES:0.284780,0.336005,0.055567,0.118079,0.000000,287.000000,279.000000,8.000000,17.000000,0.000000,0.000000,0.000000,0.000000,0.000000,0.284780,0.336005,0.055567,0.118079,0.000000,287.000000,279.000000,8.000000,17.000000,0.000000,0.000000,0.000000,0.000000,0.000000;
#CREDIT:Riakodoadm;
#DISPLAYBPM:90.000000:180.000000;
#NOTES:
0000
0000
0000
0000
,
0000
0000
0000
0000
,
0000
0000
0000
0000
,
0000
0000
0000
0000
,
0000
0000
0000
0000
,
0000
0000
0000
0000
,
1000
1000
1000
1000
,
0001
0001
0001
0001
,
0100
0100
0100
0100
,
0010
0010
0010
0010
,
1000
0001
1000
0001
,
0010
0100
0010
0010
,
0001
0100
0010
1000
,
0001
0000
1001
0000
,
1000
0000
0001
0000
,
1000
0000
0001
0000
,
1000
0000
0100
0000
,
0001
0000
0010
0000
,
1000
0000
0001
0000
,
1000
0000
0001
0000
,
0100
0000
1000
0000
,
0010
0000
0001
0001
,
0001
0000
1000
0000
,
0001
0000
1000
0000
,
0001
0000
0100
0000
,
1000
0000
0010
0000
,
0001
0001
1000
1000
,
0010
0100
0010
0010
,
0000
0000
0000
0000
,
1001
1000
1000
0100
,
0100
0001
0001
0100
,
0100
1000
0100
0001
,
0100
1000
0100
0001
,
0100
0001
0001
0100
,
0100
1000
1000
0100
,
0100
0001
0100
1000
,
0100
0001
0100
1000
,
0100
0001
0001
0010
,
0010
1000
1000
0010
,
0010
0001
0010
1000
,
0010
0001
0010
1000
,
0010
0110
0000
1001
,
0000
0110
0000
1001
,
0000
1001
0000
0001
,
0000
0010
0100
1000
,
0110
0001
0001
0100
,
0100
0001
0001
0100
,
0100
0010
0010
1000
,
1000
0010
0010
1000
,
1000
0010
1000
0001
,
0100
0010
1000
0001
,
0100
0010
1000
0010
,
1000
0100
0001
0010
,
1000
1000
1000
0100
,
0100
1000
1000
0100
,
0100
0010
0010
0001
,
0001
0010
0010
0001
,
0001
0010
0001
1000
,
0100
0010
0001
1000
,
0100
0010
0001
0010
,
0001
0100
1000
0010
,
0001
2000
0000
0200
,
3300
0100
1000
0010
,
1000
0002
0000
0200
,
0303
0100
0001
0010
,
0001
2000
0000
0020
,
3030
0010
1000
0100
,
1000
0002
0000
0020
,
0033
0001
0010
0100
,
0000
0000
0000
0000
,
0000
0000
0000
2000
,
0000
0001
0000
0020
,
0000
3030
0000
0010
,
1000
0010
1000
0001
,
0100
0001
0000
0200
,
0000
0010
0000
0002
,
0000
0303
0000
0100
,
0001
0010
0100
1000
,
0100
0010
0000
0002
,
0000
1000
0000
0020
,
0000
0033
0000
0010
,
0001
0010
0001
1000
,
0100
1000
0000
0200
,
0000
0010
0000
2000
,
0000
3300
0000
0100
,
1000
0010
0100
0001
,
0100
0010
0000
1000
,
1000
1000
0000
0001
,
0001
0010
0001
0100
,
0100
0100
0000
0010
,
1000
0001
0010
0001
,
0001
0001
0000
1000
,
1000
0010
0100
0010
,
0010
0010
1000
0001
,
0010
1000
0100
0002
,
0000
0000
0000
0000
,
0000
0000
0000
0003
;

//---------------dance-single - ----------------
#NOTEDATA:;
#CHARTNAME:Beginner;
#STEPSTYPE:dance-single;
#DESCRIPTION:;
#CHARTSTYLE:;
#DIFFICULTY:Beginner;
#METER:3;
#RADARVALUES:0.187538,0.230342,0.104188,0.166700,0.000000,189.000000,174.000000,15.000000,24.000000,0.000000,0.000000,0.000000,0.000000,0.000000,0.187538,0.230342,0.104188,0.166700,0.000000,189.000000,174.000000,15.000000,24.000000,0.000000,0.000000,0.000000,0.000000,0.000000;
#CREDIT:Riakodoadm;
#DISPLAYBPM:90.000000:180.000000;
#NOTES:
0000
0000
0000
0000
,
0000
0000
0000
0000
,
0000
0000
0000
0000
,
0000
0000
0000
0000
,
0000
0000
0000
0000
,
0000
0000
0000
0000
,
1000
1000
1000
0000
,
1000
1000
1000
0000
,
0001
0001
0001
0000
,
0001
0001
0001
0000
,
1000
1000
1000
0000
,
0001
0001
0001
0000
,
0100
0100
0100
0000
,
0010
0000
0010
0000
,
1000
0000
0001
0000
,
1000
0000
0001
0000
,
1000
0000
0100
0000
,
1000
0000
0100
0000
,
0001
0000
1000
0000
,
0001
0000
1000
0000
,
0001
0000
0100
0000
,
0001
0000
0100
0000
,
0001
0000
1000
0000
,
0001
0000
1000
0000
,
0001
0000
0100
0000
,
0001
0000
0100
0000
,
1000
0000
0001
0000
,
1000
0000
0001
0000
,
0000
0000
0000
0000
,
0000
1000
0000
0100
,
0000
1000
0000
0100
,
0000
0001
0000
0100
,
0000
0001
0000
0100
,
0000
1000
0000
0100
,
0000
1000
0000
0100
,
0000
0001
0000
0100
,
0000
0001
0000
0100
,
0000
1000
0000
0010
,
0000
1000
0000
0010
,
0000
0001
0000
0010
,
0000
0001
0000
0010
,
0000
1000
0000
1001
,
0000
0001
0000
1001
,
0000
0010
0000
0010
,
0000
0010
0010
0010
,
0010
0010
0000
0100
,
0000
0010
0000
0100
,
0000
0001
0000
1000
,
0000
0001
0000
0000
,
0000
0010
0000
0100
,
0000
0010
0000
0100
,
0000
1000
0000
0001
,
0000
1000
0000
0000
,
0000
0010
0000
0100
,
0000
0010
0000
0100
,
0000
0001
0000
1000
,
0000
0001
0000
0000
,
0000
0010
0000
0100
,
0000
0010
0000
0100
,
0000
1000
0000
0001
,
0000
1000
0000
0000
,
0000
2002
0000
3003
,
0000
0010
0010
0010
,
0000
2002
0000
3003
,
0000
0100
0100
0100
,
0000
2002
0000
3003
,
0000
0010
0010
0010
,
0000
2002
0000
3003
,
0000
0100
0100
0100
,
0000
0000
0000
0000
,
0000
0000
0000
2002
,
0000
3003
0000
2002
,
0000
3003
0000
0010
,
0000
0010
0000
0100
,
0000
0100
0000
0220
,
0000
0330
0000
0220
,
0000
0330
0000
0001
,
0000
0001
0000
1000
,
0000
1000
0000
2002
,
0000
3003
0000
2002
,
0000
3003
0000
0100
,
0000
0100
0000
0010
,
0000
0010
0000
0220
,
0000
0330
0000
0220
,
0000
0330
0000
1000
,
0000
1000
0000
0001
,
0000
0001
0000
1000
,
1000
1000
0000
0010
,
0000
0100
0000
0001
,
0001
0001
0000
0010
,
0000
0100
0000
1000
,
1000
1000
0000
0100
,
0000
0010
0000
0001
,
0001
0001
0000
0100
,
0000
0010
0000
0110
;
