#TITLE:Zombie;
#SUBTITLE:(Ray Knox Remix);
#ARTIST:Andrew Spencer & The Vamprockerz;
#TITLETRANSLIT:;
#SUBTITLETRANSLIT:;
#ARTISTTRANSLIT:;
#GENRE:HANDS UP;
#CREDIT:(2007);
#BANNER:;
#BACKGROUND:;
#LYRICSPATH:Zombie (Ray Knox Remix).lrc;
#CDTITLE:;
#MUSIC:Zombie (Ray Knox Remix).ogg;
#OFFSET:0.000000;
#SAMPLESTART:86.522003;
#SAMPLELENGTH:15.000000;
#SELECTABLE:YES;
#BPMS:0.000000=138.000000
;
#STOPS:
;
#BGCHANGES:;
#KEYSOUNDS:;
#ATTACKS:;

//---------------dance-single - ----------------
#NOTES:
     dance-single:
     Riakodoadm:
     Hard:
     12:
     0.502885,0.661583,0.288541,0.016488,0.103050,427.000000,392.000000,35.000000,2.000000,0.000000,0.000000,0.502885,0.661583,0.288541,0.016488,0.103050,427.000000,392.000000,35.000000,2.000000,0.000000,0.000000:
0000
0000
0000
0000
,
0000
0000
0000
0000
,
0000
0000
0000
0000
,
0000
0000
0000
0000
,
0000
0000
0000
0000
,
0001
0000
1000
0000
0010
0000
1000
0000
0001
0000
0000
0000
0010
0000
0000
0001
,
1000
0000
0001
0000
0010
0000
0001
0000
1000
0000
0000
0000
0010
0000
0000
1000
,
0001
0000
1000
0000
0100
0000
1000
0000
0001
0000
0000
0000
0100
0000
0000
0001
,
1000
0000
0001
0000
0100
0000
0001
0000
1000
0000
0000
0000
0100
0000
0000
1000
,
0001
1000
0001
0100
0000
1000
0100
0001
,
0000
1000
0100
1000
0000
0010
1000
0001
,
0100
0010
1000
0001
0000
0100
0001
0010
,
0100
0000
0100
1000
0000
0010
1000
0001
,
0000
1000
0001
0100
0000
1000
0100
0001
,
0000
1000
0100
0001
0000
0100
0010
0001
,
1000
0100
0010
0001
0000
0100
0001
0010
,
0100
1000
0010
0100
0001
0000
0010
0100
,
1000
1000
0100
0100
,
0001
0000
0001
0000
0010
0000
0010
0001
,
0100
0100
1000
1000
,
0010
0000
0010
0000
0001
0000
0001
0010
,
0001
0001
0100
0100
,
1000
1000
0010
0010
,
0001
0000
0000
0000
0001
0000
0010
0001
1000
0000
0000
0000
1000
0000
0010
1000
,
0001
0000
1000
0010
1000
0000
0001
0010
0001
0000
1000
0100
1000
0000
0001
0100
,
0002
0000
0000
0000
,
1000
0000
1000
0000
1000
0000
1003
0001
,
1000
0000
0010
0000
0000
0000
0100
0000
0000
0000
0010
0000
1000
0001
0010
0000
,
0000
0100
0000
0010
0010
0001
0010
0100
,
0000
0000
1000
0010
1000
0010
0100
0010
0000
0000
0100
0000
0001
0000
0101
0000
,
0000
0110
0000
1010
1000
0100
0001
0010
,
0000
0000
1000
0000
0000
0000
0010
0000
0000
0000
0100
0000
0010
0000
1000
0001
,
0000
0010
0000
0100
0000
0010
0100
1000
,
0000
0010
0100
0001
0000
0010
0100
1000
,
0000
0010
0000
0010
0000
0010
0000
0010
,
1000
0010
1000
0010
0100
0010
0100
0010
,
0001
0010
0001
0010
0100
0010
0100
0010
,
1000
0010
0100
0010
0001
0010
1000
0010
,
0001
0010
1000
0000
,
1001
0001
0000
0100
0001
1000
0100
0010
,
0001
0010
0100
1000
0000
0001
1000
0100
,
0000
1000
0001
0100
0000
0001
0010
0110
,
0000
0000
0110
0000
0000
0000
0010
0000
0001
0000
1000
0100
1000
0000
0001
0100
,
0001
1000
0000
0100
1000
0001
0100
0010
,
1000
0010
0100
0001
0000
1000
0001
0100
,
0000
0001
1000
0100
0000
1000
0010
0110
,
0000
0110
0000
1001
0000
1001
0001
1000
,
1100
1100
0011
0011
,
0001
0001
0100
0100
0010
0010
1000
1000
,
0001
0100
0001
0100
0010
0100
0010
0100
0010
1000
0010
1000
0001
1000
0001
1000
,
0000
0000
0000
0000
0000
0001
1000
0001
,
0011
0010
0000
0100
0010
0001
1000
0100
,
0010
1000
0010
0001
0000
0100
0010
1001
,
0000
0100
0010
1001
0000
0010
0100
1001
,
0000
0011
0000
1100
0000
1000
0010
0100
,
0001
0010
0000
0100
0001
0100
1000
0010
,
0100
0001
0010
0100
0000
1000
0001
0110
,
0000
1000
0001
0110
0000
0001
1000
0110
,
0000
1001
0000
1000
1001
0001
1001
1000
,
1010
0010
0000
0100
0010
1000
0001
0100
,
0010
0001
0010
1000
0000
0100
0010
1001
,
0000
0100
0010
1001
0000
0010
0100
1001
,
0000
1010
0000
0101
0000
0001
0010
0100
,
1000
0010
0000
0100
1000
0100
0001
0010
,
0100
1000
0010
0100
0000
0001
1000
0110
,
0000
0001
1000
0110
0000
1000
0001
0120
,
0000
0100
0000
1000
0000
1000
0000
1030
;

//---------------para-single - ----------------
#NOTES:
     para-single:
     :
     Medium:
     1:
     0.082440,0.125206,0.090684,0.065952,0.000000,70.000000,59.000000,11.000000,8.000000,0.000000,0.000000,0.082440,0.125206,0.090684,0.065952,0.000000,70.000000,59.000000,11.000000,8.000000,0.000000,0.000000:
00000
00000
00000
00000
,
00000
00000
00000
00000
,
00000
00000
00000
00000
,
00000
00000
00000
00000
,
00000
00000
00000
00000
,
00001
00000
10000
00000
,
00001
00000
10000
00000
,
00001
00000
10000
00000
,
00001
00000
10000
00000
,
00010
00010
00010
00000
,
01000
01000
01000
00000
,
01010
00000
01010
00000
,
00000
00200
00300
00000
,
00010
00010
00010
00000
,
01000
01000
01000
00000
,
01010
00000
01010
00000
,
00000
00200
00300
00000
,
00020
00000
00030
00000
,
00020
00000
00030
00000
,
00001
00000
00001
00000
,
00100
00010
00001
00000
,
02000
00000
03000
00000
,
02000
00000
03000
00000
,
10000
00000
10000
00000
,
00100
01000
10000
00000
,
00220
00000
00000
00300
,
00000
00000
00000
00030
,
00000
00010
00001
00010
,
00000
01000
10000
01000
,
00000
01010
00000
01010
,
00000
10001
00000
10001
,
00000
01000
10000
01000
,
00000
00010
00001
00010
,
00000
01010
00000
01010
;

//---------------dance-single - ----------------
#NOTES:
     dance-single:
     Riakodoadm:
     Easy:
     5:
     0.283830,0.357688,0.387469,0.148392,0.000000,241.000000,194.000000,47.000000,18.000000,0.000000,0.000000,0.283830,0.357688,0.387469,0.148392,0.000000,241.000000,194.000000,47.000000,18.000000,0.000000,0.000000:
0000
0000
0000
0000
,
0000
0000
0000
0000
,
0000
0000
0000
0000
,
0000
0000
0000
0000
,
0000
0000
0000
0000
,
0000
0010
0000
0010
,
0000
0100
0000
0100
,
0000
0010
0000
0010
,
0000
0100
0000
0100
,
1000
1000
1000
0000
,
0001
0001
0001
1001
,
0000
1001
0000
0020
,
0100
0000
0130
0000
,
0001
0001
0001
0000
,
1000
1000
1000
1001
,
0000
1001
0000
0020
,
0100
0000
0130
0000
,
2000
0010
0010
3000
,
0002
0010
0013
1001
,
0000
1001
0000
2001
,
0010
0100
3010
0010
,
0002
0100
0100
0003
,
2000
0100
3100
1001
,
0000
1001
0000
1002
,
0100
0010
0103
0100
,
2002
0000
0000
3003
,
1000
0001
1000
0001
,
1000
1000
1000
0010
,
0001
0001
0001
1001
,
0000
0110
0000
2001
,
0010
0100
3010
0110
,
0001
0001
0001
0010
,
1000
1000
1000
1001
,
0000
0110
0000
1002
,
0010
0100
0013
0100
,
0010
0100
1000
0001
,
0010
0100
1000
0001
,
0010
0100
1000
0001
,
0110
0110
0110
0000
,
1001
0000
0001
0010
,
0100
1000
0000
1001
,
0000
0110
0000
1002
,
1000
1003
0001
1000
,
1001
0000
1000
0010
,
0100
0001
0000
1001
,
0000
0110
0000
2001
,
0001
3001
1000
0001
,
1000
1000
0001
0001
,
0010
0010
0010
0010
,
1001
1001
1001
1001
,
0000
0000
0000
0000
,
1001
0000
1000
0010
,
0001
0010
1000
1001
,
0000
0110
0000
2001
,
0010
0001
3010
1000
,
0100
0010
0001
0100
,
0001
0010
0100
0110
,
0000
1001
0000
0120
,
0100
0130
0010
1000
,
1001
0000
0001
0010
,
1000
0010
0001
1001
,
0000
0110
0000
1002
,
0010
1000
0013
0001
,
0100
0010
1000
0100
,
1000
0010
0100
0110
,
0000
1001
0000
0120
,
0100
0100
0100
0130
;

//---------------dance-single - ----------------
#NOTES:
     dance-single:
     Riakodoadm:
     Medium:
     7:
     0.359204,0.441055,0.362737,0.065952,0.000000,305.000000,261.000000,44.000000,8.000000,0.000000,0.000000,0.359204,0.441055,0.362737,0.065952,0.000000,305.000000,261.000000,44.000000,8.000000,0.000000,0.000000:
0000
0000
0000
0000
,
0000
0000
0000
0000
,
0000
0000
0000
0000
,
0000
0000
0000
0000
,
0000
0000
0000
0000
,
0000
0010
0000
0010
0000
0010
0000
0010
,
0000
0100
0000
0100
0000
0100
0000
0100
,
0000
0001
0000
0001
0000
0001
0000
0001
,
0000
1000
0000
1000
0000
1000
0000
1000
,
0001
0010
0100
0010
,
0001
0010
1000
0010
,
0001
0100
0010
1000
,
0010
0000
0100
0000
0001
0000
0100
0010
,
1000
0010
0100
0010
,
1000
0010
0001
0010
,
1000
0100
0010
0001
,
0010
0000
0100
0000
1000
0000
0001
1000
,
0002
0000
0010
0000
0100
0000
1003
0001
,
2000
0000
0010
0000
3100
1000
0000
1001
,
0000
0001
0000
1001
0000
1000
0000
0110
,
0000
1001
0000
0110
0000
0010
0100
0000
,
2000
0000
0010
0000
0100
0000
3001
1000
,
0002
0000
0010
0000
0103
0001
0000
1001
,
0000
1000
0000
1001
0000
0001
0000
0110
,
0000
1001
0000
0110
0000
0010
0100
0000
,
2002
0000
0000
3003
,
1000
0000
0001
0000
1000
0000
0001
1000
,
0100
1000
0000
0100
0000
0010
0000
0001
,
0000
0010
0000
0100
0000
1000
0000
1010
,
0000
1000
0000
1001
0000
1000
0000
1100
,
0000
0011
0000
1100
0000
1000
0001
0100
,
0000
0001
0000
0100
0000
0010
0000
1000
,
0000
0010
0000
0100
0000
0001
0000
0011
,
0000
0001
0000
1001
0000
0001
0000
0101
,
0000
0100
0000
0100
0000
0100
0000
0100
,
0001
0001
1000
1000
,
0010
0010
0100
0100
,
0001
0001
1000
1000
,
0100
0100
0200
0300
,
1000
0010
1000
0000
0010
0000
0010
0000
,
0100
0010
1000
0001
,
0001
0010
0010
1000
,
1000
0100
0001
1000
,
0001
0010
0001
0000
0010
0000
0010
0000
,
0100
0010
0001
1000
,
1000
0010
0010
0001
,
0001
0100
1000
0001
,
1001
0100
1001
0100
,
1100
0101
0011
1010
,
1000
0001
1000
0001
1000
0001
1000
0001
,
0000
0000
0000
0010
,
1001
1000
0010
0100
,
0001
0000
0010
0100
0000
1000
0000
0110
,
0000
0001
0000
0110
0000
1000
0000
1010
,
0000
0011
0000
1010
0000
1000
0001
0000
,
1000
0010
0100
1000
,
0100
0000
0001
0100
0000
0010
0000
1001
,
0000
0100
0000
1001
0000
0010
0000
0101
,
0000
1100
0000
0001
1000
0001
1000
0000
,
1001
0001
0010
0100
,
1000
0000
0010
0100
0000
0001
0000
0110
,
0000
1000
0000
0110
0000
0001
0000
0011
,
0000
1010
0000
0011
0000
0001
1000
0000
,
0001
0010
0100
0001
,
0100
0000
1000
0100
0000
0010
0000
1001
,
0000
0100
0000
1001
0000
0010
0000
1200
,
0000
0010
0000
1000
0000
1000
0000
1300
;

//---------------dance-double - ----------------
#NOTES:
     dance-double:
     Riakodoadm:
     Hard:
     12:
     0.519373,0.689149,0.379225,0.032976,0.078318,441.000000,395.000000,46.000000,4.000000,0.000000,0.000000,0.519373,0.689149,0.379225,0.032976,0.078318,441.000000,395.000000,46.000000,4.000000,0.000000,0.000000:
// measure 0
00000000
00000000
00000000
00000000
,  // measure 1
00000000
00000000
00000000
00000000
,  // measure 2
00000000
00000000
00000000
00000000
,  // measure 3
00000000
00000000
00000000
00000000
,  // measure 4
00000000
00000000
00000000
00000000
,  // measure 5
00000001
00000000
00000010
00000000
00000001
00000000
00000100
00000000
00000001
00000000
00000000
00000000
00000010
00000000
00000000
00001000
,  // measure 6
00010000
00000000
00000010
00000000
00010000
00000000
00000100
00000000
00010000
00000000
00000000
00000000
00100000
00000000
00000000
00010000
,  // measure 7
00001000
00000000
00100000
00000000
00001000
00000000
01000000
00000000
00001000
00000000
00000000
00000000
00100000
00000000
00000000
01000000
,  // measure 8
10000000
00000000
00100000
00000000
10000000
00000000
01000000
00000000
10000000
00000000
00000000
00000000
00010000
00000000
00000000
00010000
,  // measure 9
10000000
00100000
01000000
00100000
00000000
01000000
00100000
00010000
,  // measure 10
00000000
00001000
00010000
00001000
00000000
00001000
00000100
00000010
,  // measure 11
00010000
00001000
00000100
00000010
00000000
00010000
00001000
00000010
,  // measure 12
00000001
00000000
00000001
00000100
00000000
00000010
00001000
00000001
,  // measure 13
00000000
00000010
00000100
00000010
00000000
00000100
00000010
00001000
,  // measure 14
00000000
00010000
00001000
00010000
00000000
00010000
01000000
00100000
,  // measure 15
00001000
00010000
01000000
00100000
00000000
00001000
00010000
00100000
,  // measure 16
10000000
01000000
00100000
00001000
00010000
00000000
00010000
00001000
,  // measure 17
00000100
00000000
00000101
00000000
00000101
00000000
00000001
00000100
,  // measure 18
00001000
00000000
00011000
00000000
00011000
00010000
00100000
10000000
,  // measure 19
00000000
10000000
01000000
00010000
00000000
01000000
10000000
00100000
,  // measure 20
00000000
01100000
00000000
10010000
00000000
10000000
01000000
00010000
,  // measure 21
01000000
00000000
11000000
00000000
11000000
00000000
10000000
01000000
,  // measure 22
00010000
00000000
00011000
00000000
00011000
00001000
00000010
00000001
,  // measure 23
00000000
00000001
00000100
00001000
00000000
00000100
00000001
00000010
,  // measure 24
00000000
00000110
00000000
00001001
00000000
00000001
00000000
00000001
,  // measure 25
00000000
00001000
00000000
00001000
00000000
00010000
00000000
00010000
,  // measure 26
00100000
00000000
01000000
00000000
10000000
00000000
00010000
00100000
,  // measure 27
01000000
00000000
10000000
00000000
00000000
00000000
01000000
00000000
00000000
00000000
00100000
00000000
00001000
00010000
00001000
00000000
,  // measure 28
00000000
00000100
00000000
00000010
00001000
00000001
00000010
00000100
,  // measure 29
00000000
00000000
00001000
00000010
00001000
00000010
00000100
00000010
00000000
00000000
00000100
00000000
00001000
00000000
00010000
00000000
,  // measure 30
00000000
00010100
00000000
00010100
00000100
00000010
00001000
00010000
,  // measure 31
00000000
00000000
00100000
00000000
00000000
00000000
10000000
00000000
00000000
00000000
00100000
00000000
01000000
00000000
00001000
00010000
,  // measure 32
00000000
00000010
00000000
00000001
00000000
00000010
00010000
00001000
,  // measure 33
00000000
00100000
00001000
00010000
00000000
00000010
00010000
00001000
,  // measure 34
00012000
00010000
00000000
00010000
00000000
00010000
00000000
00013000
,  // measure 35
00001000
00010000
00000100
00010000
00000010
00010000
00001000
00010000
,  // measure 36
00100000
00010000
10000000
00010000
00100000
00010000
00001000
00010000
,  // measure 37
00000100
00001000
00000001
00001000
00000100
00001000
00000010
00001000
,  // measure 38
00000010
00000100
00001000
00010000
00200000
00000000
00300000
00000000
,  // measure 39
10010000
00010000
00000000
10000000
00100000
01000000
00010000
00100000
,  // measure 40
00001000
00010000
00000010
00000100
00000000
00000001
00000100
00001000
,  // measure 41
00000000
00000001
00000100
00001000
00000000
00000001
00000100
00000010
,  // measure 42
00000000
00000000
00000100
00000000
00000000
00000000
00000010
00000000
00010000
00000000
00001000
00100000
00001000
00000000
00010000
00000010
,  // measure 43
00010000
00000100
00000000
00000100
00000010
00000100
00001000
00000010
,  // measure 44
00010000
00001000
00100000
01000000
00000000
10000000
01000000
00010000
,  // measure 45
00000000
10000000
01000000
00010000
00000000
10000000
01000000
00100000
,  // measure 46
00000000
00110000
00000000
00101000
00000000
00010100
00000000
00001100
,  // measure 47
00000110
00000011
00000101
00000110
,  // measure 48
00000010
00000010
00010000
00010000
00001000
00001000
00100000
00100000
,  // measure 49
01000000
00100000
01000000
00100000
00001000
00010000
00001000
00010000
00000010
00001000
00000010
00001000
00000001
00000100
00000001
00000100
,  // measure 50
00002000
00000000
00000000
00000000
00000000
00013000
00001000
00100000
,  // measure 51
00110000
00010000
00000000
00100000
10000000
00100000
00010000
01000000
,  // measure 52
00100000
00010000
00001000
00100000
00000000
00100000
10010000
01000000
,  // measure 53
00000000
00100000
10010000
01000000
00000000
01000000
10010000
10000000
,  // measure 54
00000000
00110000
00000000
00001100
00000000
00001000
00000010
00000100
,  // measure 55
00000101
00000001
00000000
00000010
00000100
00000001
00000100
00000010
,  // measure 56
00000001
00001000
00000010
00010000
00000000
00000010
00011000
00000010
,  // measure 57
00000000
00100000
00011000
00100000
00000000
00000010
00011000
00010000
,  // measure 58
00000000
00110000
00000000
01100000
01000000
00001000
00010000
00000010
,  // measure 59
00001010
00001000
00000000
00000010
00000001
00000010
00001000
00000100
,  // measure 60
00000010
00001000
00010000
00000010
00000000
00000010
00001001
00000100
,  // measure 61
00000000
00000010
00001001
00000100
00000000
00000100
00001001
00000001
,  // measure 62
00000000
00001010
00000000
01010000
00000000
00010000
00100000
01000000
,  // measure 63
11000000
10000000
00000000
00100000
01000000
10000000
01000000
00100000
,  // measure 64
10000000
00010000
00100000
00001000
00000000
00100000
00011000
00100000
,  // measure 65
00000000
00000010
00011000
00000010
00000000
00100000
00011000
00002000
,  // measure 66
00000000
00000010
00000000
00010000
00000000
00010000
00000000
01003000
;

//---------------dance-single - ----------------
#NOTES:
     dance-single:
     Riakodoadm:
     Beginner:
     3:
     0.167236,0.191880,0.032976,0.041220,0.000000,142.000000,138.000000,4.000000,5.000000,0.000000,0.000000,0.167236,0.191880,0.032976,0.041220,0.000000,142.000000,138.000000,4.000000,5.000000,0.000000,0.000000:
0000
0000
0000
0000
,
0000
0000
0000
0000
,
0000
0000
0000
0000
,
0000
0000
0000
0000
,
0000
0000
0000
0000
,
0000
0010
0000
0010
,
0000
0100
0000
0100
,
0000
0010
0000
0010
,
0000
0100
0000
0100
,
0000
1000
0000
1000
,
0000
0001
0000
0001
,
0000
1000
0000
0001
,
0000
0100
0000
0100
,
0000
0001
0000
0001
,
0000
1000
0000
1000
,
0000
0001
0000
1000
,
0000
0100
0000
0100
,
2000
0000
3000
0000
,
0002
0000
0003
0001
,
0000
0001
0000
0001
,
0100
0100
0100
0000
,
0002
0000
0003
0000
,
2000
0000
3000
1000
,
0000
1000
0000
1000
,
0100
0100
0100
0000
,
0200
0000
0000
0300
,
0000
0000
0000
0000
,
1000
0000
1000
0010
,
1000
0000
1000
0001
,
0000
1000
0000
0001
,
0010
0010
0010
0000
,
0001
0000
0001
0010
,
0001
0000
0001
1000
,
0000
0001
0000
1000
,
1000
0000
0000
0000
,
0010
0000
0010
0000
,
0100
0000
0100
0000
,
0010
0000
0010
0000
,
0010
0000
0000
0000
,
1001
0000
0001
0000
,
1000
1000
0000
0100
,
0000
0010
0000
0100
,
1000
1000
1000
0000
,
1001
0000
1000
0000
,
0001
0001
0000
0100
,
0000
0010
0000
0100
,
0001
0001
0001
0000
,
1000
1000
1000
0000
,
0010
0010
0010
0000
,
0100
0100
0100
0100
,
0000
0000
0000
0000
,
1001
0000
1000
0000
,
0001
0001
0000
0010
,
0000
0010
0000
0010
,
0001
0001
0001
0000
,
0010
0000
0010
0000
,
0100
0100
0000
1000
,
0000
1000
0000
1000
,
0001
0001
0001
0000
,
1001
0000
0001
0000
,
1000
1000
0000
0010
,
0000
0010
0000
0010
,
1000
1000
1000
0000
,
0010
0000
0010
0000
,
0100
0100
0000
0001
,
0000
0001
0000
0001
,
1000
1000
1000
0000
;
