#VERSION:0.83;
#TITLE:X=Y;
#SUBTITLE:feat. Elaine;
#ARTIST:FERRIS & ARANTZ;
#TITLETRANSLIT:;
#SUBTITLETRANSLIT:;
#ARTISTTRANSLIT:;
#GENRE:TRANCECORE;
#ORIGIN:;
#CREDIT:Dancemania SPEED Presents TRANCE RAVERS;
#BANNER:X=Y.png;
#BACKGROUND:X=Y-bg.png;
#PREVIEWVID:;
#JACKET:X=Y-jacket.png;
#CDIMAGE:;
#DISCIMAGE:;
#LYRICSPATH:X=Y.lrc;
#CDTITLE:X=Y-cdtitle.png;
#MUSIC:X=Y.ogg;
#OFFSET:-0.752000;
#SAMPLESTART:97.459991;
#SAMPLELENGTH:15.000000;
#SELECTABLE:YES;
#BPMS:0.000=158.900;
#STOPS:;
#DELAYS:;
#WARPS:;
#TIMESIGNATURES:0.000=4=4;
#TICKCOUNTS:0.000=4;
#COMBOS:0.000=1;
#SPEEDS:0.000=1.000=0.000=0;
#SCROLLS:0.000=1.000;
#FAKES:;
#LABELS:0.000=Song Start 1/2,
32.000=Song Start 2/2,
64.000=Pre-chorus 1,
96.000=Chorus 1 1/2,
128.000=Chorus 1 2/2,
160.000=Bridge 1/2,
192.000=Bridge 2/2,
224.000=Pre-chorus 2,
256.000=Chorus 2 1/2,
288.000=Chorus 2 2/2,
320.000=Post-chorus,
352.000=Outro,
368.000=Song End;
#LASTSECONDHINT:139.707001;
#BGCHANGES:;
#KEYSOUNDS:;
#ATTACKS:
;

//---------------dance-single - ----------------
#NOTEDATA:;
#CHARTNAME:Basic;
#STEPSTYPE:dance-single;
#DESCRIPTION:;
#CHARTSTYLE:;
#DIFFICULTY:Easy;
#METER:4;
#RADARVALUES:0.262893,0.328107,0.042797,0.114124,0.000000,258.000000,252.000000,6.000000,16.000000,0.000000,0.000000,0.000000,0.000000,0.000000,0.262893,0.328107,0.042797,0.114124,0.000000,258.000000,252.000000,6.000000,16.000000,0.000000,0.000000,0.000000,0.000000,0.000000;
#CREDIT:Riakodoadm;
#NOTES:
0000
0000
0000
0000
,
0000
0000
0000
0000
,
0000
0000
0000
0000
,
0000
0000
0000
0000
,
0000
0000
0000
0000
,
0000
0000
0000
0000
,
0000
0000
0000
0000
,
0000
0000
0000
0000
,
0200
0000
0000
0000
,
0000
0000
0300
0001
,
0020
0000
0000
0000
,
0000
0000
0030
0001
,
0002
0000
0003
1000
,
2000
0000
3000
0100
,
0020
0000
0000
0030
,
0020
0000
0000
0030
,
2000
0000
3000
0000
,
0200
0000
0300
0000
,
0020
0000
0030
0000
,
0002
0000
0003
0000
,
0100
0001
0010
1000
,
0100
0001
0010
1000
,
0100
0001
0010
1000
,
0020
0000
0000
0030
,
0001
0100
0010
0100
,
0001
0100
0010
0100
,
0001
1000
0100
1000
,
0001
1000
0100
1000
,
0010
1000
0100
1000
,
0010
1000
0100
1000
,
0010
0100
0001
1000
,
0010
0100
0001
1001
,
1000
0100
0010
0100
,
1000
0100
0010
0100
,
1000
0001
0100
0001
,
1000
0001
0100
0001
,
0010
0001
0100
0001
,
0010
0001
0100
0001
,
0010
0100
1000
0001
,
0010
0100
1000
1001
,
0001
0001
0000
0000
,
0010
0010
0000
0000
,
1000
1000
0000
0000
,
0100
0100
0000
0000
,
0001
0001
0000
0000
,
0010
0010
0000
0000
,
1000
1000
0000
0000
,
0100
0100
0000
0000
,
1000
1000
0000
0000
,
0010
0010
0000
0000
,
0001
0001
0000
0000
,
0100
0100
0000
0000
,
1000
1000
0000
0000
,
0010
0010
0000
0000
,
0001
0001
0000
0000
,
0100
0100
0000
0000
,
2001
3100
0000
0000
,
0002
0103
0000
0000
,
2000
3100
0000
0000
,
0002
0103
0000
0000
,
0010
1000
0100
0001
,
0010
1000
0100
0001
,
0010
1000
0100
0001
,
0200
0000
0000
0300
,
1000
0010
0100
0010
,
0001
0010
0100
0001
,
0010
0100
1000
0100
,
0010
0001
0100
1000
,
0100
0001
1000
0100
,
0010
0001
0100
0010
,
1000
0100
0010
0100
,
1000
0001
0100
0110
,
0001
0010
0100
0010
,
1000
0010
0100
1000
,
0010
0100
0001
0100
,
0010
1000
0100
0001
,
0100
1000
0001
0100
,
0010
1000
0100
0010
,
0001
0100
0010
0100
,
0001
1000
0100
0110
,
1000
1000
0001
0001
,
0100
0010
0001
0100
,
1000
1000
0001
0001
,
0010
0001
0100
1000
,
0001
0001
1000
1000
,
0001
0010
1000
0100
,
1000
1000
0001
0001
,
0010
1000
0010
0001
,
1001
0010
0000
0010
,
0000
0100
0000
0100
,
0000
1000
0000
1000
,
0100
0100
0100
0100
,
0100
0000
0000
0000
;

//---------------dance-single - ----------------
#NOTEDATA:;
#CHARTNAME:Expert;
#STEPSTYPE:dance-single;
#DESCRIPTION:;
#CHARTSTYLE:;
#DIFFICULTY:Hard;
#METER:15;
#RADARVALUES:0.802946,1.082019,0.028531,0.028531,0.581321,788.000000,784.000000,4.000000,4.000000,0.000000,0.000000,0.000000,0.000000,0.000000,0.802946,1.082019,0.028531,0.028531,0.581321,788.000000,784.000000,4.000000,4.000000,0.000000,0.000000,0.000000,0.000000,0.000000;
#CREDIT:Riakodoadm;
#NOTES:
0000
0000
0000
0000
,
0000
0000
0000
0000
,
0000
0000
0000
0000
,
0000
0000
0000
0000
,
0000
0000
0000
0000
,
0000
0000
0000
0000
,
0000
0000
0000
0000
,
0000
0000
0000
0000
,
1000
0001
1000
0001
0010
0001
0010
0001
,
0010
0100
0010
0100
1000
0100
1000
0100
,
1000
0001
1000
0001
0100
0001
0100
0001
,
0100
0010
0100
0010
1000
0010
1000
0010
,
0100
0001
0100
0001
0010
0001
0010
0001
,
1000
0100
1000
0100
1000
0010
1000
0010
,
0100
0010
0100
0010
1000
0001
1000
0001
,
1000
0100
0001
0100
1000
0100
0001
0100
,
0010
0001
0100
0010
1000
0100
0010
0001
,
0010
0100
1000
0010
0100
0001
0100
0010
,
1000
0100
0001
0100
0010
0001
0010
0100
,
1000
0010
0001
0010
0100
0001
0010
0100
,
1000
0010
1000
0010
1000
0010
1000
0010
0100
0001
0100
0001
0100
0001
0100
0001
,
0010
0001
0010
0001
0010
0001
0010
0001
1000
0100
1000
0100
1000
0100
1000
0100
,
0010
0001
0010
0001
0100
0001
0100
0001
0100
0010
0100
0010
1000
0010
1000
0010
,
1000
0100
1000
0100
0010
0100
0010
0100
0010
0001
1000
0100
0010
0001
1000
0100
,
1000
0100
0001
0100
0010
0001
0100
0010
,
0100
0000
0001
0000
1000
0000
0100
0000
0010
0100
0010
0000
0001
1000
0001
0000
,
0010
1000
0010
0100
1000
0010
0100
0001
,
0010
0000
0001
0000
0100
0000
0010
0000
1000
0010
1000
0000
0001
0010
0001
0000
,
0010
0100
0001
0100
1000
0001
0100
0001
,
1000
0000
0010
0000
1000
0000
0100
0000
0010
0001
0100
0000
0010
1000
0100
0000
,
0010
0100
0001
0100
1000
0010
0100
0010
,
0001
0000
0010
0000
1000
0000
0100
0000
0010
0100
1000
0000
0010
0100
0001
1000
,
0001
0000
0100
0000
1000
0000
0100
0000
0010
0000
1000
0000
0100
0010
0100
0000
,
1000
0000
0100
0000
0001
0000
0100
0000
0010
0100
0010
0000
0001
1000
0001
0000
,
0010
0000
0001
0000
0010
0000
0100
0000
1000
0000
0010
0000
0100
0001
0100
0000
,
0010
0000
1000
0000
0100
0000
0010
0000
0001
0010
0001
0000
1000
0010
1000
0000
,
0010
0000
0100
0000
1000
0000
0100
0000
0001
0000
1000
0000
0010
1000
0010
0000
,
0001
0000
0010
0000
1000
0000
0100
0000
0010
0001
0100
0000
0010
1000
0100
0000
,
0010
0000
0100
0000
1000
0000
0100
0000
0001
0000
0100
0000
0010
0001
0010
0000
,
1000
0000
0010
0000
0001
0000
0100
0000
0010
0100
0001
0000
0010
0100
1000
0001
,
1000
0010
1000
0001
0000
0001
0000
0001
,
1000
0010
1000
0001
0000
0001
0000
0100
,
0010
0001
0010
0100
0000
0100
0000
0100
,
0010
0001
0010
0100
0000
0100
0000
0010
,
1000
0100
1000
0010
0000
0010
0000
0010
,
1000
0100
1000
0010
0000
0010
0000
1000
,
0100
0001
0100
1000
0000
1000
0000
1000
,
0100
0001
0100
1000
0000
1000
0000
1000
,
0001
0010
0001
1000
0000
1000
0000
1000
,
0001
0010
0001
1000
0000
1000
0000
0100
,
0010
1000
0010
0100
0000
0100
0000
0100
,
0010
1000
0010
0100
0000
0100
0000
0010
,
0001
0100
0001
0010
0000
0010
0000
0010
,
0001
0100
0001
0010
0000
0010
0000
0001
,
0100
1000
0100
0001
0000
0001
0000
0001
,
0100
1000
0100
0001
0000
0001
0000
0001
,
1000
0010
0100
0002
0010
0010
0013
0000
,
0001
0010
0100
2000
0010
0010
3010
0000
,
1000
0100
0010
0002
1000
1000
1003
0000
,
0001
0100
0010
2000
0001
0001
3001
0000
,
1000
0100
0010
0001
0010
1000
0010
0001
,
0100
0010
1000
0010
0001
0010
1000
0100
,
0010
0001
0010
0001
0100
0001
0100
0001
0100
0010
0100
0010
1000
0010
1000
0010
,
1000
0100
0010
0001
0100
0010
1000
0100
1000
0010
0100
0001
0010
0001
0100
0010
,
1000
0000
1000
0000
0010
0000
0010
0000
1000
0100
0010
0000
0100
0010
0001
0000
,
0010
0000
0010
0000
0001
0000
0001
0000
0100
0001
0010
0000
0001
0010
0100
0000
,
1000
0000
1000
0000
0100
0000
0100
0000
0010
0001
1000
0000
0010
1000
0100
0000
,
1000
0000
1000
0000
0001
0000
0001
0000
0010
0100
1000
0000
0010
0100
0001
0000
,
0100
0000
0100
0000
1000
0000
1000
0000
0100
0010
0100
0000
0010
1000
0001
0000
,
0010
0000
0010
0000
1000
0000
1000
0000
0010
0100
0010
0000
0001
0100
0010
0000
,
1000
0000
1000
0000
0100
0000
0100
0000
0001
0100
0001
0000
0100
1000
0010
0000
,
0100
0000
0100
0000
1000
0000
1000
0000
0100
0001
1000
0000
0010
1000
0100
1000
,
0001
0000
0001
0000
0010
0000
0010
0000
0001
0100
0010
0000
0100
0010
1000
0000
,
0010
0000
0010
0000
1000
0000
1000
0000
0100
1000
0010
0000
1000
0010
0100
0000
,
0001
0000
0001
0000
0100
0000
0100
0000
0010
1000
0001
0000
0010
0001
0100
0000
,
0001
0000
0001
0000
1000
0000
1000
0000
0010
0100
0001
0000
0010
0100
1000
0000
,
0100
0000
0100
0000
0001
0000
0001
0000
0100
0010
0100
0000
0010
0001
1000
0000
,
0010
0000
0010
0000
0001
0000
0001
0000
0010
0100
0010
0000
1000
0100
0010
0000
,
0001
0000
0001
0000
0100
0000
0100
0000
1000
0100
1000
0000
0100
0001
0010
0000
,
0100
0000
0100
0000
0001
0000
0100
0000
1000
0010
0100
0001
0010
0100
1000
0010
,
1000
0001
1000
0001
0000
0010
0100
1000
0000
0001
0000
0100
0001
0000
0001
1000
,
0100
1000
0010
0000
0010
1000
0100
0000
0100
0010
0000
0010
0001
0000
0010
0100
,
1000
0001
1000
0001
0000
0100
0010
1000
0000
0010
0000
0100
0010
0000
0010
1000
,
0001
0010
0100
0000
0010
0001
0100
0000
0010
1000
0000
1000
0001
0000
0001
0010
,
0100
1000
0100
0000
0100
1000
0100
0000
1000
0010
1000
0000
1000
0010
1000
0000
,
0010
0100
0010
0000
0010
0100
0010
0000
0100
0001
0100
0000
0100
0001
0100
0000
,
0001
0010
0001
0000
0001
0010
0001
0000
1000
0100
1000
0000
1000
0100
1000
0000
,
0010
0100
0010
0000
0010
0100
0010
0000
1000
0100
0010
0001
0100
0010
1000
0100
,
1000
0110
0001
0110
,
1000
0000
0011
0000
0100
0000
0011
0010
,
0100
0010
0100
0010
0100
1000
0100
1000
0010
1000
0010
1000
0010
0100
0010
0100
,
0001
0100
0001
0100
0001
0010
0001
0010
0100
1000
0010
0100
0001
0010
0001
0100
;

//---------------dance-single - ----------------
#NOTEDATA:;
#CHARTNAME:Difficult;
#STEPSTYPE:dance-single;
#DESCRIPTION:;
#CHARTSTYLE:;
#DIFFICULTY:Medium;
#METER:10;
#RADARVALUES:0.501332,0.623404,0.028531,0.363771,0.106992,492.000000,488.000000,4.000000,51.000000,0.000000,0.000000,0.000000,0.000000,0.000000,0.501332,0.623404,0.028531,0.363771,0.106992,492.000000,488.000000,4.000000,51.000000,0.000000,0.000000,0.000000,0.000000,0.000000;
#CREDIT:Riakodoadm;
#NOTES:
0000
0000
0000
0000
,
0000
0000
0000
0000
,
0000
0000
0000
0000
,
0000
0000
0000
0000
,
0000
0000
0000
0000
,
0000
0000
0000
0000
,
0000
0000
0000
0000
,
0000
0000
0000
0000
,
0200
0000
0000
0000
,
0000
0000
0000
0302
,
0023
0000
0032
2003
0000
0000
0000
0000
,
0000
0000
0000
3200
,
2300
0000
0000
3002
,
0203
0000
0000
0302
,
0023
0000
0032
0203
0000
0000
0000
0000
,
0320
0000
2030
3200
0000
0000
0000
0300
,
1000
0010
0001
0100
,
1000
0010
0001
0100
,
0001
0010
1000
0100
,
0001
0010
1000
0100
,
1000
0001
0100
0001
1000
0001
0100
0001
,
1000
0100
1000
0001
1000
0100
1000
0001
,
0010
0100
1000
0010
0100
0001
0010
0100
,
1000
0010
1000
0100
0010
1000
0010
0001
,
1000
0010
1000
0000
0010
0001
0010
0000
,
0100
0001
0010
0000
0100
1000
0100
0010
,
0001
0100
0001
0000
0100
0010
0100
0000
,
0010
1000
0100
0000
1000
0010
0100
0001
,
0010
0100
0010
0000
1000
0010
1000
0000
,
0010
0100
1000
0000
0001
0010
0001
0100
,
0010
1000
0010
0000
0100
0001
0100
0000
,
0001
0010
0100
1000
0010
1000
0100
0010
,
0001
0010
0001
0000
0010
1000
0010
0000
,
0100
1000
0010
0000
0100
0001
0100
0010
,
1000
0100
1000
0000
0100
0010
0100
0000
,
0010
0001
0100
0000
0001
0010
0100
1000
,
0010
0100
0010
0000
0001
0010
0001
0000
,
0010
0100
0001
0000
1000
0010
1000
0100
,
0010
0001
0010
0000
0100
1000
0100
0000
,
1000
0010
0100
0001
0010
0001
0100
0010
,
0200
0010
0010
0000
0000
0000
0000
0000
,
0010
0010
0010
0000
0000
0000
0302
0000
,
0023
0001
0032
2003
0000
0000
0000
0000
,
0001
0001
0001
0000
0000
0000
3002
0000
,
0203
0010
0010
0000
0000
0000
2300
0000
,
3200
1000
1000
0000
0000
0000
0302
0000
,
2003
0010
3020
0230
0000
0000
0000
0000
,
0302
1000
1000
0000
0023
0000
0000
0000
,
0230
0010
0010
0000
0000
0000
0000
0000
,
0010
0010
0010
0000
0000
0000
2300
0000
,
3020
1000
2030
3002
0000
0000
0000
0000
,
1000
1000
1000
0000
0000
0000
0203
0000
,
0302
1000
1000
0000
0000
0000
2003
0000
,
3200
0010
0010
0000
0000
0000
2300
0000
,
3020
1000
2030
3200
0000
0000
0000
0000
,
0320
0001
0032
0203
0000
0000
0000
0300
,
0001
0100
0010
2000
0000
0000
3000
0000
,
1000
0010
0100
0002
0000
0000
0003
0000
,
1000
0100
0001
0020
0000
0000
0030
0000
,
0001
0100
1000
0020
0000
0000
0030
0000
,
1000
0100
0010
0001
1000
0100
0010
0001
,
0001
0100
0010
1000
0001
0100
0010
1000
,
0001
0010
0100
1000
0010
0100
0001
0010
,
1000
0010
0100
0001
0100
1000
0010
0100
,
0001
0010
0001
1000
0000
0100
1000
0010
,
0100
0001
0010
0001
0000
0010
0100
1000
,
0010
1000
0100
0001
0000
0100
0010
0001
,
1000
0010
0100
0010
0000
0001
0010
1000
,
0010
0100
0001
1000
0000
0100
0010
0001
,
0100
0001
0010
0100
0000
0001
0100
1000
,
0010
1000
0010
0001
0000
0010
0100
0001
,
0010
0100
0010
1000
0001
0100
1000
0001
,
1000
0010
1000
0001
0000
0100
0001
0010
,
0100
1000
0010
1000
0000
0010
0100
0001
,
0010
0001
0100
1000
0000
0100
0010
1000
,
0001
0010
0100
0010
0000
1000
0010
0001
,
0010
0100
1000
0001
0000
0100
0010
1000
,
0100
1000
0010
0100
0000
1000
0100
0001
,
0010
0001
0010
1000
0000
0010
0100
1000
,
0010
0100
0010
0001
1000
0100
0001
0010
,
0100
1000
0000
1000
0000
0010
0000
0100
0000
0001
0000
1000
0001
0000
0010
0000
,
0100
0000
1000
0000
0100
0000
0001
0000
0100
1000
0000
0001
0010
0000
0001
0000
,
0100
0001
0000
0001
0000
0010
0000
0100
0000
1000
0000
0001
1000
0000
0010
0000
,
0100
0000
0001
0000
0100
0000
1000
0000
0100
0001
0000
1000
0010
0000
1000
0000
,
0100
1000
0000
0000
0001
1000
0000
0000
0010
0100
0000
0000
0001
0100
0000
0000
,
0010
1000
0000
0000
0001
0010
0000
0000
0100
1000
0000
0000
0001
0100
0000
0000
,
0010
1000
0000
0000
1000
0100
0000
0000
0100
0010
0000
0000
0010
0001
0000
0000
,
0001
0100
0000
0000
1000
0100
0000
0000
0001
0000
0010
0000
0100
0000
1000
0000
,
0001
0110
1000
0110
,
0001
0000
1100
0000
0010
0000
1100
1000
,
0100
1000
0010
0001
0010
0100
0001
0010
,
0100
0001
0100
1000
0010
0100
0001
0010
,
0100
0000
0000
0000
;

//---------------dance-single - ----------------
#NOTEDATA:;
#CHARTNAME:Beginner;
#STEPSTYPE:dance-single;
#DESCRIPTION:;
#CHARTSTYLE:;
#DIFFICULTY:Beginner;
#METER:2;
#RADARVALUES:0.131447,0.229051,0.000000,0.221116,0.000000,129.000000,129.000000,0.000000,31.000000,0.000000,0.000000,0.000000,0.000000,0.000000,0.131447,0.229051,0.000000,0.221116,0.000000,129.000000,129.000000,0.000000,31.000000,0.000000,0.000000,0.000000,0.000000,0.000000;
#CREDIT:Riakodoadm;
#NOTES:
0000
0000
0000
0000
,
0000
0000
0000
0000
,
0000
0000
0000
0000
,
0000
0000
0000
0000
,
0000
0000
0000
0000
,
0000
0000
0000
0000
,
0000
0000
0000
0000
,
0000
0000
0000
0000
,
0200
0000
0000
0000
,
0300
0000
0000
0000
,
0020
0000
0000
0000
,
0030
0000
0000
0000
,
0002
0000
0003
0000
,
2000
0000
3000
0000
,
0020
0000
0000
0030
,
0000
0000
0000
0000
,
2000
0000
3000
0000
,
0200
0000
0300
0000
,
0020
0000
0030
0000
,
0002
0000
0003
0000
,
0002
0000
0003
0000
,
0200
0000
0300
0000
,
0020
0000
0030
0000
,
2000
0000
3000
0000
,
0001
0000
0010
0000
,
0001
0000
0010
0000
,
0001
0000
0100
0000
,
0001
0000
0100
0000
,
0010
0000
0010
0000
,
1000
0000
1000
0000
,
0100
0000
0100
0000
,
0001
0000
0001
0000
,
1000
0000
0010
0000
,
1000
0000
0010
0000
,
1000
0000
0100
0000
,
1000
0000
0100
0000
,
0010
0000
0010
0000
,
0001
0000
0001
0000
,
0100
0000
0100
0000
,
1000
0000
1000
0000
,
0002
0000
0000
0000
,
0003
0000
0000
0000
,
2000
0000
0000
0000
,
3000
0000
0000
0000
,
0200
0000
0300
0000
,
0020
0000
0030
0000
,
0002
0000
0000
0000
,
0003
0000
0000
0000
,
2000
0000
0000
0000
,
3000
0000
0000
0000
,
0002
0000
0000
0000
,
0003
0000
0000
0000
,
0200
0000
0300
0000
,
0020
0000
0030
0000
,
2000
0000
0000
0000
,
3000
0000
0000
0000
,
2000
0000
3000
0000
,
0200
0000
0300
0000
,
0002
0000
0003
0000
,
0020
0000
0030
0000
,
2000
0000
3000
0000
,
0200
0000
0300
0000
,
0002
0000
0003
0000
,
0020
0000
0030
0000
,
1000
0000
0100
0000
,
1000
0000
0001
0001
,
0001
0000
0100
0000
,
0100
0000
0010
0000
,
0100
0000
0001
0000
,
0010
0000
0100
0100
,
0100
0000
1000
0000
,
1000
0000
0010
0000
,
0001
0000
0100
0000
,
0001
0000
1000
1000
,
1000
0000
0100
0000
,
0100
0000
0010
0000
,
0100
0000
1000
0000
,
0010
0000
0100
0100
,
0100
0000
0001
0000
,
0001
0000
0010
0000
,
1000
0000
0001
0000
,
0100
0100
0100
0000
,
0001
0000
1000
0000
,
0100
0100
0100
0000
,
0001
0000
0100
0000
,
0010
0010
0010
0000
,
1000
0000
0100
0000
,
0010
0010
0010
0000
,
0000
0010
0000
0010
,
0000
0100
0000
0100
,
0000
1000
0000
1000
,
0001
0001
0001
0001
;

//---------------dance-double - kinda weird----------------
#NOTEDATA:;
#CHARTNAME:Difficult;
#STEPSTYPE:dance-double;
#DESCRIPTION:kinda weird;
#CHARTSTYLE:;
#DIFFICULTY:Medium;
#METER:10;
#RADARVALUES:0.458535,0.557783,0.028531,0.149788,0.000000,450.000000,446.000000,4.000000,21.000000,0.000000,0.000000,0.000000,0.000000,0.000000,0.458535,0.557783,0.028531,0.149788,0.000000,450.000000,446.000000,4.000000,21.000000,0.000000,0.000000,0.000000,0.000000,0.000000;
#CREDIT:Riakodoadm;
#NOTES:
00000000
00000000
00000000
00000000
,
00000000
00000000
00000000
00000000
,
00000000
00000000
00000000
00000000
,
00000000
00000000
00000000
00000000
,
00000000
00000000
00000000
00000000
,
00000000
00000000
00000000
00000000
,
00000000
00000000
00000000
00000000
,
00000000
00000000
00000000
00000000
,
20000000
00000000
00000000
00000000
,
00000000
00000000
00000000
32000000
,
03020000
00000000
00032000
00003200
00000000
00000000
00000000
00000000
,
00000000
00000000
00000000
00000320
,
00020030
00032000
00000000
00203000
,
00302000
00000000
00000000
00023000
,
00230000
00000000
00320000
00032000
00000000
00000000
00000000
00000000
,
00003020
00000000
00002030
00023000
00000000
00000000
00000000
00000000
,
00031000
00000100
00000001
00000010
,
00001000
00010000
01000000
10000000
,
00100000
00010000
00001000
00000100
,
00000001
00000010
00001000
00010000
,
01000000
10000000
01000000
10000000
00100000
10000000
00100000
10000000
,
00100000
00010000
00100000
00010000
00001000
00010000
00001000
00010000
,
00001000
00000010
00001000
00000010
00000001
00000010
00000001
00000010
,
00000001
00000100
00000001
00000100
00001000
00000100
00001000
00000100
,
00001000
00010000
00001000
00000000
00100000
00010000
00100000
00000000
,
01000000
10000000
01000000
00000000
10000000
01000000
00010000
00001000
,
00100000
00001000
00100000
00000000
00000100
00001000
00000100
00000000
,
00001000
00000010
00001000
00000000
00000010
00000100
00001000
00010000
,
00100000
01000000
00100000
00000000
10000000
01000000
10000000
00000000
,
00001000
01000000
00001000
00000000
00010000
00001000
00000100
00000001
,
00000010
00000001
00000010
00000000
00000001
00000100
00000001
00000000
,
00000100
00000010
00000100
00000000
00000010
00010000
00001000
01000000
,
00100000
10000000
01000000
00000000
10000000
00100000
01000000
00000000
,
00010000
01000000
00001000
00000000
00010000
01000000
00010000
00001000
,
00000100
00000010
00001000
00000000
00000100
00000010
00000001
00000000
,
00001000
00000010
00000100
00000000
00001000
00010000
00100000
00010000
,
00001000
00100000
01000000
00000000
00010000
01000000
00100000
00000000
,
10000000
00100000
00010000
00000000
10000000
00100000
00010000
00001000
,
00000010
00000001
00000100
00000000
00001000
00000100
00000001
00000000
,
00001000
00000010
00000001
00000010
00010000
00001000
00010000
01000000
,
00100000
01000000
00100000
00000000
00000000
00000000
00000000
00000000
,
00100000
01000000
00100000
00000000
00000000
00000000
00000000
00000000
,
00000010
00000100
00000010
00000000
00000000
00000000
00000000
00000000
,
00000010
00000100
00000010
00000000
00000000
00000000
00000000
00000000
,
00001000
00000100
00001000
00000000
00000000
00000000
00000000
00000000
,
00001000
00000100
00001000
00000000
00000000
00000000
00000000
00000000
,
00010000
01000000
00010000
00000000
00000000
00000000
00000000
00000000
,
00010000
01000000
00010000
00000000
00000000
00000000
00000000
00000000
,
00000100
00001000
00000010
00000000
00000000
00000000
00000000
00000000
,
00000100
00001000
00000010
00000000
00000000
00000000
00000000
00000000
,
01000000
00010000
00100000
00000000
00000000
00000000
00000000
00000000
,
01000000
00010000
00100000
00000000
00000000
00000000
00000000
00000000
,
01000000
00010000
00001000
00000000
00000000
00000000
00000000
00000000
,
01000000
00010000
00001000
00000000
00000000
00000000
00000000
00000000
,
00000100
00001000
00010000
00000000
00000000
00000000
00000000
00000000
,
00000100
00001000
00010000
00000000
00000000
00000000
00000000
00000000
,
10000000
01000000
00100000
00020000
00000000
00000000
00030000
00000000
,
00001000
00000100
00000010
00000002
00000000
00000000
00000003
00000000
,
00000001
00000100
00000010
00002000
00000000
00000000
00003000
00000000
,
00010000
01000000
00100000
20000000
00000000
00000000
30000000
00000000
,
01000000
10000000
01000000
10000000
00010000
00100000
00010000
00100000
,
00001000
00010000
00001000
00010000
00000100
00001000
00000100
00001000
,
00000010
00000100
00000010
00000100
00000001
00000010
00000001
00000010
,
00001000
00010000
00001000
00010000
01000000
00100000
01000000
00100000
,
00010000
00100000
01000000
10000000
00000000
00100000
01000000
00100000
,
01000000
00100000
00010000
00001000
00000000
00010000
00000100
00010000
,
00000100
00001000
00000010
00000100
00000000
00000001
00000100
00000001
,
00000100
00000001
00000010
00001000
00000000
00010000
00001000
00010000
,
00001000
00100000
01000000
10000000
00000000
00010000
00100000
00010000
,
00100000
01000000
10000000
00100000
00000000
01000000
00001000
01000000
,
00001000
00010000
01000000
00010000
00000000
00001000
00000100
00001000
,
00000100
00000010
00000100
00000001
00000000
00000010
00000100
00001000
,
00000010
00010000
00000010
00001000
00000000
00000100
00010000
00001000
,
00100000
01000000
00100000
01000000
00000000
10000000
00100000
00010000
,
00001000
01000000
00001000
00010000
00000000
00001000
00000100
00000010
,
00001000
00000001
00000010
00000001
00000000
00000010
00001000
00010000
,
00100000
00010000
00100000
01000000
00000000
00100000
10000000
01000000
,
00100000
00001000
00100000
01000000
00000000
00010000
00001000
00000100
,
00000001
00000010
00000100
00001000
00000000
00000010
00000100
00001000
,
00010000
00100000
01000000
00010000
10000000
01000000
00100000
00010000
,
00100000
00010000
01000000
00000000
01001000
00000000
00010100
00000000
,
00000100
00001000
00000010
00000000
00000100
00000001
00000010
00000001
,
00000100
00000010
00001000
00000000
00001010
00000000
00010100
00000000
,
00010000
00001000
00000010
00000000
00001000
00010000
01000000
10000000
,
00100000
00100000
00010000
00010000
,
00001000
00001000
00000010
00000010
,
00001000
00001000
00010000
00010000
,
01000000
00000000
00010000
00000000
00100000
00010000
00001000
00000100
,
00000001
00000001
00001000
00001000
,
00010000
00010000
10000000
10000000
,
01000000
10000000
01000000
10000000
00010000
00100000
00010000
00100000
,
00001000
00010000
00100000
00010000
00001000
00000010
00000001
00001000
,
00000100
00000000
00000000
00000000
;

//---------------dance-double - ----------------
#NOTEDATA:;
#CHARTNAME:Basic;
#STEPSTYPE:dance-double;
#DESCRIPTION:;
#CHARTSTYLE:;
#DIFFICULTY:Easy;
#METER:5;
#RADARVALUES:0.284292,0.360918,0.185452,0.085593,0.000000,279.000000,253.000000,26.000000,12.000000,0.000000,0.000000,0.000000,0.000000,0.000000,0.284292,0.360918,0.185452,0.085593,0.000000,279.000000,253.000000,26.000000,12.000000,0.000000,0.000000,0.000000,0.000000,0.000000;
#CREDIT:Riakodoadm;
#NOTES:
00000000
00000000
00000000
00000000
,
00000000
00000000
00000000
00000000
,
00000000
00000000
00000000
00000000
,
00000000
00000000
00000000
00000000
,
00000000
00000000
00000000
00000000
,
00000000
00000000
00000000
00000000
,
00000000
00000000
00000000
00000000
,
00000000
00000000
00000000
00000000
,
00020000
00000000
00001000
00000000
,
01000000
00000000
00001000
00000000
,
00032000
00000000
00010000
00000000
,
00000100
00000000
00010000
00000000
,
00023000
00000000
00100000
00000000
,
00032000
00000000
00000010
00000000
,
00023000
00000000
00230000
00000000
,
20300000
00000000
32000000
00000000
,
03010000
00000000
00001000
00000000
,
00000010
00000000
00010000
00000000
,
00001000
00000000
00000010
00000000
,
00010000
00000000
00001000
00000000
,
00001000
00000100
00001000
00000100
,
00000001
00000100
00000001
00000100
,
00000001
00000001
00001000
00001000
,
00010000
00010000
10000000
10000000
,
00100000
10100000
00000000
01010000
,
00000000
00101000
00000000
00011000
,
00010000
01010000
00000000
00011000
,
00000000
00001100
00000000
00000110
,
00000100
00000101
00000000
00000011
,
00000000
00001010
00000000
00001100
,
00000100
00000010
00000000
00010010
,
00000000
00011000
00000000
00101000
,
00001000
00100000
00001000
00010000
,
00001000
00000100
00000001
00000101
,
00000100
00001000
00000100
00000010
,
00000100
00001000
00010000
00011000
,
00001000
00100000
00010000
00100000
,
01000000
00010000
01000000
11000000
,
10000000
00100000
01000000
00100000
,
00010000
00001000
00000010
00000001
,
00000100
00000010
00000000
00000000
,
00010000
00001000
00000000
00000000
,
00100000
01000000
00000000
00000000
,
00010000
00001000
00000000
00000000
,
00000010
00000100
00000000
00000000
,
00010000
00001000
00000000
00000000
,
01000000
00100000
00000000
00000000
,
00010000
00001000
00000000
00000000
,
00000100
00000001
00000000
00000000
,
00000010
00001000
00000000
00000000
,
00010000
01000000
00000000
00000000
,
10000000
00100000
00000000
00000000
,
00010000
00001000
00000000
00000000
,
00000100
00000001
00000000
00000000
,
00000100
00001000
00000000
00000000
,
00010000
01000000
00000000
00000000
,
00200000
00000000
00300000
00000000
,
00000020
00000000
00000030
00000000
,
00200000
00000000
00300000
00000000
,
00000020
00000000
00000030
00000000
,
00000001
00000001
00000100
00000100
,
00000010
00000010
00001000
00001000
,
00010000
00010000
00100000
00100000
,
01000000
01000000
10000000
10000000
,
00100000
10000000
01000000
01000000
,
00100000
00010000
01000000
01001000
,
00001000
00010000
00000100
00000100
,
00010000
00001000
01000000
01100000
,
00100000
00010000
00001000
00001000
,
00100000
00001000
00010000
00010010
,
00000010
00000100
00000001
00000001
,
00000010
00000100
00001000
00001001
,
00000010
00000001
00000100
00000100
,
00000010
00001000
00000100
00010100
,
00010000
00001000
01000000
01000000
,
00001000
00010000
00000100
00000110
,
00000010
00001000
00010000
00010000
,
00000010
00010000
00001000
00101000
,
00100000
01000000
10000000
10000000
,
00100000
01000000
00010000
10010000
,
10000000
01000000
00010000
01000000
,
10000000
01000000
00100000
00100000
,
00001000
00010000
01000000
00010000
,
00001000
00010000
00000010
00000010
,
00000100
00001000
00000100
00000001
,
00000010
00000100
00000010
00000001
,
00001000
00000010
00001000
00000100
,
00010000
00001000
00010000
00100000
,
10000000
00000000
10000000
00000000
,
01000000
00000000
01000000
00000000
,
00010000
00010000
00001000
00001000
,
00000100
00000100
00000001
00000001
,
00000010
00000000
00000000
00000000
;

//---------------para-single - ----------------
#NOTEDATA:;
#CHARTNAME:Freestyle [Expert];
#STEPSTYPE:para-single;
#DESCRIPTION:;
#CHARTSTYLE:;
#DIFFICULTY:Challenge;
#METER:7;
#RADARVALUES:0.582849,1.016442,0.049929,0.221116,0.399435,572.000000,565.000000,7.000000,31.000000,0.000000,0.000000,0.000000,0.000000,0.000000,0.582849,1.016442,0.049929,0.221116,0.399435,572.000000,565.000000,7.000000,31.000000,0.000000,0.000000,0.000000,0.000000,0.000000;
#CREDIT:Riakodoadm;
#NOTES:
// measure 0
00000
00000
00000
00000
,  // measure 1
00000
00000
00000
00000
,  // measure 2
00000
00000
00000
00000
,  // measure 3
00000
00000
00000
00000
,  // measure 4
00000
00000
00000
00000
,  // measure 5
00000
00000
00000
00000
,  // measure 6
00000
00000
00000
00000
,  // measure 7
00000
00000
00000
00000
,  // measure 8
00020
00000
00000
00000
,  // measure 9
00000
00000
00000
02030
,  // measure 10
00100
00000
00010
00002
00000
00000
03000
00000
,  // measure 11
00000
00000
00000
00100
,  // measure 12
01000
20003
00000
00100
,  // measure 13
00020
00000
30000
01000
,  // measure 14
00100
00000
01000
20030
00000
00000
00000
00000
,  // measure 15
00100
00000
00010
00002
00000
00000
30003
00000
,  // measure 16
02020
00000
00000
00000
,  // measure 17
00000
00000
00000
00000
,  // measure 18
03030
00000
00000
00000
,  // measure 19
00000
00000
00000
00000
,  // measure 20
10000
00000
01000
00000
,  // measure 21
00100
00000
00010
00000
,  // measure 22
00001
00010
00100
01000
,  // measure 23
10000
00000
01000
00000
00100
00000
00010
00000
10000
01000
00100
00010
00001
00010
00100
01000
,  // measure 24
10000
01000
00100
01000
00100
00010
00001
10000
,  // measure 25
01000
00000
00010
00000
10000
00000
00001
00000
00100
01000
10000
00000
01000
00100
00010
00000
,  // measure 26
00001
00010
00100
01000
00100
01000
10000
01000
,  // measure 27
00100
00000
00010
00000
00100
00000
01000
00000
10000
01000
00100
00000
01000
00100
00010
00000
,  // measure 28
00001
00000
00010
00000
00100
00000
01000
00000
10000
00000
00001
00000
00010
00100
01000
00000
,  // measure 29
10000
00000
01000
00000
00100
00000
00010
00000
00001
00000
10000
00000
01000
00100
00010
00000
,  // measure 30
00001
00000
00010
00000
00100
00010
00001
00000
10000
00000
01000
00000
00100
01000
10000
00000
,  // measure 31
01000
00100
00010
00000
10000
01000
00100
00000
00010
00100
01000
00000
10000
01000
00100
00000
,  // measure 32
00001
00010
00100
00010
00100
01000
10000
00001
,  // measure 33
00010
00000
01000
00000
00001
00000
10000
00000
00100
00010
00001
00000
00010
00100
01000
00000
,  // measure 34
10000
01000
00100
00010
00100
00010
00001
00010
,  // measure 35
00100
00000
01000
00000
00100
00000
00010
00000
00001
00010
00100
00000
00010
00100
01000
00000
,  // measure 36
10000
00000
01000
00000
00100
00000
00010
00000
00001
00000
10000
00000
01000
00100
00010
00000
,  // measure 37
00001
00000
00010
00000
00100
00000
01000
00000
10000
00000
00001
00000
00010
00100
01000
00000
,  // measure 38
10000
00000
01000
00000
00100
01000
10000
00000
00001
00000
00010
00000
00100
00010
00001
00000
,  // measure 39
00010
00100
01000
00000
00001
00010
00100
00000
01000
00100
00010
00001
10000
01000
00100
00010
,  // measure 40
00002
00000
00000
00000
,  // measure 41
00000
00000
00000
20003
,  // measure 42
00100
00000
00010
00002
00000
00000
00000
00000
,  // measure 43
00000
00000
30000
00010
,  // measure 44
00100
02003
00000
00100
,  // measure 45
00020
00000
03000
20030
,  // measure 46
00100
00000
00010
00002
00000
00000
00000
00000
,  // measure 47
00000
00000
00000
00000
00000
00000
00000
30003
,  // measure 48
02000
00000
00000
00000
,  // measure 49
00000
00000
00000
03020
,  // measure 50
00100
00000
01000
20000
00000
00000
00030
00000
,  // measure 51
00000
00000
00000
00100
,  // measure 52
00010
30002
00000
00100
,  // measure 53
02000
00000
00003
00010
,  // measure 54
00100
00000
00010
03002
00000
00000
00000
00000
,  // measure 55
00100
00000
01000
20000
00000
00000
30003
00000
,  // measure 56
01000
00100
00010
00002
00100
00100
00100
00000
,  // measure 57
00013
00100
01000
20000
00100
00100
00100
00000
,  // measure 58
31000
00100
00010
00002
00100
00100
00100
00000
,  // measure 59
00013
00100
01000
20000
00100
00100
00100
00000
,  // measure 60
31000
00100
00010
00001
01000
00100
00010
00001
,  // measure 61
00010
00100
01000
10000
00010
00100
01000
10000
,  // measure 62
00001
00010
00100
01000
10000
00010
00100
01000
,  // measure 63
10000
01000
00100
00010
01000
00100
00010
00001
00010
00100
01000
10000
00001
00010
00100
01000
,  // measure 64
00010
00000
00100
00000
01000
00000
10000
00000
00100
00010
00001
00000
01000
00100
00010
00000
,  // measure 65
01000
00000
00100
00000
01000
00000
10000
00000
00100
00010
00001
00000
10000
01000
00100
00000
,  // measure 66
00010
00000
00100
00000
01000
00000
00100
00000
00010
00001
10000
00000
01000
00100
00010
00000
,  // measure 67
01000
00000
00100
00000
00010
00000
00100
00000
10000
01000
00100
00000
01000
10000
00001
00000
,  // measure 68
00010
00000
00100
00000
00010
00000
00001
00000
00100
01000
10000
00000
01000
00100
00010
00000
,  // measure 69
00100
00000
00001
00000
01000
00000
00010
00000
10000
01000
00100
00000
00010
00001
10000
00000
,  // measure 70
00010
00000
00100
00000
01000
00000
10000
00000
00001
00010
00100
00000
01000
00100
00010
00000
,  // measure 71
00001
00000
10000
00000
00010
00000
01000
00000
00010
00100
01000
00000
00010
00100
01000
00000
,  // measure 72
00010
00000
00100
00000
00010
00000
00001
00000
00100
01000
10000
00000
00010
00100
01000
00000
,  // measure 73
00010
00000
00100
00000
00010
00000
00001
00000
00100
01000
10000
00000
00001
00010
00100
00000
,  // measure 74
01000
00000
00100
00000
00010
00000
00100
00000
01000
10000
00001
00000
00010
00100
01000
00000
,  // measure 75
00010
00000
00100
00000
01000
00000
00100
00000
00001
00010
00100
00000
00010
00001
10000
00000
,  // measure 76
01000
00000
00100
00000
01000
00000
10000
00000
00100
00010
00001
00000
00010
00100
01000
00000
,  // measure 77
00100
00000
10000
00000
00010
00000
01000
00000
00001
00010
00100
00000
01000
10000
00001
00000
,  // measure 78
01000
00000
00100
00000
00010
00000
00001
00000
10000
01000
00100
00000
00010
00100
01000
00000
,  // measure 79
10000
00000
00001
00000
01000
00000
00010
00000
01000
00100
00010
00001
10000
01000
00100
00010
,  // measure 80
00001
01000
00100
00010
00000
00100
01000
10000
00000
00001
00000
00010
00100
00000
00010
00001
,  // measure 81
00100
01000
10000
00000
00100
00010
00001
00000
00010
00100
00000
01000
10000
00000
00010
00001
,  // measure 82
00010
00100
10000
01000
00000
00100
01000
10000
00000
00100
00000
00010
00001
00000
10000
01000
,  // measure 83
00100
00010
00001
00000
00100
01000
10000
00000
01000
00100
00000
00010
00100
00000
01000
10000
,  // measure 84
00001
00010
00100
00000
00020
00000
00000
00000
00130
01000
10000
00000
02000
00000
00000
00000
,  // measure 85
03100
00010
00001
00000
20000
00000
00000
00000
31000
00100
00010
00000
00002
00000
00000
00000
,  // measure 86
00013
00100
01000
00000
00100
01000
10000
00000
01000
00100
00010
00000
01000
00100
00010
00000
,  // measure 87
00101
00000
01010
00000
10100
00000
01010
00000
10001
00010
00100
01000
10000
01000
00100
00010
,  // measure 88
10001
00001
10000
10000
,  // measure 89
00010
00010
01000
01000
,  // measure 90
10000
10000
00001
00001
,  // measure 91
00100
00000
00100
00000
00100
00000
00100
00000
10000
01000
00100
00010
01000
00100
00010
00001
;

//---------------dance-double - ----------------
#NOTEDATA:;
#CHARTNAME:Expert;
#STEPSTYPE:dance-double;
#DESCRIPTION:;
#CHARTSTYLE:;
#DIFFICULTY:Hard;
#METER:15;
#RADARVALUES:0.806003,1.082019,0.028531,0.028531,0.592020,791.000000,787.000000,4.000000,4.000000,0.000000,0.000000,0.000000,0.000000,0.000000,0.806003,1.082019,0.028531,0.028531,0.592020,791.000000,787.000000,4.000000,4.000000,0.000000,0.000000,0.000000,0.000000,0.000000;
#CREDIT:Riakodoadm;
#NOTES:
00000000
00000000
00000000
00000000
,
00000000
00000000
00000000
00000000
,
00000000
00000000
00000000
00000000
,
00000000
00000000
00000000
00000000
,
00000000
00000000
00000000
00000000
,
00000000
00000000
00000000
00000000
,
00000000
00000000
00000000
00000000
,
00000000
00000000
00000000
00000000
,
00001000
00000001
00001000
00000001
00000010
00000100
00000010
00000100
,
00010000
00001000
00010000
00001000
01000000
00010000
01000000
00010000
,
10000000
00100000
10000000
00100000
01000000
00001000
01000000
00001000
,
00100000
01000000
00100000
01000000
00010000
00001000
00010000
00001000
,
00000100
00000010
00000100
00000010
00010000
00000010
00010000
00000010
,
00000100
00000001
00000100
00000001
00000010
00000001
00000010
00000001
,
00000010
00001000
00000010
00001000
00010000
00001000
00010000
00001000
,
00010000
00100000
00010000
00100000
10000000
01000000
00010000
00001000
,
00000100
00000010
00001000
00000001
00000010
00000100
00010000
00000100
,
00001000
00000010
00010000
00001000
00100000
00001000
01000000
00010000
,
00100000
01000000
10000000
01000000
00100000
00001000
00010000
00100000
,
00010000
00001000
00100000
01000000
00010000
00000100
00001000
00000010
,
00000100
00000001
00000100
00000001
00000100
00000001
00000100
00000001
00001000
00000010
00001000
00000010
00001000
00000010
00001000
00000010
,
00010000
00000100
00010000
00000100
00010000
00000100
00010000
00000100
00100000
00001000
00100000
00001000
00100000
00001000
00100000
00001000
,
01000000
00100000
10000000
00100000
01000000
00010000
00100000
00001000
00010000
00000100
00001000
00000010
00000100
00000001
00000100
00000010
,
00010000
00001000
00100000
00001000
01000000
00010000
00100000
01000000
00100000
00001000
00010000
00001000
01000000
00100000
01000000
00010000
,
10000000
01000000
00100000
01000000
10000000
00100000
01000000
00001000
,
00010000
00000000
00100000
00000000
00010000
00000000
00001000
00000000
00100000
01000000
00100000
00000000
00010000
10000000
00010000
00000000
,
00100000
00001000
00010000
00000010
00010000
00001000
00010000
00000100
,
00001000
00000000
00000010
00000000
00000100
00000000
00000001
00000000
00000100
00001000
00000100
00000000
00000001
00000010
00000001
00000000
,
00000010
00001000
00010000
00000100
00010000
00000010
00000100
00000010
,
00010000
00000000
00001000
00000000
00000100
00000000
00000001
00000000
00001000
00000010
00001000
00000000
00000001
00000100
00000001
00000000
,
00000100
00001000
00000100
00000001
00000010
00001000
00010000
01000000
,
00100000
00000000
01000000
00000000
00010000
00000000
00001000
00000000
00100000
00001000
00100000
00000000
00000010
00001000
00000010
00000000
,
00001000
00000000
00000100
00000000
00000010
00000000
00000100
00000000
00001000
00000000
00000010
00000000
00000100
00000001
00000100
00000000
,
00000001
00000000
00000010
00000000
00001000
00000000
00010000
00000000
00000100
00010000
00001000
00000000
00010000
00001000
01000000
00000000
,
00100000
00000000
00010000
00000000
00001000
00000000
00000100
00000000
00001000
00000000
00010000
00000000
00100000
01000000
00100000
00000000
,
10000000
00000000
00100000
00000000
01000000
00000000
00001000
00000000
00010000
00000010
00001000
00000000
00000100
00010000
00001000
00000000
,
01000000
00000000
00100000
00000000
01000000
00000000
00010000
00000000
10000000
00000000
00100000
00000000
00010000
00001000
00010000
00000000
,
01000000
00000000
00100000
00000000
00001000
00000000
00010000
00000000
00000010
00001000
00000001
00000000
00000010
00000001
00000100
00000000
,
00000010
00000000
00000001
00000000
00001000
00000000
00000100
00000000
00000010
00000000
00010000
00000000
00001000
00100000
00001000
00000000
,
00010000
00000000
01000000
00000000
00010000
00000000
00001000
00000000
00000100
00001000
00000100
00001000
00000100
00000001
00000100
00000001
,
00001000
00000010
00001000
00000100
00000000
00000100
00000000
00000100
,
00001000
00000010
00001000
00000100
00000000
00000100
00000000
00000100
,
00010000
01000000
00010000
00001000
00000000
00001000
00000000
00001000
,
00010000
01000000
00010000
00001000
00000000
00001000
00000000
00001000
,
00100000
01000000
00100000
00010000
00000000
00010000
00000000
00010000
,
00100000
01000000
00100000
00010000
00000000
00010000
00000000
00010000
,
01000000
00100000
01000000
10000000
00000000
10000000
00000000
10000000
,
01000000
00100000
01000000
10000000
00000000
10000000
00000000
01000000
,
00010000
00100000
00010000
01000000
00000000
01000000
00000000
01000000
,
00010000
00100000
00010000
01000000
00000000
01000000
00000000
01000000
,
00001000
00000100
00001000
00010000
00000000
00010000
00000000
00010000
,
00001000
00000100
00001000
00010000
00000000
00010000
00000000
00010000
,
00000010
00000100
00000010
00001000
00000000
00001000
00000000
00001000
,
00000010
00000100
00000010
00001000
00000000
00001000
00000000
00001000
,
00000100
00000010
00000100
00000001
00000000
00000001
00000000
00000001
,
00000100
00000010
00000100
00000001
00000000
00000001
00000000
00000100
,
00001000
00000010
00000100
00000002
00001000
00001000
00001003
00000000
,
00000001
00000010
00001000
00020000
00000100
00000100
00030100
00000000
,
00010000
00100000
10000000
02000000
00010000
00010000
03010000
00000000
,
01000000
10000000
00100000
00020000
00001000
00001000
00031000
00000000
,
00010000
00000010
00000100
00000001
00001000
00000100
00000010
00000001
,
00000010
00000100
00010000
00001000
00000100
00000010
00010000
00001000
,
00100000
01000000
00100000
01000000
10000000
00010000
10000000
00010000
01000000
00100000
01000000
00100000
00010000
00001000
00010000
00001000
,
00000100
00001000
00000100
00001000
00000100
00000001
00000100
00000001
00000010
00000001
00000010
00000001
00000010
00000100
00010000
00001000
,
00010000
00000000
00010000
00000000
00100000
00000000
00100000
00000000
01000000
00100000
10000000
00000000
01000000
10000000
00100000
00000000
,
01000000
00000000
01000000
00000000
00001000
00000000
00001000
00000000
00010000
00100000
00010000
00000000
00001000
00010000
00000100
00000000
,
00000010
00000000
00000010
00000000
00000001
00000000
00000001
00000000
00001000
00000010
00000100
00000000
00000001
00000100
00000010
00000000
,
00000100
00000000
00000100
00000000
00001000
00000000
00001000
00000000
00010000
00000010
00010000
00000000
00001000
00100000
00010000
01000000
,
00100000
00000000
00100000
00000000
10000000
00000000
10000000
00000000
01000000
00010000
01000000
00000000
00100000
00001000
00010000
00000000
,
00000100
00000000
00000100
00000000
00000010
00000000
00000010
00000000
00001000
00000010
00000100
00000000
00000010
00000001
00000100
00000000
,
00001000
00000000
00001000
00000000
00010000
00000000
00010000
00000000
00000010
00001000
00000100
00000000
00001000
00000010
00010000
00000000
,
00001000
00000000
00001000
00000000
00100000
00000000
00100000
00000000
00010000
01000000
00100000
10000000
01000000
00100000
00001000
00010000
,
00001000
00000000
00001000
00000000
00000010
00000000
00000010
00000000
00000100
00000010
00000001
00000000
00000100
00000001
00000010
00000000
,
00000100
00000000
00000100
00000000
00010000
00000000
00010000
00000000
00001000
00000010
00001000
00000000
00010000
00001000
01000000
00000000
,
00100000
00000000
00100000
00000000
10000000
00000000
10000000
00000000
00010000
00100000
01000000
00000000
10000000
01000000
00100000
00000000
,
01000000
00000000
01000000
00000000
00010000
00000000
00010000
00000000
00001000
00100000
00001000
00000000
00010000
00000010
00001000
00000100
,
00000010
00000000
00000010
00000000
00000001
00000000
00000001
00000000
00000100
00001000
00000100
00000000
00000010
00010000
00001000
00000000
,
01000000
00000000
01000000
00000000
00100000
00000000
00100000
00000000
00010000
00100000
01000000
00000000
00100000
10000000
01000000
00000000
,
00010000
00000000
00010000
00000000
00001000
00000000
00001000
00000000
00100000
00010000
01000000
00000000
00010000
00100000
00001000
00000000
,
00010000
00000000
01000000
00000000
10000000
00000000
00100000
00000000
00010000
00001000
00000100
00000010
00001000
00000001
00000010
00000100
,
00010000
00000010
00001000
00000001
00000000
00000100
00001000
00010000
00000000
00001000
00000000
00000010
00000100
00000000
00000010
00001000
,
00010000
00100000
00010000
00000000
00100000
10000000
00100000
00000000
10000000
01000000
00000000
00010000
01000000
00000000
10000000
00100000
,
01000000
00001000
00100000
00010000
00000000
00100000
01000000
00010000
00000000
00001000
00000000
00000100
00000010
00000000
00000100
00000001
,
00000100
00001000
00000100
00000000
00001000
00010000
00100000
00000000
01000000
00100000
00000000
10000000
00010000
00000000
00100000
01000000
,
10000000
01000000
10000000
00000000
10000000
01000000
10000000
00000000
00010000
00100000
00010000
00000000
00010000
00100000
00010000
00000000
,
00001000
00000100
00001000
00000000
00001000
00000100
00001000
00000000
00000001
00000010
00000001
00000000
00000001
00000010
00000001
00000000
,
00000100
00000010
00000100
00000000
00000100
00001000
00000100
00000000
00001000
00010000
00001000
00000000
00001000
00100000
00001000
00000000
,
00100000
00010000
00100000
00000000
00100000
01000000
00100000
00000000
01000000
00010000
00001000
00010000
00000010
00010000
00001000
00100000
,
00010000
01100000
10000000
00110000
,
00100000
00000000
00011000
00000000
00000010
00000000
00001100
00001000
,
00000100
00000010
00000100
00000010
00000001
00000010
00000001
00000010
00000001
00000100
00000001
00000100
00000010
00000100
00000010
00000100
,
00000010
00010000
00000010
00010000
00001000
00010000
00001000
00010000
00001000
00100000
00010000
01000000
00100000
00010000
00001000
00000100
;

//---------------para-single - ----------------
#NOTEDATA:;
#CHARTNAME:Freestyle [Hard];
#STEPSTYPE:para-single;
#DESCRIPTION:;
#CHARTSTYLE:;
#DIFFICULTY:Hard;
#METER:4;
#RADARVALUES:0.340335,0.524259,0.549223,0.149788,0.000000,334.000000,257.000000,77.000000,21.000000,0.000000,0.000000,0.000000,0.000000,0.000000,0.340335,0.524259,0.549223,0.149788,0.000000,334.000000,257.000000,77.000000,21.000000,0.000000,0.000000,0.000000,0.000000,0.000000;
#CREDIT:Riakodoadm;
#NOTES:
// measure 0
00000
00000
00000
00000
,  // measure 1
00000
00000
00000
00000
,  // measure 2
00000
00000
00000
00000
,  // measure 3
00000
00000
00000
00000
,  // measure 4
00000
00000
00000
00000
,  // measure 5
00000
00000
00000
00000
,  // measure 6
00000
00000
00000
00000
,  // measure 7
00000
00000
00000
00000
,  // measure 8
02000
00000
00000
00000
,  // measure 9
00002
00000
00000
03003
,  // measure 10
00011
00110
01100
11000
,  // measure 11
20000
00000
00000
30000
,  // measure 12
00020
00000
00000
00000
,  // measure 13
20000
00000
00000
30030
,  // measure 14
11000
01100
00110
00011
,  // measure 15
00002
00000
00000
00003
,  // measure 16
00200
00000
00000
00000
,  // measure 17
00000
00000
00000
00000
,  // measure 18
00300
00000
00000
00000
,  // measure 19
00000
00000
00000
00000
,  // measure 20
20000
00000
00000
00000
,  // measure 21
00002
00000
00000
30003
,  // measure 22
01010
00000
00100
00000
,  // measure 23
00000
00000
00100
01010
10001
00000
00000
00000
,  // measure 24
00100
10010
00100
10010
,  // measure 25
01000
00010
00010
01000
,  // measure 26
00100
01001
00100
01001
,  // measure 27
00010
01000
01000
00010
,  // measure 28
00100
00000
10001
00000
00010
00100
01000
00000
,  // measure 29
00100
00000
10001
00000
01000
00100
00010
00000
,  // measure 30
00101
00000
10100
00000
,  // measure 31
01000
00100
00010
00000
00010
00100
01000
00000
,  // measure 32
00100
01001
00100
01001
,  // measure 33
00010
01000
01000
00010
,  // measure 34
00100
10010
00100
10010
,  // measure 35
01000
00010
00010
01000
,  // measure 36
00100
00000
10001
00000
01000
00100
00010
00000
,  // measure 37
00100
00000
10001
00000
00010
00100
01000
00000
,  // measure 38
10100
00000
00101
00000
,  // measure 39
00010
00100
01000
00000
01000
00100
00010
00000
,  // measure 40
01002
01000
00000
00000
,  // measure 41
01000
01000
00000
00003
,  // measure 42
20010
00010
00000
00000
,  // measure 43
00010
00010
00000
30000
,  // measure 44
02001
00001
00000
00000
,  // measure 45
00001
00001
00000
03000
,  // measure 46
10020
10000
00000
00000
,  // measure 47
10000
10000
00000
00030
,  // measure 48
20100
00100
00000
00000
,  // measure 49
00100
00100
00000
30000
,  // measure 50
00102
00100
00000
00000
,  // measure 51
00100
00100
00000
00003
,  // measure 52
01200
01000
00000
00000
,  // measure 53
01000
01000
00000
00300
,  // measure 54
00210
00010
00000
00000
,  // measure 55
00010
00010
00000
00300
,  // measure 56
00011
00110
01100
11000
,  // measure 57
20000
00000
30000
00000
,  // measure 58
11000
01100
00110
00011
,  // measure 59
00002
00000
00003
00000
,  // measure 60
00101
01010
10100
00000
,  // measure 61
10100
01010
00101
00000
,  // measure 62
10001
00010
00100
01000
,  // measure 63
10001
00010
00100
01000
,  // measure 64
00100
10010
00100
10010
,  // measure 65
01000
00010
00010
01000
,  // measure 66
00100
01001
00100
01001
,  // measure 67
00010
01000
01000
00010
,  // measure 68
00100
00000
10001
00000
00010
00100
01000
00000
,  // measure 69
00100
00000
10001
00000
01000
00100
00010
00000
,  // measure 70
00101
00000
10100
00000
,  // measure 71
01000
00100
00010
00000
00010
00100
01000
00000
,  // measure 72
00100
01001
00100
01001
,  // measure 73
00010
01000
01000
00010
,  // measure 74
00100
10010
00100
10010
,  // measure 75
01000
00010
00010
01000
,  // measure 76
00100
00000
10001
00000
01000
00100
00010
00000
,  // measure 77
00100
00000
10001
00000
00010
00100
01000
00000
,  // measure 78
10100
00000
00101
00000
,  // measure 79
00010
00100
01000
00000
01000
00100
00010
00000
,  // measure 80
10000
01000
00100
00000
01010
00000
01010
00000
,  // measure 81
00001
00010
00100
00000
01010
00000
01010
00000
,  // measure 82
00100
01000
10000
00000
10001
00000
10001
00000
,  // measure 83
00100
00010
00001
00000
10001
00000
10001
00000
,  // measure 84
02000
00000
03000
00000
,  // measure 85
00020
00000
00030
00000
,  // measure 86
01001
00000
10010
00000
,  // measure 87
10000
00000
00001
00000
01000
00010
01000
00010
,  // measure 88
00100
00000
00000
00000
,  // measure 89
00100
00000
00000
00000
,  // measure 90
01000
01000
00010
00010
,  // measure 91
01000
00100
00010
00000
00010
00100
01000
10000
;

//---------------dance-single - Fast X=Y but from memory----------------
#NOTEDATA:;
#CHARTNAME:Challenge;
#STEPSTYPE:dance-single;
#DESCRIPTION:Fast X=Y but from memory;
#CHARTSTYLE:;
#DIFFICULTY:Challenge;
#METER:18;
#RADARVALUES:1.051574,1.278750,0.128390,0.221116,1.291031,1032.000000,1014.000000,18.000000,31.000000,0.000000,0.000000,0.000000,0.000000,0.000000,1.051574,1.278750,0.128390,0.221116,1.291031,1032.000000,1014.000000,18.000000,31.000000,0.000000,0.000000,0.000000,0.000000,0.000000;
#CREDIT:Riakodoadm;
#NOTES:
0000
0000
0000
0000
,
0000
0000
0000
0000
,
0000
0000
0000
0000
,
0000
0000
0000
0000
,
0000
0000
0000
0000
,
0000
0000
0000
0000
,
0000
0000
0000
0000
,
0000
0000
0000
0000
,
1000
0001
1000
0000
0001
1000
0001
0000
0010
0001
0010
0000
0001
0010
0001
0000
,
0010
0100
0010
0000
0100
0010
0100
0000
1000
0100
1000
0000
0100
1000
0100
0000
,
1000
0001
1000
0000
0001
1000
0001
0000
0100
0001
0100
0000
0001
0100
0001
0000
,
0100
0010
0100
0000
0010
0100
0010
0000
1000
0010
1000
0000
0010
1000
0010
0000
,
0100
0001
0100
0000
0001
0100
0001
0000
0010
0001
0010
0000
0001
0010
0001
0000
,
1000
0100
1000
0000
0100
1000
0100
0000
1000
0010
1000
0000
0010
1000
0010
0000
,
0100
0010
0100
0000
0010
0100
0010
0000
1000
0001
1000
0000
0001
1000
0001
0000
,
1000
0100
1000
0000
0001
0100
0001
0000
1000
0010
1000
0000
0001
0010
0001
0000
,
1000
0010
1000
0000
0010
1000
0000
1000
0010
0000
0010
0100
0010
1000
0001
0100
,
0001
0010
0001
0000
0010
0100
0000
0010
0001
0010
0100
1000
0001
0100
0010
1000
,
0001
0010
0001
0000
0010
0001
0000
0001
0010
0000
0010
0100
0010
0001
1000
0100
,
1000
0010
1000
0000
0010
0100
0000
0010
1000
0010
0100
0001
1000
0100
0010
0001
,
1000
0010
1000
0010
1000
0010
1000
0010
0100
0001
0100
0001
0100
0001
0100
0001
,
0010
0001
0010
0001
0010
0001
0010
0001
1000
0100
1000
0100
1000
0100
1000
0100
,
0010
0001
0010
0001
0100
0001
0100
0001
0100
0010
0100
0010
1000
0010
1000
0010
,
1000
0000
0010
0000
0100
0000
0001
0000
1000
0000
0010
0000
0100
0000
0001
0000
1000
0000
0010
0000
0100
0000
0001
0000
1000
0000
0010
0000
0100
0000
0001
0000
1000
0000
0010
0000
1000
0000
0000
0001
0000
0000
0010
0000
0000
0001
0000
0000
,
1000
0100
1000
0000
0001
0100
0001
0000
0100
0010
0100
0000
0001
0100
0001
0000
,
1000
0100
0010
0000
0100
1000
0100
0000
1000
0100
0010
0000
0001
0100
0010
0000
,
0100
0001
0100
0000
0010
1000
0010
0000
0100
0001
0100
0000
0001
1000
0001
0000
,
0010
0001
0100
0000
0010
0100
0010
0000
0100
0001
0010
0000
0100
0010
0100
0000
,
1000
0010
0100
0000
0001
0100
0001
0000
0010
0100
1000
0000
0100
1000
0100
0000
,
0010
0001
0100
0000
0010
1000
0010
0000
1000
0100
0010
0000
0100
1000
0100
0000
,
0010
0001
1000
0000
0001
0100
0010
0000
0001
0010
0100
0000
0010
0100
1000
0000
,
1000
0100
0010
0000
0100
0010
0001
0000
0010
1000
0100
0000
0010
0001
0100
0000
,
0001
0100
0001
0000
1000
0100
1000
0000
0100
0010
0100
0000
1000
0100
1000
0000
,
0001
0100
0010
0000
0100
0001
0100
0000
0001
0100
0010
0000
1000
0100
0010
0000
,
0100
1000
0100
0000
0010
0001
0010
0000
0100
1000
0100
0000
1000
0001
1000
0000
,
0010
1000
0100
0000
0010
0100
0010
0000
0100
1000
0010
0000
0100
0010
0100
0000
,
0001
0010
0100
0000
1000
0100
1000
0000
0010
0100
0001
0000
0100
0001
0100
0000
,
0010
1000
0100
0000
0010
0001
0010
0000
0001
0100
0010
0000
0100
0001
0100
0000
,
0010
1000
0001
0000
1000
0100
0010
0000
1000
0010
0100
0000
0010
0100
0001
0000
,
0001
0100
0010
0000
0100
0010
1000
0000
0010
0001
1000
0010
0100
0001
0010
0100
,
1000
0010
2000
0001
0010
0001
0000
3001
,
1000
0010
2000
0001
0010
0001
0000
0001
,
3010
0001
0020
0100
1000
0100
0000
0130
,
0010
0001
0020
0100
1000
0100
0030
0010
,
1000
0100
2000
0010
0001
0010
0000
3010
,
1000
0100
2000
0010
0001
0010
0000
0010
,
3100
0001
0200
1000
0010
1000
0000
1300
,
0100
0001
0200
1000
0010
1000
0000
1300
,
0001
0010
0002
1000
0010
1000
0000
1003
,
0001
0010
0002
1000
0010
1000
0000
1000
,
0013
1000
0020
0100
0001
0100
0000
0130
,
0010
1000
0020
0100
0001
0100
0030
0010
,
0001
0100
0002
0010
1000
0010
0000
0013
,
0001
0100
0002
0010
1000
0010
0000
0010
,
0103
1000
0200
0001
0010
0001
0000
0301
,
0100
1000
0200
0001
0010
0001
0000
0301
,
1000
0001
1000
0001
1000
0100
1000
0100
0010
0100
0010
0100
0010
0001
0010
0001
,
1000
0100
0010
0001
1000
0100
0010
0001
1000
0010
0100
0001
1000
0010
0100
0001
,
1000
0001
1000
0001
0100
0001
0100
0001
0100
0010
0100
0010
1000
0010
1000
0010
,
1000
0001
0100
0010
1000
0001
0010
0100
1000
0001
0010
0100
1000
0001
0100
0010
,
1000
0100
1000
0100
0010
0100
0010
0100
0010
0001
0010
0001
0100
0001
0100
0001
,
0100
0010
0100
0010
1000
0010
1000
0010
1000
0100
1000
0100
0010
0100
0010
0100
,
0010
0001
1000
0010
0100
0001
0100
0010
1000
0001
0010
0100
1000
0100
0010
0001
,
1000
0000
0010
0000
0100
0000
0001
0000
1000
0000
0010
0000
0100
0000
0001
0000
1000
0000
0010
0000
0100
0000
0001
0000
1000
0000
0010
0000
0100
0000
0001
0000
1000
0000
0010
0000
0100
0000
0000
0010
0000
0000
1000
0000
0000
0100
0000
0000
,
0010
0000
0001
0000
2001
0000
3100
0000
0010
0001
1000
0010
0100
0001
1000
0100
,
1000
0000
0010
0000
0120
0000
1030
0000
0100
0010
1000
0010
0100
1000
0001
0010
,
0001
0000
1000
0000
1020
0000
0130
0000
0001
0100
0010
0100
0001
0010
0100
1000
,
0010
0000
1000
0000
1200
0000
0301
0000
0100
0010
0001
0100
0010
1000
0100
0010
,
1000
0000
0010
0000
0012
0000
0103
0000
1000
0100
0010
1000
0001
0010
0100
1000
,
0010
0000
0100
0000
0102
0000
0013
0000
1000
0010
0100
0001
0100
0010
0001
1000
,
0100
0000
1000
0000
1002
0000
0103
0000
0010
1000
0100
0010
0001
0100
1000
0100
,
0001
0000
0010
0000
0210
0000
1300
0000
0100
0010
0001
0100
0001
0010
0100
1000
,
0010
0000
1000
0000
1002
0000
0103
0000
0010
1000
0001
0010
0100
1000
0001
0100
,
0001
0000
0010
0000
0120
0000
0031
0000
0100
0010
0001
0010
0100
0001
1000
0010
,
1000
0000
0001
0000
0021
0000
0130
0000
1000
0100
0010
0100
1000
0010
0100
0001
,
0010
0000
0001
0000
0201
0000
1300
0000
0100
0010
1000
0100
0010
0001
0100
0010
,
0001
0000
0010
0000
2010
0000
3100
0000
0001
0100
0010
0001
1000
0010
0100
0001
,
0010
0000
0100
0000
2100
0000
3010
0000
0001
0010
0100
1000
0100
0010
1000
0001
,
0100
0000
0001
0000
2001
0000
3100
0000
0010
0001
0100
0010
1000
0100
0001
0100
,
1000
0000
1010
0000
0110
0000
0101
0000
0001
0100
0010
1000
0001
0010
0100
1000
,
0001
0010
0001
1000
0001
0100
0010
0100
0001
0010
0100
0001
0100
0010
0100
1000
,
0010
1000
0001
1000
0100
0010
1000
0010
0001
1000
0010
0100
1000
0100
0001
0010
,
0100
1000
0010
1000
0100
1000
0010
0100
0001
0010
0100
1000
0100
0001
0100
1000
,
0001
0010
0001
0100
0001
0010
0001
0100
0010
0001
0010
1000
0100
0001
0100
0010
,
0100
1000
0100
0000
0100
1000
0100
0000
1000
0010
1000
0000
1000
0010
1000
0000
,
0010
0100
0010
0000
0010
0100
0010
0000
0100
0001
0100
0000
0100
0001
0100
0000
,
0001
0010
0001
0000
0001
0010
0001
0000
1000
0100
1000
0000
1000
0100
1000
0000
,
0010
0100
0010
0000
0010
0100
0010
0000
1000
0100
0010
0001
0100
0010
1000
0100
,
1000
0100
0001
0100
1000
0100
0001
0100
,
1000
0010
0001
0010
1000
0010
0001
0010
,
0100
0010
0100
0010
0100
0001
0100
0001
0010
0001
0010
0001
0010
0100
0010
0100
,
1000
0100
1000
0100
1000
0010
1000
0010
0100
0001
0010
0100
1000
0010
1000
0100
;

//---------------para-single - ----------------
#NOTEDATA:;
#CHARTNAME:Freestyle [Normal];
#STEPSTYPE:para-single;
#DESCRIPTION:;
#CHARTSTYLE:;
#DIFFICULTY:Medium;
#METER:3;
#RADARVALUES:0.226211,0.393729,0.192585,0.356638,0.000000,222.000000,195.000000,27.000000,50.000000,0.000000,0.000000,0.000000,0.000000,0.000000,0.226211,0.393729,0.192585,0.356638,0.000000,222.000000,195.000000,27.000000,50.000000,0.000000,0.000000,0.000000,0.000000,0.000000;
#CREDIT:Riakodoadm;
#NOTES:
// measure 0
00000
00000
00000
00000
,  // measure 1
00000
00000
00000
00000
,  // measure 2
00000
00000
00000
00000
,  // measure 3
00000
00000
00000
00000
,  // measure 4
00000
00000
00000
00000
,  // measure 5
00000
00000
00000
00000
,  // measure 6
00000
00000
00000
00000
,  // measure 7
00000
00000
00000
00000
,  // measure 8
02000
00000
00000
00000
,  // measure 9
00020
00000
00000
03030
,  // measure 10
00001
00010
00100
01000
,  // measure 11
20000
00000
00000
30000
,  // measure 12
00020
00000
00000
00000
,  // measure 13
02000
00000
00000
03030
,  // measure 14
10000
01000
00100
00010
,  // measure 15
00002
00000
00000
00003
,  // measure 16
00200
00000
00000
00000
,  // measure 17
00000
00000
00000
00000
,  // measure 18
00300
00000
00000
00000
,  // measure 19
00000
00000
00000
00000
,  // measure 20
20000
00000
00000
00000
,  // measure 21
00002
00000
00000
30003
,  // measure 22
01010
00000
00200
00000
,  // measure 23
00300
00000
10001
00000
,  // measure 24
00010
00000
00010
00000
,  // measure 25
01000
00100
00010
00001
,  // measure 26
01000
00000
01000
00000
,  // measure 27
00010
00100
01000
10000
,  // measure 28
01000
00000
00010
00000
,  // measure 29
00010
00000
01000
00000
,  // measure 30
10001
00000
10001
00000
,  // measure 31
01010
00000
01010
00000
,  // measure 32
01000
00000
01000
00000
,  // measure 33
00010
00100
01000
10000
,  // measure 34
00010
00000
00010
00000
,  // measure 35
01000
00100
00010
00001
,  // measure 36
00010
00000
01000
00000
,  // measure 37
01000
00000
00010
00000
,  // measure 38
10001
00000
10001
00000
,  // measure 39
01010
00000
01010
00000
,  // measure 40
01000
02000
00000
03000
,  // measure 41
01000
02000
00000
03000
,  // measure 42
00010
00020
00000
00030
,  // measure 43
00010
00020
00000
00030
,  // measure 44
10000
20000
00000
30000
,  // measure 45
10000
20000
00000
30000
,  // measure 46
00001
00002
00000
00003
,  // measure 47
00001
00002
00000
00003
,  // measure 48
02000
00100
00000
03000
,  // measure 49
02000
00100
00000
03000
,  // measure 50
00020
00100
00000
00030
,  // measure 51
00020
00100
00000
00030
,  // measure 52
20000
00100
00000
30000
,  // measure 53
20000
00100
00000
30000
,  // measure 54
00002
00100
00000
00003
,  // measure 55
00002
00100
00000
00003
,  // measure 56
00202
00000
00303
00000
,  // measure 57
02020
00000
03030
00000
,  // measure 58
20200
00000
30300
00000
,  // measure 59
02020
00000
03030
00000
,  // measure 60
00022
00033
00220
00330
,  // measure 61
02200
03300
22000
33000
,  // measure 62
02200
03300
00220
00330
,  // measure 63
00022
00033
00001
00000
,  // measure 64
00010
00010
00010
00000
,  // measure 65
01000
00100
00010
00001
,  // measure 66
01000
01000
01000
00000
,  // measure 67
00010
00100
01000
10000
,  // measure 68
00100
00100
00100
00000
,  // measure 69
10000
00001
10000
00001
,  // measure 70
00100
00100
00100
00000
,  // measure 71
10000
01000
00100
00010
,  // measure 72
01000
01000
01000
00000
,  // measure 73
00010
00100
01000
10000
,  // measure 74
00010
00010
00010
00000
,  // measure 75
01000
00100
00010
00001
,  // measure 76
00100
00100
00100
00000
,  // measure 77
00001
10000
00001
10000
,  // measure 78
00100
00100
00100
00000
,  // measure 79
00001
00010
00100
01000
,  // measure 80
10000
01000
00100
01010
,  // measure 81
00001
00010
00100
01010
,  // measure 82
00100
00010
00001
01010
,  // measure 83
00100
01000
10000
01010
,  // measure 84
02000
00000
03000
00000
,  // measure 85
00020
00000
00030
00000
,  // measure 86
01001
00000
10010
00000
,  // measure 87
10000
00001
10000
00001
,  // measure 88
00100
00000
00000
00000
,  // measure 89
00100
00000
00000
00000
,  // measure 90
01000
01000
00010
00010
,  // measure 91
00001
00010
00100
01000
,  // measure 92
10000
00000
00000
00000
;
