#TITLE:X=Y(FROM NONSTOP MEGAMIX);
#SUBTITLE:;
#ARTIST:FERRIS & ARANTZ;
#TITLETRANSLIT:;
#SUBTITLETRANSLIT:;
#ARTISTTRANSLIT:;
#GENRE:TRANCECORE;
#CREDIT:Dancemania SPEED Presents TRANCE RAVERS;
#BANNER:X=Y(FROM NONSTOP MEGAMIX).png;
#BACKGROUND:X=Y(FROM NONSTOP MEGAMIX)-bg.png;
#LYRICSPATH:X=Y(FROM NONSTOP MEGAMIX).lrc;
#CDTITLE:X=Y(FROM NONSTOP MEGAMIX)-cdtitle.png;
#MUSIC:X=Y(FROM NONSTOP MEGAMIX).ogg;
#OFFSET:-0.699000;
#SAMPLESTART:88.220001;
#SAMPLELENGTH:15.000000;
#LASTBEATHINT:415.938568;
#SELECTABLE:YES;
#BPMS:0.000000=175.500000
;
#STOPS:
;
#BGCHANGES:;
#KEYSOUNDS:;
#ATTACKS:;

//---------------dance-single - Pure overkill----------------
#NOTES:
     dance-single:
     Riakodoadm:
     Challenge:
     18:
     1.090261,1.196376,0.000000,0.000000,1.314991,1094.000000,1094.000000,0.000000,0.000000,0.000000,0.000000,1.090261,1.196376,0.000000,0.000000,1.314991,1094.000000,1094.000000,0.000000,0.000000,0.000000,0.000000:
0000
0000
0000
0000
,
0000
0000
0000
0000
,
0000
0000
0000
0000
,
0000
0000
0000
0000
,
0000
0000
0000
0000
,
0000
0000
0000
0000
,
0000
0000
0000
0000
,
0000
0000
0000
0000
,
1000
0001
1000
0001
0010
0001
0010
0001
,
0010
0100
0010
0100
1000
0100
1000
0100
,
1000
0001
1000
0001
0100
0001
0100
0001
,
0100
0010
0100
0010
1000
0010
1000
0010
,
0100
0001
0100
0001
0010
0001
0010
0001
,
1000
0100
1000
0100
1000
0010
1000
0010
,
0100
0010
0100
0010
0100
0001
0100
0001
,
1000
0100
0001
0100
1000
0100
0001
0100
,
1000
0010
1000
0000
0010
1000
0000
1000
0010
0000
0010
1000
0010
1000
0010
1000
,
0001
0010
0001
0000
0010
0001
0000
0001
0010
0000
0010
0001
0010
0001
0010
0001
,
1000
0100
0010
0000
0001
0010
0000
0001
1000
0000
0010
1000
0010
1000
0010
1000
,
0001
0100
0010
0000
1000
0010
0000
1000
0001
0000
0010
0001
0010
0001
0010
0001
,
0010
0100
0010
0100
1000
0100
1000
0100
1000
0001
1000
0001
1000
0010
1000
0010
,
0100
0010
0100
0010
0100
0001
0100
0001
0010
0001
0010
0001
0010
0100
0010
0100
,
0010
0100
1000
0010
0100
0001
0010
0100
1000
0010
0100
0001
0010
0001
0100
0010
,
1000
0100
1000
0010
0100
0001
0010
0001
0100
0010
1000
0100
1000
0010
0100
0010
,
1000
0100
0010
0000
0001
0100
0010
0000
1000
0010
1000
0000
0001
0010
0001
0000
,
1000
0100
0010
0000
0001
0100
0010
0000
1000
0100
1000
0000
0100
0010
0100
0000
,
0010
0001
1000
0000
0001
0100
0010
0000
0100
0001
0100
0000
0010
1000
0010
0000
,
1000
0001
0010
0000
0001
0010
0100
0000
1000
0100
1000
0000
0001
0010
0001
0000
,
0100
0001
0010
0000
0100
1000
0010
0000
0100
0010
1000
0000
0001
0010
0100
0000
,
0010
0001
0100
0000
0010
1000
0100
0000
1000
0010
0100
0000
0001
0010
0100
0000
,
0001
0100
0001
0000
0100
1000
0100
0000
1000
0010
1000
0000
0010
0001
0010
0000
,
0100
0001
1000
0000
0010
1000
0001
0000
0010
0100
1000
0000
0010
0100
0001
0000
,
1000
0010
0100
0000
0001
0010
0100
0000
1000
0100
1000
0000
0001
0100
0001
0000
,
1000
0010
0100
0000
0001
0010
0100
0000
1000
0010
1000
0000
0010
0100
0010
0000
,
0100
0001
1000
0000
0001
0010
0100
0000
0010
0001
0010
0000
0100
1000
0100
0000
,
1000
0001
0100
0000
0001
0100
0010
0000
1000
0010
1000
0000
0001
0100
0001
0000
,
0010
0001
0100
0000
0010
1000
0100
0000
0010
0100
1000
0000
0001
0100
0010
0000
,
0100
0001
0010
0000
0100
1000
0010
0000
1000
0100
0010
0000
0001
0100
0010
0000
,
0001
0010
0001
0000
0010
1000
0010
0000
1000
0100
1000
0000
0100
0001
0100
0000
,
0010
0000
1000
0000
0010
0000
0001
0000
0100
0010
1000
0001
0010
0100
1000
0010
,
1000
0010
1000
0001
0000
0001
0000
0001
,
1000
0010
1000
0001
0000
0001
0000
0100
,
0010
0001
0010
0100
0000
0100
0000
0100
,
0010
0001
0010
0100
0000
0100
0000
0010
,
1000
0100
1000
0010
0000
0010
0000
0010
,
1000
0100
1000
0010
0000
0010
0000
1000
,
0100
0001
0100
1000
0000
1000
0000
1000
,
0100
0001
0100
1000
0000
1000
0000
1000
,
0001
0010
0001
1000
0000
1000
0000
1000
,
0001
0010
0001
1000
0000
1000
0000
0100
,
0010
1000
0010
0100
0000
0100
0000
0100
,
0010
1000
0010
0100
0000
0100
0000
0010
,
0001
0100
0001
0010
0000
0010
0000
0010
,
0001
0100
0001
0010
0000
0010
0000
0001
,
0100
1000
0100
0001
0000
0001
0000
0001
,
0100
1000
0100
0001
0000
0001
0000
0001
,
1000
0100
1000
0100
0010
0001
0010
0001
1000
0010
1000
0010
1000
0100
1000
0100
,
0010
0001
1000
0001
0010
0001
1000
0100
1000
0001
1000
0100
1000
0001
0100
0001
,
0100
0001
0100
0001
0010
0001
0010
0001
1000
0010
1000
0010
0100
0001
0100
0001
,
1000
0010
1000
0001
1000
0010
1000
0001
0010
0001
1000
0001
0010
0001
0100
0001
,
1000
0100
0010
0100
1000
0100
0010
0001
0100
0010
0100
0001
0100
0010
0100
0001
,
0010
0100
1000
0001
0010
0100
1000
0010
0100
0001
1000
0010
0100
0001
1000
0010
,
1000
0100
1000
0010
0100
0001
0010
0001
0100
0010
1000
0100
0010
0001
0100
0001
,
1000
0001
1000
0001
1000
0001
1000
0001
1000
0001
1000
0001
1000
0001
1000
0001
,
1000
0000
0010
0000
1000
0000
0001
0000
0010
0100
1000
0001
0010
0100
0010
0001
,
1000
0000
0010
0000
1000
0000
0001
0000
1000
0010
0100
0001
1000
0010
0100
0001
,
0010
0000
0001
0000
0010
0000
0100
0000
0010
0001
0100
0001
0010
0100
1000
0001
,
0010
0000
0001
0000
0010
0000
0100
0000
1000
0010
1000
0100
1000
0010
0100
0001
,
1000
0000
0100
0000
1000
0000
0010
0000
0100
0001
1000
0100
0010
0001
0100
0001
,
1000
0000
0100
0000
1000
0000
0010
0000
1000
0010
0100
0001
0010
0001
0100
0010
,
0100
0000
0001
0000
0100
0000
1000
0000
0100
0010
1000
0100
0010
0001
1000
0010
,
0100
0000
0001
0000
0100
0000
1000
0000
0100
0001
0100
0001
1000
0100
1000
0100
,
1000
0000
0010
0000
0001
0000
0010
0000
0100
0010
1000
0001
0100
0010
0100
0001
,
1000
0000
0010
0000
0001
0000
0010
0000
1000
0100
0010
0001
1000
0100
0010
0001
,
0100
0000
1000
0000
0100
0000
0010
0000
0100
0001
0010
0001
0100
0010
1000
0001
,
0100
0000
1000
0000
0100
0000
0010
0000
1000
0001
0010
0001
1000
0100
0010
0001
,
1000
0000
0010
0000
0001
0000
0010
0000
1000
0100
1000
0010
0100
0001
0010
0001
,
1000
0000
0010
0000
0001
0000
0010
0000
1000
0100
0010
0001
0100
0001
0010
0100
,
0010
0000
0100
0000
0010
0000
1000
0000
0010
0001
1000
0010
0100
0001
1000
0100
,
0010
0000
0001
0000
0010
0000
1000
0000
0010
0001
1000
0100
0010
0001
1000
0010
,
0100
0001
1000
0100
1000
0001
0010
0001
1000
0010
0100
0001
0100
0010
1000
0100
,
1000
0001
0100
0001
0010
0001
1000
0010
0100
0010
1000
0001
0010
0100
1000
0010
,
1000
0001
0010
0001
0100
0001
1000
0100
1000
0100
0010
0100
1000
0010
1000
0001
,
0100
0001
1000
0100
1000
0010
0100
0001
0100
0010
1000
0100
1000
0010
0100
0001
,
0100
0010
0100
0000
0001
1000
0001
0000
0010
0100
1000
0000
0100
1000
0010
0000
,
1000
0010
1000
0000
0010
0100
0010
0000
0100
0001
0010
0000
0100
0010
0001
0000
,
0100
1000
0100
0000
0001
0100
0001
0000
0010
0001
0010
0000
1000
0010
1000
0000
,
0010
0000
0001
0000
0100
0000
1000
0000
0100
0010
0100
0010
1000
0001
1000
0001
,
1000
0100
0010
0001
0000
0100
0010
0100
0000
1000
0000
0100
0001
0000
0001
1000
,
0100
1000
0010
0000
0010
1000
0100
0000
0100
0010
0000
0010
0001
0000
0010
0100
,
1000
0010
0100
0001
0000
0100
0010
0100
0000
0010
0000
0001
0010
0000
0010
1000
,
0001
0010
0100
0000
0010
0001
0100
0000
0010
1000
0000
1000
0001
0000
0001
0010
,
0001
0100
0010
1000
0000
0100
0010
0100
0000
0001
0000
0100
1000
0000
1000
0001
,
0100
0001
0010
0000
0010
0001
0100
0000
0100
0010
0000
0010
1000
0000
0010
0100
,
0001
0010
0100
1000
0000
0100
0010
0100
0000
0010
0000
1000
0010
0000
0010
0001
,
1000
0010
0100
0000
0010
1000
0100
0000
0010
0001
1000
0010
0100
0001
0010
0001
,
0100
1000
0100
0001
0100
1000
0100
0001
,
0010
1000
0010
0001
0010
1000
0010
0001
,
0100
0001
0010
0001
0100
0001
0010
0001
,
1000
0100
1000
0010
1000
0100
1000
0010
,
1000
0001
1000
0001
0100
0001
0100
0001
0010
0001
0010
0001
0010
0100
1000
0100
,
0010
0100
0010
0100
1000
0100
1000
0100
1000
0010
1000
0010
0100
0001
0100
0010
,
1000
0100
0010
0001
0100
0010
1000
0100
1000
0010
0100
0001
0010
0100
1000
0010
,
1000
0100
1000
0010
1000
0001
0010
0001
0100
0010
0100
0010
0100
0010
0100
0010
;

//---------------dance-couple - Pure overkill----------------
#NOTES:
     dance-couple:
     :
     Challenge:
     1:
     0.968678,1.196376,0.000000,0.013952,1.147565,972.000000,972.000000,0.000000,2.000000,0.000000,0.000000,0.818194,1.196376,0.000000,0.013952,0.952235,821.000000,821.000000,0.000000,2.000000,0.000000,0.000000:
00000000
00000000
00000000
00000000
,
00000000
00000000
00000000
00000000
,
00000000
00000000
00000000
00000000
,
00000000
00000000
00000000
00000000
,
00000000
00000000
00000000
00000000
,
00000000
00000000
00000000
00000000
,
00000000
00000000
00000000
00000000
,
00000000
00000000
00000000
00000000
,
10001000
00010001
10001000
00010001
00100010
00010001
00100010
00010001
,
00100010
01000100
00100010
01000100
10001000
01000100
10001000
01000100
,
10001000
00010001
10001000
00010001
01000100
00010001
01000100
00010001
,
01000100
00100010
01000100
00100010
10001000
00100010
10001000
00100010
,
01000100
00010001
01000100
00010001
00100010
00010001
00100010
00010001
,
10001000
01000100
10001000
01000100
10001000
00100010
10001000
00100010
,
01000100
00100010
01000100
00100010
01000100
00010001
01000100
00010001
,
10001000
01000100
00010001
01000100
10001000
01000100
00010001
01000100
,
10001000
00100010
10001000
00000000
00100010
10001000
00000000
10001000
00100010
00000000
00100010
10001000
00100010
10001000
00100010
10001000
,
00010001
00100010
00010001
00000000
00100010
00010001
00000000
00010001
00100010
00000000
00100010
00010001
00100010
00010001
00100010
00010001
,
10001000
01000100
00100010
00000000
00010001
00100010
00000000
00010001
10001000
00000000
00100010
10001000
00100010
10001000
00100010
10001000
,
00010001
01000100
00100010
00000000
10001000
00100010
00000000
10001000
00010001
00000000
00100010
00010001
00100010
00010001
00100010
00010001
,
00100010
01000100
00100010
01000100
10001000
01000100
10001000
01000100
10001000
00010001
10001000
00010001
10001000
00100010
10001000
00100010
,
01000100
00100010
01000100
00100010
01000100
00010001
01000100
00010001
00100010
00010001
00100010
00010001
00100010
01000100
00100010
01000100
,
00100010
01000100
10001000
00100010
01000100
00010001
00100010
01000100
10001000
00100010
01000100
00010001
00100010
00010001
01000100
00100010
,
10001000
01000100
10001000
00100010
01000100
00010001
00100010
00010001
01000100
00100010
10001000
01000100
10001000
00100010
01000100
00100010
,
10001000
01000000
00100000
00000000
00010000
01000000
00100000
00000000
10000000
00100000
10000000
00000000
00010000
00100000
00010000
00000000
,
10000000
01000000
00100000
00000000
00010000
01000000
00100000
00000000
10000000
01000000
10000000
00000000
01000000
00100000
01000000
00000000
,
00100000
00010000
10000000
00000000
00010000
01000000
00100000
00000000
01000000
00010000
01000000
00000000
00100000
10000000
00100000
00000000
,
10000000
00010000
00100000
00000000
00010000
00100000
01000000
00000000
10000000
01000000
10000000
00000000
00010000
00100000
00010000
00000000
,
01000000
00010000
00100000
00000000
01000000
10000000
00100000
00000000
01000000
00100000
10000000
00000000
00010000
00100000
01000000
00000000
,
00100000
00010000
01000000
00000000
00100000
10000000
01000000
00000000
10000000
00100000
01000000
00000000
00010000
00100000
01000000
00000000
,
00010000
01000000
00010000
00000000
01000000
10000000
01000000
00000000
10000000
00100000
10000000
00000000
00100000
00010000
00100000
00000000
,
01000000
00010000
10000000
00000000
00100000
10000000
00010000
00000000
00100000
01000000
10000000
00000000
00100000
01000000
00010000
00000000
,
00001000
00000010
00000100
00000000
00000001
00000010
00000100
00000000
00001000
00000100
00001000
00000000
00000001
00000100
00000001
00000000
,
00001000
00000010
00000100
00000000
00000001
00000010
00000100
00000000
00001000
00000010
00001000
00000000
00000010
00000100
00000010
00000000
,
00000100
00000001
00001000
00000000
00000001
00000010
00000100
00000000
00000010
00000001
00000010
00000000
00000100
00001000
00000100
00000000
,
00001000
00000001
00000100
00000000
00000001
00000100
00000010
00000000
00001000
00000010
00001000
00000000
00000001
00000100
00000001
00000000
,
00000010
00000001
00000100
00000000
00000010
00001000
00000100
00000000
00000010
00000100
00001000
00000000
00000001
00000100
00000010
00000000
,
00000100
00000001
00000010
00000000
00000100
00001000
00000010
00000000
00001000
00000100
00000010
00000000
00000001
00000100
00000010
00000000
,
00000001
00000010
00000001
00000000
00000010
00001000
00000010
00000000
00001000
00000100
00001000
00000000
00000100
00000001
00000100
00000000
,
00000010
00000000
00001000
00000000
00000010
00000000
00000001
00000000
00000100
00000010
00001000
00000001
00000010
00000100
00001000
00000010
,
10000000
00100001
10000000
00010001
00000010
00010001
00000000
00010001
,
10000000
00100001
10000000
00010001
00000010
00010001
00000000
01000001
,
00100000
00010100
00100000
01000100
00000010
01000100
00000000
01000100
,
00100000
00010100
00100000
01000100
00000010
01000100
00000000
00100100
,
10000000
01000010
10000000
00100010
00000001
00100010
00000000
00100010
,
10000000
01000010
10000000
00100010
00000001
00100010
00000000
10000010
,
01000000
00011000
01000000
10001000
00000100
10001000
00000000
10001000
,
01000000
00011000
01000000
10001000
00000100
10001000
00000000
10001000
,
00000001
10000010
00000001
10001000
00100000
10001000
00000000
10001000
,
00000001
10000010
00000001
10001000
00100000
10001000
00000000
10000100
,
00000010
01001000
00000010
01000100
00100000
01000100
00000000
01000100
,
00000010
01001000
00000010
01000100
00100000
01000100
00000000
01000010
,
00000001
00100100
00000001
00100010
10000000
00100010
00000000
00100010
,
00000001
00100100
00000001
00100010
10000000
00100010
00000000
00100001
,
00000100
00011000
00000100
00010001
01000000
00010001
00000000
00010001
,
00000100
00011000
00000100
00010001
01000000
00010001
00000000
00010001
,
10001000
01000000
10000100
01000000
00100010
00010000
00100002
00010000
10001000
00100000
10001000
00100000
10001003
01000000
10000000
01000000
,
00100001
00010000
10000100
00010000
00100010
00010000
10002000
01000000
10000001
00010000
10000001
01000000
10003001
00010000
01000000
00010000
,
10001000
00000100
01001000
00000100
00100010
00000001
00020010
00000001
10001000
00000010
10001000
00000010
10031000
00000100
00001000
00000100
,
00010010
00000001
01001000
00000001
00100010
00000001
20001000
00000100
00011000
00000001
00011000
00000100
30011000
00000001
00000100
00000001
,
10001000
01000100
00100010
01000100
10001000
01000100
00100010
00010001
01000100
00100010
01000100
00010001
01000100
00100010
01000100
00010001
,
00100010
01000100
10001000
00010001
00100010
01000100
10001000
00100010
01000100
00010001
10001000
00100010
01000100
00010001
10001000
00100010
,
10001000
01000100
10001000
00100010
01000100
00010001
00100010
00010001
01000100
00100010
10001000
01000100
00100010
00010001
01000100
00010001
,
10001000
00010001
10001000
00010001
10001000
00010001
10001000
00010001
10001000
00010001
10001000
00010001
10001000
00010001
10001000
00010001
,
10001000
00000000
00100010
00000000
10001000
00000000
00010001
00000000
00100010
01000001
10000010
00010000
00100100
01001000
00100100
00010000
,
10001000
00000000
00100010
00000000
10001000
00000000
00010001
00000000
10001000
00100010
01001000
00010000
10000001
00100100
01000001
00010000
,
00100010
00000000
00010001
00000000
00100010
00000000
01000100
00000000
00101000
00010100
01001000
00010000
00100001
01000100
10000001
00010000
,
00100010
00000000
00010001
00000000
00100010
00000000
01000100
00000000
10000010
00100001
10000010
01000000
10000001
00100100
01000001
00010000
,
10000000
00000000
01000000
00000000
10000000
00000000
00100000
00000000
01000000
00010000
10000000
01000000
00100000
00010000
01000000
00010000
,
10000000
00000000
01000000
00000000
10000000
00000000
00100000
00000000
10000000
00100000
01000000
00010000
00100000
00010000
01000000
00100000
,
01000000
00000000
00010000
00000000
01000000
00000000
10000000
00000000
01000000
00100000
10000000
01000000
00100000
00010000
10000000
00100000
,
01000000
00000000
00010000
00000000
01000000
00000000
10000000
00000000
01000000
00010000
01000000
00010000
10000000
01000000
10000000
01000000
,
10000000
00000000
00100000
00000000
00010000
00000000
00100000
00000000
01000000
00100000
10000000
00010000
01000000
00100000
01000000
00010000
,
10000000
00000000
00100000
00000000
00010000
00000000
00100000
00000000
10000000
01000000
00100000
00010000
10000000
01000000
00100000
00010000
,
01000000
00000000
10000000
00000000
01000000
00000000
00100000
00000000
01000000
00010000
00100000
00010000
01000000
00100000
10000000
00010000
,
01000000
00000000
10000000
00000000
01000000
00000000
00100000
00000000
10000000
00010000
00100000
00010000
10000000
01000000
00100000
00010000
,
10000000
00000000
00100000
00000000
00010000
00000000
00100000
00000000
10000000
01000000
10000000
00100000
01000000
00010000
00100000
00010000
,
10000000
00000000
00100000
00000000
00010000
00000000
00100000
00000000
10000000
01000000
00100000
00010000
01000000
00010000
00100000
01000000
,
00100000
00000000
01000000
00000000
00100000
00000000
10000000
00000000
00100000
00010000
10000000
00100000
01000000
00010000
10000000
01000000
,
00100000
00000000
00010000
00000000
00100000
00000000
10000000
00000000
00100000
00010000
10000000
01000000
00100000
00010000
10000000
00100000
,
01001000
00010100
10000010
01000001
10000000
00010100
00100010
00010100
10000000
00101000
01000000
00010100
01000001
00100000
10000001
01001000
,
10000100
00011000
01000010
00010000
00100010
00011000
10000100
00100000
01000100
00100010
10000000
00010010
00100001
01000000
10000010
00100100
,
10001000
00010010
00100100
00010001
01000000
00010100
10000010
01000100
10000000
01000010
00100000
01000001
10000010
00100000
10000010
00011000
,
01000001
00010010
10000100
01000000
10000010
00100001
01000100
00010000
01000010
00101000
10000000
01001000
10000001
00100000
01000010
00010001
,
10000100
01000001
00101000
00010100
00001000
01000001
00100010
01000001
00001000
10000010
00000100
01000001
00010100
00000010
00011000
10000100
,
01001000
10000001
00100100
00000001
00100010
10000001
01001000
00000010
01000100
00100010
00001000
00100001
00010010
00000100
00101000
01000010
,
10001000
00100001
01000010
00010001
00000100
01000001
00101000
01000100
00001000
00100100
00000010
00010100
00101000
00000010
00101000
10000001
,
00010100
00100001
01001000
00000100
00101000
00010010
01000100
00000001
00100100
10000010
00001000
00010100
00101000
00000010
00100100
01000001
,
10001000
01000100
00100010
10001000
00000000
01000100
00100010
01000100
00000000
00010001
00000000
01000100
10001000
00000000
10001000
00010001
,
01000100
00010001
00100010
00000000
00100010
00010001
01000100
00000000
01000100
00100010
00000000
00100010
10001000
00000000
00100010
01000100
,
00010001
00100010
01000100
10001000
00000000
01000100
00100010
01000100
00000000
00100010
00000000
10001000
00100010
00000000
00100010
00010001
,
10001000
00100010
01000100
00000000
00100010
10001000
01000100
00000000
00100010
00010001
10001000
00100010
01000100
00010001
00100010
00010001
,
01000100
00100010
01000100
00000000
00010001
10001000
00010001
00000000
00100010
01000100
10001000
00000000
01000100
10001000
00100010
00000000
,
10001000
00100010
10001000
00000000
00100010
01000100
00100010
00000000
01000100
00010001
00100010
00000000
01000100
00100010
00010001
00000000
,
01000100
10001000
01000100
00000000
00010001
01000100
00010001
00000000
00100010
00010001
00100010
00000000
10001000
00100010
10001000
00000000
,
00100010
00000000
00010001
00000000
01000100
00000000
10001000
00000000
01000100
00100010
01000100
00100010
10001000
00010001
10001000
00010001
,
01000010
10001000
01000010
00010001
01000010
10001000
01000010
00010001
,
00100100
10001000
00100100
00010001
00100100
10001000
00100100
00010001
,
01000010
00010001
00100100
00010001
01000010
00010001
00100100
00010001
,
10001000
01000010
10001000
00100100
10001000
01000010
10001000
00100100
,
10001000
00010001
10001000
00010001
01000100
00010001
01000100
00010001
00100010
00010001
00100010
00010001
00100010
01000100
10001000
01000100
,
00100010
01000100
00100010
01000100
10001000
01000100
10001000
01000100
10001000
00100010
10001000
00100010
01000100
00010001
01000100
00100010
,
10001000
01000100
00100010
00010001
01000100
00100010
10001000
01000100
10001000
00100010
01000100
00010001
00100010
01000100
10001000
00100010
,
10001000
01000100
10001000
00100010
10001000
00010001
00100010
00010001
01000100
00100010
01000100
00100010
01000100
00100010
01000100
00100010
;

//---------------dance-double - Pad running simulator----------------
#NOTES:
     dance-double:
     Riakodoadm:
     Medium:
     13:
     0.640803,0.761788,0.006976,0.174402,0.118593,643.000000,642.000000,1.000000,25.000000,0.000000,0.000000,0.640803,0.761788,0.006976,0.174402,0.118593,643.000000,642.000000,1.000000,25.000000,0.000000,0.000000:
00000000
00000000
00000000
00000000
,
00000000
00000000
00000000
00000000
,
00000000
00000000
00000000
00000000
,
00000000
00000000
00000000
00000000
,
00000000
00000000
00000000
00000000
,
00000000
00000000
00000000
00000000
,
00000000
00000000
00000000
00000000
,
00000000
00000000
00000000
00000000
,
20000000
00100000
00100000
00100000
,
01000000
01000000
01000000
30020000
,
00230000
00000000
02300000
03020000
00001000
00000000
00001000
00000000
,
00000100
00000100
00000100
00030200
,
00002300
00003020
00000001
00000230
,
00000302
00000010
00001000
00000023
,
00002030
00000000
00023000
00230000
00010000
00000000
01000000
00000000
,
00320000
00000000
00032000
00003020
00001000
00000000
00000130
00000000
,
00000220
00000000
00000000
00000000
,
00000000
00000000
00000000
00000000
,
00000000
00000000
00000000
00000000
,
00000000
00000000
00000000
00000330
,
00000001
00000100
00000001
00000000
00001000
00000100
00001000
00000000
,
00000010
00010000
00001000
00000000
00100000
00010000
01000000
00000000
,
00010000
01000000
00010000
00000000
10000000
01000000
10000000
00000000
,
01000000
00100000
00001000
00010000
00100000
10000000
01000000
00000000
,
10000000
01000000
00100000
01000000
10000000
00100000
01000000
00001000
,
00010000
00100000
00010000
00001000
00100000
01000000
00100000
00001000
,
00010000
00000010
00010000
00001000
00100000
00001000
00010000
00000100
,
00001000
00000010
00000100
00000001
00000100
00001000
00000100
00000010
,
00010000
00001000
00000100
00001000
00010000
00000010
00000100
00000010
,
00010000
00001000
00000100
00000001
00001000
00000010
00000100
00000010
,
00000100
00001000
00000100
00000001
00000010
00001000
00010000
01000000
,
00100000
01000000
00010000
00001000
00100000
00001000
00010000
00000010
,
00001000
00000100
00000010
00000100
00001000
00000010
00000100
00001000
,
00000001
00000010
00001000
00000100
00010000
00001000
00100000
00010000
,
01000000
00100000
00010000
00001000
00000100
00001000
00010000
01000000
,
10000000
00100000
01000000
00001000
00010000
00000010
00010000
00100000
,
10000000
00010000
01000000
00010000
10000000
00100000
01000000
00010000
,
01000000
00100000
00010000
00001000
00000100
00000010
00001000
00000100
,
00000010
00000001
00000100
00001000
00010000
00100000
01000000
00001000
,
00010000
00000000
00100000
00000000
00010000
00000000
00001000
00000000
00000100
00001000
00000100
00001000
00000100
00000001
00000100
00000001
,
00001000
00000010
00001000
00000100
00000000
00000100
00000000
00000100
,
00001000
00000010
00001000
00000100
00000000
00000100
00000000
00000100
,
00010000
01000000
00010000
00001000
00000000
00001000
00000000
00001000
,
00010000
01000000
00010000
00001000
00000000
00001000
00000000
00001000
,
00100000
01000000
00100000
00010000
00000000
00010000
00000000
00010000
,
00100000
01000000
00100000
00010000
00000000
00010000
00000000
00010000
,
01000000
00100000
01000000
10000000
00000000
10000000
00000000
10000000
,
01000000
00100000
01000000
10000000
00000000
10000000
00000000
01000000
,
00010000
00100000
00010000
01000000
00000000
01000000
00000000
01000000
,
00010000
00100000
00010000
01000000
00000000
01000000
00000000
01000000
,
00001000
00000100
00001000
00010000
00000000
00010000
00000000
00010000
,
00001000
00000100
00001000
00010000
00000000
00010000
00000000
00010000
,
00000010
00000100
00000010
00001000
00000000
00001000
00000000
00001000
,
00000010
00000100
00000010
00001000
00000000
00001000
00000000
00001000
,
00000100
00000010
00000100
00000001
00000000
00000001
00000000
00000001
,
00000100
00000010
00000100
00000001
00000000
00000001
00000000
00000100
,
00001000
00000010
00000100
00000002
00001000
00001000
00001003
00000000
,
00000001
00000010
00001000
00020000
00000100
00000100
00030100
00000000
,
00010000
00100000
10000000
02000000
00010000
00010000
03010000
00000000
,
01000000
10000000
00100000
00020000
00001000
00001000
00031000
00000000
,
00010000
00000010
00000100
00000001
00001000
00000100
00000010
00000001
,
00000010
00000100
00010000
00001000
00000100
00000010
00010000
00001000
,
00100000
00010000
10000000
01000000
10000000
00100000
01000000
00010000
,
10000000
00100000
00010000
00001000
00020000
00000000
00000000
00000000
,
00030010
00001000
00000001
00000100
00001000
00010000
00001000
00000100
,
00000010
00001000
00000001
00000100
00001000
00010000
00100000
10000000
,
00010000
10000000
01000000
00100000
10000000
00100000
01000000
10000000
,
00010000
10000000
01000000
00100000
00001000
00010000
00100000
00010000
,
00000010
00010000
00001000
00000100
00000001
00000100
00001000
00000100
,
00000010
00010000
00001000
00000100
00000001
00000010
00001000
00010000
,
01000000
10000000
00100000
01000000
10000000
01000000
00100000
00010000
,
00001000
00100000
01000000
00100000
00001000
00010000
01000000
10000000
,
00100000
01000000
00010000
10000000
01000000
00010000
00001000
01000000
,
00100000
01000000
00010000
10000000
01000000
00010000
00001000
00000010
,
00000001
00001000
00000001
00000100
00000010
00000001
00000010
00000100
,
00000001
00001000
00000001
00000100
00000010
00010000
00001000
00000010
,
00001000
00100000
00001000
00010000
01000000
10000000
01000000
00010000
,
00001000
00100000
00001000
00010000
01000000
10000000
00100000
00010000
,
00001000
00000100
00000001
00000010
00000100
00000001
00000100
00000010
,
00001000
00010000
01000000
00100000
00002000
00000000
00000000
00000000
,
00003100
00000000
00000010
00001000
00000000
00000001
00000000
00000010
00000000
00000100
00000000
00000010
00001000
00000000
00010000
00000000
,
00100000
00010000
00001000
00100000
01000000
00010000
01000000
10000000
,
00100000
00000000
00010000
00001000
00000000
00100000
00000000
01000000
00000000
10000000
00000000
01000000
00010000
00000000
00001000
00000000
,
00100000
00001000
01000000
00010000
00100000
00001000
00010000
00000010
,
00000100
00000100
00000010
00000010
,
00001000
00001000
00010000
00010000
,
01000000
01000000
00100000
00100000
,
01000000
00100000
00010000
00001000
00000100
00000010
00001000
00000010
,
00000100
00000000
00001000
00010000
00000000
00000010
00000000
00010000
00000000
00000100
00000000
00010000
00001000
00000000
00000010
00000000
,
00000100
00001000
00000010
00000100
00001000
00010000
00000100
00010000
,
00001000
00000000
01000000
00100000
00000000
00010000
00000000
00001000
00000000
00010000
00000000
00100000
10000000
00000000
01000000
00000000
,
00100000
00001000
00010000
00000100
00000010
00001000
00010000
00100000
,
01000000
00000000
00100000
00010000
00000000
10000000
00000000
01000000
00000000
00010000
00000000
00100000
00001000
00000000
00010000
00000000
,
00100000
00010000
00001000
00000010
00000100
00001000
00000100
00000001
,
00000100
00000000
00010000
00001000
00000000
00000010
00000000
00000001
00000000
00000100
00000000
00000010
00001000
00000000
00000100
00000000
,
00000010
00000100
00010000
00001000
00000010
00001000
00010000
00100000
,
00010000
00010000
00001000
00001000
,
00000100
00000100
00000001
00000001
,
00000010
00000010
00001000
00001000
,
00010000
00010000
00100000
00100000
,
10000000
01000000
10000000
01000000
00010000
01000000
00010000
01000000
,
00010000
00001000
00010000
00001000
00000100
00001000
00000100
00001000
,
00000100
00000001
00000100
00000001
00000010
00000001
00000010
00000001
,
00000010
00001000
00000010
00001000
00010000
00100000
10000000
01000000
,
00100000
00000000
00000000
00000000
;

//---------------dance-double - Pure overkill - on DOVBLES----------------
#NOTES:
     dance-double:
     Riakodoadm:
     Challenge:
     18:
     1.093251,1.196376,0.000000,0.000000,1.325455,1097.000000,1097.000000,0.000000,0.000000,0.000000,0.000000,1.093251,1.196376,0.000000,0.000000,1.325455,1097.000000,1097.000000,0.000000,0.000000,0.000000,0.000000:
00000000
00000000
00000000
00000000
,
00000000
00000000
00000000
00000000
,
00000000
00000000
00000000
00000000
,
00000000
00000000
00000000
00000000
,
00000000
00000000
00000000
00000000
,
00000000
00000000
00000000
00000000
,
00000000
00000000
00000000
00000000
,
00000000
00000000
00000000
00000000
,
00001000
00000001
00001000
00000001
00000010
00000100
00000010
00000100
,
00010000
00001000
00010000
00001000
01000000
00010000
01000000
00010000
,
10000000
00100000
10000000
00100000
01000000
00001000
01000000
00001000
,
00100000
01000000
00100000
01000000
00010000
00001000
00010000
00001000
,
00000100
00000010
00000100
00000010
00010000
00000010
00010000
00000010
,
00000100
00000001
00000100
00000001
00000010
00000001
00000010
00000001
,
00000010
00001000
00000010
00001000
00010000
00001000
00010000
00001000
,
00010000
00100000
00010000
00100000
10000000
01000000
00010000
00001000
,
00010000
00000010
00010000
00000000
00000010
00001000
00000000
00000010
00001000
00000000
00000010
00000100
00000001
00000100
00000010
00010000
,
00001000
00010000
00001000
00000000
00010000
01000000
00000000
00010000
01000000
00000000
00100000
01000000
00100000
00010000
10000000
00100000
,
01000000
00100000
01000000
00000000
00100000
00010000
00000000
00100000
00010000
00000000
00001000
00010000
00000100
00001000
00000010
00000100
,
00000010
00010000
00000010
00000000
00010000
00001000
00000000
00010000
00001000
00000000
00000100
00001000
00000100
00000010
00001000
00000001
,
00000100
00000001
00000100
00000001
00000100
00000001
00000100
00000001
00001000
00000010
00001000
00000010
00001000
00000010
00001000
00000010
,
00010000
00000100
00010000
00000100
00010000
00000100
00010000
00000100
00100000
00001000
00100000
00001000
00100000
00001000
00100000
00001000
,
01000000
00100000
10000000
00100000
01000000
00010000
00100000
00001000
00010000
00000100
00001000
00000010
00000100
00000001
00000100
00000010
,
00010000
00001000
00100000
00001000
01000000
00010000
00100000
01000000
00100000
00001000
00010000
00001000
01000000
00100000
01000000
00010000
,
10000000
01000000
10000000
00000000
00010000
00100000
00010000
00000000
01000000
00100000
01000000
00000000
00001000
00010000
00001000
00000000
,
00010000
00100000
00010000
00000000
00100000
10000000
00100000
00000000
10000000
01000000
10000000
00000000
00010000
00100000
00010000
00000000
,
00100000
00001000
00010000
00000000
00001000
01000000
00001000
00000000
00010000
00000010
00001000
00000000
00000100
00001000
00000100
00000000
,
00001000
00000010
00000100
00000000
00000010
00001000
00000001
00000000
00000100
00001000
00000100
00000000
00000001
00000010
00000001
00000000
,
00000010
00001000
00010000
00000000
00000100
00001000
00000010
00000000
00000001
00000010
00000100
00000000
00000010
00010000
00001000
00000000
,
00010000
00100000
01000000
00000000
00100000
10000000
01000000
00000000
00100000
00001000
00010000
00000000
00000010
00001000
00000100
00000000
,
00000001
00000100
00000001
00000000
00000100
00001000
00000100
00000000
00001000
00000010
00001000
00000000
00000001
00000010
00000001
00000000
,
00000010
00000100
00001000
00000000
00000100
00001000
00010000
00000000
00100000
01000000
00100000
00000000
00010000
00001000
00000010
00000000
,
00000001
00000100
00000001
00000000
00001000
00000010
00001000
00000000
00000100
00000010
00000100
00000000
00010000
00001000
00010000
00000000
,
00001000
00000010
00001000
00000000
00000010
00000001
00000010
00000000
00000001
00000100
00000001
00000000
00001000
00000010
00001000
00000000
,
00000010
00010000
00001000
00000000
00010000
00000100
00010000
00000000
00001000
00100000
00010000
00000000
01000000
00010000
01000000
00000000
,
00010000
00100000
01000000
00000000
00100000
00010000
10000000
00000000
01000000
00010000
01000000
00000000
10000000
00100000
10000000
00000000
,
00100000
00010000
00001000
00000000
01000000
00010000
00100000
00000000
10000000
00100000
01000000
00000000
00100000
00001000
00010000
00000000
,
00001000
00000010
00000100
00000000
00000010
00000001
00000100
00000000
00000010
00010000
00001000
00000000
00100000
00010000
01000000
00000000
,
10000000
01000000
10000000
00000000
01000000
00010000
01000000
00000000
00010000
00100000
00010000
00000000
10000000
00100000
10000000
00000000
,
00100000
00000000
01000000
00000000
00010000
00000000
00001000
00000000
00000100
00001000
00000100
00001000
00000100
00000001
00000100
00000001
,
00001000
00000010
00001000
00000100
00000000
00000100
00000000
00000100
,
00001000
00000010
00001000
00000100
00000000
00000100
00000000
00000100
,
00010000
01000000
00010000
00001000
00000000
00001000
00000000
00001000
,
00010000
01000000
00010000
00001000
00000000
00001000
00000000
00001000
,
00100000
01000000
00100000
00010000
00000000
00010000
00000000
00010000
,
00100000
01000000
00100000
00010000
00000000
00010000
00000000
00010000
,
01000000
00100000
01000000
10000000
00000000
10000000
00000000
10000000
,
01000000
00100000
01000000
10000000
00000000
10000000
00000000
01000000
,
00010000
00100000
00010000
01000000
00000000
01000000
00000000
01000000
,
00010000
00100000
00010000
01000000
00000000
01000000
00000000
01000000
,
00001000
00000100
00001000
00010000
00000000
00010000
00000000
00010000
,
00001000
00000100
00001000
00010000
00000000
00010000
00000000
00010000
,
00000010
00000100
00000010
00001000
00000000
00001000
00000000
00001000
,
00000010
00000100
00000010
00001000
00000000
00001000
00000000
00001000
,
00000100
00000010
00000100
00000001
00000000
00000001
00000000
00000001
,
00000100
00000010
00000100
00000001
00000000
00000001
00000000
00000100
,
00000010
00000001
00000010
00000001
00000100
00000010
00000100
00000010
00010000
00001000
00010000
00001000
00000100
00000010
00010000
00001000
,
00100000
00001000
00100000
00001000
01000000
00010000
01000000
00010000
10000000
00100000
10000000
00100000
01000000
00001000
00010000
00100000
,
00010000
00001000
00010000
00001000
00000100
00001000
00000100
00001000
00000100
00000010
00000100
00000010
00000100
00000001
00000010
00001000
,
00010000
00001000
00010000
00001000
00010000
00100000
00010000
00100000
10000000
00100000
10000000
00100000
10000000
01000000
00100000
01000000
,
00100000
00001000
00010000
00000100
00001000
00000010
00000100
00000001
00000100
00000010
00001000
00000100
00000010
00000100
00010000
00001000
,
00100000
01000000
10000000
00010000
01000000
00010000
00100000
00001000
00010000
00000100
00010000
00001000
01000000
00100000
10000000
00010000
,
00100000
01000000
00100000
01000000
10000000
00010000
10000000
00010000
01000000
00100000
01000000
00100000
00010000
00001000
00010000
00001000
,
00000100
00001000
00000100
00001000
00000100
00000001
00000100
00000001
00000010
00000001
00000010
00000001
00000010
00000100
00010000
00001000
,
00010000
00000000
00100000
00000000
00010000
00000000
00001000
00000000
00100000
01000000
10000000
00010000
00100000
01000000
00100000
00001000
,
00010000
00000000
00100000
00000000
01000000
00000000
00010000
00000000
10000000
01000000
00100000
00010000
00100000
01000000
00010000
00001000
,
00010000
00000000
00000100
00000000
00001000
00000000
00000010
00000000
00000001
00000010
00000100
00000001
00000010
00000100
00001000
00000010
,
00000100
00000000
00001000
00000000
00010000
00000000
00001000
00000000
00000100
00000010
00010000
00001000
00000010
00001000
00010000
00000100
,
00001000
00000000
00000001
00000000
00000100
00000000
00001000
00000000
00010000
00000010
00010000
00001000
00100000
00010000
01000000
10000000
,
01000000
00000000
00100000
00000000
10000000
00000000
01000000
00000000
00010000
00001000
00010000
00100000
01000000
00100000
00010000
00001000
,
00000100
00000000
00000010
00000000
00010000
00000000
00001000
00000000
00100000
00001000
00010000
00000100
00000010
00000001
00000100
00000010
,
00000001
00000000
00000010
00000000
00000100
00000000
00001000
00010000
00100000
10000000
00100000
10000000
01000000
00100000
00001000
00010000
,
00000010
00000000
00010000
00000000
00001000
00000000
00000100
00000000
00000010
00000100
00000001
00001000
00000010
00000100
00000010
00010000
,
00001000
00000000
00000010
00000000
00000100
00000000
00001000
00000000
00000001
00000100
00000010
00001000
00000010
00000100
00001000
00010000
,
00001000
00000000
01000000
00000000
00010000
00000000
00100000
00000000
10000000
00100000
01000000
10000000
00100000
01000000
00010000
00100000
,
01000000
00000000
00010000
00000000
00001000
00000000
00010000
00000000
01000000
00100000
00001000
00010000
00100000
00010000
00001000
01000000
,
00010000
00000000
10000000
00000000
01000000
00000000
00010000
00000000
00001000
00100000
00001000
00010000
00000010
00001000
00000100
00000001
,
00000100
00000000
00000010
00000000
00000001
00000000
00000100
00000000
00001000
00010000
00001000
00000010
00000100
00000010
00001000
00010000
,
01000000
00000000
00100000
00000000
00001000
00000000
00010000
00000000
00000010
00010000
00001000
01000000
00100000
10000000
01000000
00010000
,
01000000
00000000
10000000
00000000
00100000
00000000
00010000
00000000
00001000
00000100
00000010
00010000
00000100
00000010
00000001
00000100
,
00000010
00001000
00000100
00010000
00001000
00000100
00000010
00000100
00000001
00000010
00000100
00010000
00001000
00100000
00001000
00010000
,
00000010
00010000
00001000
00010000
00100000
01000000
00010000
00100000
01000000
10000000
01000000
00100000
00001000
00010000
00100000
00010000
,
00001000
00100000
00001000
01000000
00010000
00100000
01000000
00010000
00001000
00010000
00000010
00000100
00001000
00000100
00000001
00000010
,
00000100
00001000
00000100
00010000
00001000
00000010
00000001
00000100
00000010
00010000
00001000
00000100
00001000
00010000
00100000
01000000
,
10000000
01000000
10000000
00000000
10000000
01000000
10000000
00000000
00010000
00100000
00010000
00000000
00010000
00100000
00010000
00000000
,
00001000
00000100
00001000
00000000
00001000
00000100
00001000
00000000
00000001
00000010
00000001
00000000
00000001
00000010
00000001
00000000
,
00000010
00000100
00000001
00000000
00000100
00000001
00000100
00000000
00001000
00010000
00100000
00000000
10000000
01000000
10000000
00000000
,
00100000
00010000
00100000
00000000
10000000
00010000
00100000
00000000
01000000
00010000
00001000
00010000
00000010
00010000
00001000
00100000
,
00001000
00100000
00010000
10000000
00000000
01000000
00010000
00001000
00000000
00010000
00000000
00100000
01000000
00000000
00100000
00010000
,
00001000
00000010
00001000
00000000
00000010
00000001
00000010
00000000
00000001
00000100
00000000
00001000
00000100
00000000
00000001
00000010
,
00000100
00010000
00000010
00001000
00000000
00000010
00000100
00001000
00000000
00010000
00000000
01000000
00100000
00000000
01000000
10000000
,
00010000
00100000
01000000
00000000
00100000
00001000
00010000
00000000
00001000
00000100
00000000
00000100
00000001
00000000
00000100
00000010
,
00010000
00000010
00001000
00000001
00000000
00000100
00001000
00010000
00000000
00001000
00000000
00000010
00000100
00000000
00000010
00001000
,
00010000
00100000
00010000
00000000
00100000
10000000
00100000
00000000
10000000
01000000
00000000
00010000
01000000
00000000
10000000
00100000
,
01000000
00001000
00100000
00010000
00000000
00100000
01000000
00010000
00000000
00001000
00000000
00000100
00000010
00000000
00000100
00000001
,
00001000
00000010
00000100
00000000
00000010
00010000
00001000
00000000
00010000
01000000
10000000
00010000
00100000
00001000
00010000
00000010
,
00000100
00001000
00000100
00000001
00000100
00001000
00000100
00000001
,
00000010
00001000
00010000
00001000
00000010
00001000
00010000
00001000
,
00000100
00001000
00010000
00001000
00000100
00001000
00010000
00100000
,
10000000
00100000
00010000
00100000
10000000
00100000
00010000
00100000
,
01000000
00001000
01000000
00001000
00010000
00001000
00010000
00001000
00010000
00000100
00010000
00000100
00001000
00000010
00000100
00000001
,
00000010
00001000
00000010
00001000
00010000
00001000
00010000
00001000
00100000
00010000
00100000
00010000
00100000
01000000
10000000
00100000
,
01000000
00010000
10000000
00100000
01000000
00001000
00010000
00100000
00010000
00001000
00000100
00000010
00001000
00000001
00000010
00000100
,
00000010
00001000
00010000
00000010
00010000
00001000
00100000
00010000
01000000
00100000
00010000
00001000
00000100
00000010
00010000
00001000
;

//---------------para-single - ----------------
#NOTES:
     para-single:
     Riakodoadm:
     Hard:
     5:
     0.406606,0.579712,0.613895,0.216258,0.000000,408.000000,320.000000,88.000000,31.000000,0.000000,0.000000,0.406606,0.579712,0.613895,0.216258,0.000000,408.000000,320.000000,88.000000,31.000000,0.000000,0.000000:
// measure 0
00000
00000
00000
00000
,  // measure 1
00000
00000
00000
00000
,  // measure 2
00000
00000
00000
00000
,  // measure 3
00000
00000
00000
00000
,  // measure 4
00000
00000
00000
00000
,  // measure 5
00000
00000
00000
00000
,  // measure 6
00000
00000
00000
00000
,  // measure 7
00000
00000
00000
00000
,  // measure 8
02000
00000
00000
00000
,  // measure 9
00002
00000
00000
03003
,  // measure 10
00011
00110
01100
11000
,  // measure 11
20000
00000
30000
00000
,  // measure 12
00020
00000
00000
00000
,  // measure 13
20000
00000
00000
30030
,  // measure 14
11000
01100
00110
00011
,  // measure 15
00002
00000
00000
00003
,  // measure 16
20002
00000
00000
00000
00000
00000
00000
30003
,  // measure 17
02020
00000
00000
00000
00000
00000
00000
03030
,  // measure 18
00200
00000
00000
00000
,  // measure 19
00300
00000
00000
00000
,  // measure 20
10100
00000
00000
00000
,  // measure 21
00101
00000
00000
00000
,  // measure 22
10010
00000
01001
00000
,  // measure 23
01000
00010
01000
00010
,  // measure 24
00100
10010
00100
10010
,  // measure 25
01000
00100
00010
00000
00100
00010
00001
00000
,  // measure 26
00100
01001
00100
01001
,  // measure 27
00010
00100
01000
00000
00100
01000
10000
00000
,  // measure 28
00010
00000
00101
00000
00010
00100
01000
00000
,  // measure 29
01000
00000
10100
00000
01000
00100
00010
00000
,  // measure 30
00001
00010
00100
00000
10000
01000
00100
00000
,  // measure 31
00101
00000
10100
00000
,  // measure 32
00100
01001
00100
01001
,  // measure 33
00010
00100
01000
00000
00100
01000
10000
00000
,  // measure 34
00100
10010
00100
10010
,  // measure 35
01000
00100
00010
00000
00100
00010
00001
00000
,  // measure 36
01000
00000
10100
00000
01000
00100
00010
00000
,  // measure 37
00010
00000
00101
00000
00010
00100
01000
00000
,  // measure 38
10000
01000
00100
00000
00001
00010
00100
00000
,  // measure 39
10100
00000
00101
00000
,  // measure 40
20010
00010
00000
00000
,  // measure 41
00010
00010
00000
30000
,  // measure 42
01002
01000
00000
00000
,  // measure 43
01000
01000
00000
00003
,  // measure 44
10020
10000
00000
00000
,  // measure 45
10000
10000
00000
00030
,  // measure 46
02001
00001
00000
00000
,  // measure 47
00001
00001
00000
03000
,  // measure 48
10200
10000
00000
00000
,  // measure 49
10000
10000
00000
00300
,  // measure 50
00201
00001
00000
00000
,  // measure 51
00001
00001
00000
00300
,  // measure 52
20100
00100
00000
00000
,  // measure 53
00100
00100
00000
30000
,  // measure 54
00102
00100
00000
00000
,  // measure 55
00100
00100
00000
00003
,  // measure 56
00010
00100
02000
03000
20000
00000
30000
00000
,  // measure 57
01000
00100
00020
00030
00002
00000
00003
00000
,  // measure 58
00001
00010
00200
00300
02000
00000
03000
00000
,  // measure 59
10000
01000
00200
00300
00020
00000
00030
00000
,  // measure 60
00101
00000
00000
00000
,  // measure 61
10100
00000
00000
00000
,  // measure 62
01001
00000
10010
00000
,  // measure 63
01000
00010
01000
00010
,  // measure 64
00100
00010
00001
00000
00100
00000
01001
00000
,  // measure 65
00100
01000
10000
00000
00100
00000
10010
00000
,  // measure 66
01000
00100
00010
00000
00001
00000
10010
00000
,  // measure 67
00010
00100
01000
00000
10000
00000
01001
00000
,  // measure 68
00100
00010
00001
00000
01010
00000
00101
00000
,  // measure 69
00100
01000
10000
00000
01010
00000
10100
00000
,  // measure 70
01000
00100
00010
00000
00010
00100
01000
00000
,  // measure 71
00010
01000
00010
01000
00000
00000
10001
00000
,  // measure 72
00100
01000
10000
00000
00100
00000
10010
00000
,  // measure 73
00100
00010
00001
00000
00100
00000
01001
00000
,  // measure 74
00010
00100
01000
00000
10000
00000
01001
00000
,  // measure 75
01000
00100
00010
00000
00001
00000
10010
00000
,  // measure 76
00100
01000
10000
00000
01010
00000
10100
00000
,  // measure 77
00100
00010
00001
00000
01010
00000
00101
00000
,  // measure 78
00010
00100
01000
00000
01000
00100
00010
00000
,  // measure 79
01000
00010
01000
00010
00000
00000
10001
00000
,  // measure 80
00100
00010
00001
00000
00110
00000
00110
00000
,  // measure 81
00100
01000
10000
00000
01100
00000
01100
00000
,  // measure 82
00001
00010
00100
00000
01001
00000
01001
00000
,  // measure 83
10000
01000
00100
00000
10010
00000
10010
00000
,  // measure 84
02000
00000
03000
00000
,  // measure 85
00020
00000
00030
00000
,  // measure 86
01000
00000
00010
00000
,  // measure 87
00101
01010
10100
01010
,  // measure 88
10000
00001
10000
00001
,  // measure 89
01100
00110
01100
00110
,  // measure 90
00001
10000
00001
10000
,  // measure 91
00110
01100
00110
01100
,  // measure 92
10000
00001
10000
00001
,  // measure 93
01100
00110
01100
00110
,  // measure 94
00001
10000
00001
10000
,  // measure 95
00110
01100
00110
01100
,  // measure 96
00000
00100
00000
00100
,  // measure 97
00000
00100
00000
00100
,  // measure 98
00000
00100
00000
00100
,  // measure 99
00000
00100
00000
00100
,  // measure 100
02000
00000
00000
03000
,  // measure 101
00020
00000
00000
00030
,  // measure 102
01000
01000
00010
00010
,  // measure 103
01000
00100
00010
00000
00010
00100
01000
10000
;

//---------------dance-single - From memory, but more streamy----------------
#NOTES:
     dance-single:
     Riakodoadm:
     Medium:
     13:
     0.627847,0.689237,0.551110,0.202306,0.017440,630.000000,551.000000,79.000000,29.000000,0.000000,0.000000,0.627847,0.689237,0.551110,0.202306,0.017440,630.000000,551.000000,79.000000,29.000000,0.000000,0.000000:
0000
0000
0000
0000
,
0000
0000
0000
0000
,
0000
0000
0000
0000
,
0000
0000
0000
0000
,
0000
0000
0000
0000
,
0000
0000
0000
0000
,
0000
0000
0000
0000
,
0000
0000
0000
0000
,
2000
0100
0100
0100
,
0001
0001
0001
3002
,
0203
0000
0301
0020
0001
0000
0001
0000
,
0100
0100
0100
0032
,
2003
3020
0100
2030
,
3002
0010
0100
0023
,
0230
0000
0310
0002
0100
0000
0100
0000
,
0203
0000
0310
2000
0100
0000
3100
0000
,
0220
0000
0000
0030
,
0020
0000
0000
0300
,
0200
0000
0000
0030
,
0020
0000
0000
0330
,
0001
0000
0001
0100
0010
0000
0010
0000
,
1000
0000
1000
0100
0010
0000
0010
0000
,
0001
0100
0001
0000
1000
0100
1000
0000
,
0001
0100
0010
1000
0010
0100
0001
0000
,
1000
0100
1000
0000
0010
0100
0010
0000
,
1000
0100
1000
0000
0001
1000
0010
0100
,
0001
0010
0001
0000
0100
0010
0100
0000
,
0001
0010
0001
0000
0100
0010
1000
0100
,
0010
0001
1000
0000
0010
1000
0001
0000
,
0010
0001
0100
0000
0010
1000
0100
0000
,
1000
0001
0010
0000
0100
1000
0010
0000
,
0100
0001
0010
0000
0001
1000
0010
1000
,
0001
0100
0001
0000
0010
0100
0010
0000
,
0001
0100
0001
0000
1000
0001
0010
0100
,
1000
0010
1000
0000
0100
0010
0100
0000
,
1000
0010
1000
0000
0100
0010
0001
0100
,
0010
1000
0001
0000
0010
0001
1000
0000
,
0010
1000
0100
0000
0010
0001
0100
0000
,
0001
1000
0010
0000
0100
0001
0010
0000
,
0100
1000
0010
0000
1000
0001
0010
0001
,
0000
1000
0000
1010
0000
1100
0000
1010
,
0000
0010
0000
0110
0000
1010
0000
0110
,
0000
0100
0000
0101
0000
0011
0000
0101
,
0000
0001
0000
0011
0000
0110
0000
0011
,
0000
0010
0000
0110
0000
1010
0000
0110
,
0000
0100
0000
1100
0000
0101
0000
1100
,
0000
1000
0000
1010
0000
0101
0000
1010
,
0000
0100
0000
0011
0000
1100
0000
0011
,
0000
0001
0000
0011
0000
0101
0000
0011
,
0000
0010
0000
0110
0000
0011
0000
0110
,
0000
0100
0000
1100
0000
1010
0000
1100
,
0000
1000
0000
1010
0000
0110
0000
1010
,
0000
0010
0000
0110
0000
0011
0000
0110
,
0000
0100
0000
0101
0000
1100
0000
0101
,
0000
0001
0000
0011
0000
1100
0000
0011
,
0000
0100
0000
1010
0000
0101
0000
1010
,
1000
0010
0200
0002
0000
0000
0303
0000
,
0001
0010
0200
2000
0000
0000
3300
0000
,
1000
0100
0020
0002
0000
0000
0033
0000
,
0001
0100
0020
2000
0000
0000
3030
0000
,
0001
0010
0001
0200
0001
0001
0301
0000
,
1000
0010
1000
0200
1000
1000
1300
0000
,
1000
0010
1000
0010
0001
0010
0001
0010
,
1000
0001
1000
0001
0010
0100
0010
0100
,
1000
0010
1000
0100
1100
0000
1001
0000
,
0001
0010
0001
0100
0101
0000
1001
1000
,
0001
0010
0001
1000
1100
0000
1001
0000
,
1000
0010
1000
0001
0101
0000
1001
0001
,
1000
0010
0001
0010
0110
0000
1010
0000
,
0001
0010
1000
0010
0110
0000
0011
0010
,
0001
0100
1000
0100
0101
0000
0011
0000
,
1000
0100
0001
0100
1100
0000
1010
1000
,
0001
0010
0001
0100
0101
0000
1001
0000
,
1000
0010
1000
0100
1100
0000
1001
0001
,
1000
0010
1000
0001
0101
0000
1001
0000
,
0001
0010
0001
1000
1100
0000
1001
1000
,
0001
0010
1000
0010
0110
0000
0011
0000
,
1000
0010
0001
0010
0110
0000
1010
0010
,
1000
0100
0001
0100
1100
0000
1010
0000
,
0001
0000
0100
0000
1000
0000
0100
0000
0001
0000
1000
0000
0001
1000
0001
0000
,
1000
0100
0001
0100
1000
0010
0100
0001
,
0100
1000
0100
0001
1000
0010
0001
0010
,
1000
0001
0010
1000
0001
0100
1000
0001
,
0010
1000
0001
0100
1000
0010
0100
0001
,
1000
1000
0010
0010
,
0001
0001
0100
0100
,
1000
1000
0100
0100
,
0010
0001
0010
0001
1000
0010
1000
0010
,
0100
0001
0010
0001
0100
0001
0010
0001
,
0100
0000
1000
0000
0100
0000
0001
0000
0010
0000
1000
0000
0010
0000
0100
0010
,
0100
1000
0010
1000
0100
1000
0010
1000
,
0100
0000
0001
0000
0100
0000
1000
0000
0010
0000
0001
0000
0010
0000
0100
0010
,
0100
0001
0010
1000
0010
0001
0100
1000
,
0001
0000
0010
0000
1000
0000
0010
0000
0100
0000
0001
0000
0010
0000
0100
0010
,
0100
1000
0010
0001
0010
1000
0100
0001
,
1000
0000
0010
0000
0001
0000
0010
0000
0100
0000
1000
0000
0010
0000
0100
0010
,
0100
0100
1000
1000
,
0010
0000
0010
0000
0001
0000
0001
1000
,
0100
0100
0001
0001
,
0010
0000
0010
0000
1000
0000
1000
0001
,
0100
0001
0100
0001
0100
0010
0100
0010
,
1000
0010
1000
0010
1000
0001
1000
0001
,
1000
0100
1000
0100
0010
0001
0010
0001
,
0100
0010
1000
0100
0010
0001
0100
0010
,
1000
0000
0000
0000
;

//---------------dance-single - Original X=Y but from memory----------------
#NOTES:
     dance-single:
     Riakodoadm:
     Hard:
     16:
     0.867027,1.196376,0.083713,0.062785,0.683656,870.000000,858.000000,12.000000,9.000000,0.000000,0.000000,0.867027,1.196376,0.083713,0.062785,0.683656,870.000000,858.000000,12.000000,9.000000,0.000000,0.000000:
0000
0000
0000
0000
,
0000
0000
0000
0000
,
0000
0000
0000
0000
,
0000
0000
0000
0000
,
0000
0000
0000
0000
,
0000
0000
0000
0000
,
0000
0000
0000
0000
,
0000
0000
0000
0000
,
1000
0001
1000
0001
0010
0001
0010
0001
,
0010
0100
0010
0100
1000
0100
1000
0100
,
1000
0001
1000
0001
0100
0001
0100
0001
,
0100
0010
0100
0010
1000
0010
1000
0010
,
0100
0001
0100
0001
0010
0001
0010
0001
,
1000
0100
1000
0100
1000
0010
1000
0010
,
0100
0010
0100
0010
0100
0001
0100
0001
,
1000
0100
0001
0100
1000
0100
0001
0100
,
0220
0000
0000
0030
,
0020
0000
0000
0300
,
0200
0000
0000
0030
,
0020
0000
0000
0330
,
0001
0100
0001
0100
0010
0100
0010
0100
,
0010
1000
0010
1000
0100
1000
0100
1000
,
0100
0010
0100
0010
0001
0010
0001
0010
0001
1000
0001
1000
0010
1000
0010
1000
,
0010
0100
0010
0100
0001
0100
0001
0100
0010
1000
0100
0010
0001
0100
0010
1000
,
0001
0000
0010
0000
0100
0000
1000
0000
0001
0000
0010
0000
0100
1000
0100
0000
,
1000
0000
0100
0000
0010
0000
0001
0000
1000
0000
0100
0000
0010
0001
0010
0000
,
0001
0000
1000
0000
0010
0000
1000
0000
0100
0000
0010
0000
0001
0100
0001
0000
,
1000
0000
0001
0000
0100
0000
0001
0000
0010
0000
0100
0000
1000
0010
1000
0000
,
0010
0000
0100
0000
0001
0000
0010
0000
0001
0000
0100
0000
0001
1000
0100
0000
,
0010
0000
0100
0000
0001
0000
0100
0000
1000
0000
0010
0000
0100
0001
1000
0000
,
0100
0000
0010
0000
0001
0000
0100
0000
0010
0000
1000
0000
0010
0100
0001
0000
,
0010
0000
0100
0000
1000
0000
0010
0000
1000
0100
0010
0000
0001
0100
0010
0000
,
1000
0000
0010
0000
0100
0000
0001
0000
1000
0000
0010
0000
0100
0001
0100
0000
,
0001
0000
0100
0000
0010
0000
1000
0000
0001
0000
0100
0000
0010
1000
0010
0000
,
1000
0000
0001
0000
0010
0000
0001
0000
0100
0000
0010
0000
1000
0100
1000
0000
,
0001
0000
1000
0000
0100
0000
1000
0000
0010
0000
0100
0000
0001
0010
0001
0000
,
0010
0000
0100
0000
1000
0000
0010
0000
1000
0000
0100
0000
1000
0001
0100
0000
,
0010
0000
0100
0000
1000
0000
0100
0000
0001
0000
0010
0000
0100
1000
0001
0000
,
0100
0000
0010
0000
1000
0000
0100
0000
0010
0000
0001
0000
0010
0100
1000
0000
,
0010
0000
0100
0000
0001
0000
0010
0000
0001
0100
0010
0000
1000
0100
0010
0001
,
1000
0010
1000
0001
0000
0001
0000
0001
,
1000
0010
1000
0001
0000
0001
0000
0100
,
0010
0001
0010
0100
0000
0100
0000
0100
,
0010
0001
0010
0100
0000
0100
0000
0010
,
1000
0100
1000
0010
0000
0010
0000
0010
,
1000
0100
1000
0010
0000
0010
0000
1000
,
0100
0001
0100
1000
0000
1000
0000
1000
,
0100
0001
0100
1000
0000
1000
0000
1000
,
0001
0010
0001
1000
0000
1000
0000
1000
,
0001
0010
0001
1000
0000
1000
0000
0100
,
0010
1000
0010
0100
0000
0100
0000
0100
,
0010
1000
0010
0100
0000
0100
0000
0010
,
0001
0100
0001
0010
0000
0010
0000
0010
,
0001
0100
0001
0010
0000
0010
0000
0001
,
0100
1000
0100
0001
0000
0001
0000
0001
,
0100
1000
0100
0001
0000
0001
0000
0001
,
1000
0100
0010
0002
0100
0100
0100
0003
,
0001
0100
0010
2000
0100
0100
0100
3000
,
1000
0010
0100
0002
0010
0010
0010
0003
,
0001
0010
0100
2000
0010
0010
0010
3000
,
1000
0000
0010
0000
1000
0001
1000
0000
0001
0000
0010
0000
0001
1000
0001
0000
,
1000
0000
0100
0000
1000
0001
1000
0000
0001
0000
0100
0000
0001
1000
0001
0000
,
1000
0100
1000
0000
0001
0100
0001
0000
1000
0010
1000
0000
0001
0010
0001
0000
,
0010
0100
0010
0100
0010
0100
0010
0100
1000
0001
1000
0001
1000
0100
0010
0001
,
1000
0000
0010
0000
1000
0000
0100
0000
0010
0100
1000
0000
0010
0100
0001
0000
,
1000
0000
0010
0000
1000
0000
0100
0000
0010
0001
0100
0000
0001
0010
0100
0000
,
0010
0000
0100
0000
1000
0000
0010
0000
0100
0010
1000
0000
0010
1000
0100
0000
,
0010
0000
0100
0000
1000
0000
0010
0000
0001
0010
0100
0000
0010
1000
0001
0000
,
0100
0000
1000
0000
0100
0000
0001
0000
0010
0001
0100
0000
0010
1000
0001
0000
,
0100
0000
1000
0000
0100
0000
0001
0000
0010
0001
0100
0000
0010
1000
0100
0000
,
0001
0000
0100
0000
1000
0000
0001
0000
0010
0100
1000
0000
0100
0010
1000
0000
,
0001
0000
0100
0000
1000
0000
0001
0000
0100
0010
1000
0000
0100
0010
0001
1000
,
0001
0000
0010
0000
0001
0000
0100
0000
0010
0100
0001
0000
0010
0100
1000
0000
,
0001
0000
0010
0000
0001
0000
0100
0000
0010
1000
0100
0000
1000
0010
0100
0000
,
0010
0000
0100
0000
0001
0000
0010
0000
0100
0010
0001
0000
0010
0001
0100
0000
,
0010
0000
0100
0000
0001
0000
0010
0000
1000
0010
0100
0000
0010
0001
1000
0000
,
0100
0000
0001
0000
0100
0000
1000
0000
0010
1000
0100
0000
0010
0001
1000
0000
,
0100
0000
0001
0000
0100
0000
1000
0000
0010
1000
0100
0000
0010
0001
0100
0000
,
1000
0000
0100
0000
0001
0000
1000
0000
0010
0100
0001
0000
0100
0010
0001
0000
,
1000
0000
0100
0000
0001
0000
1000
0000
0100
0010
0001
0100
0010
1000
0100
0010
,
0001
0100
0001
0100
0000
0010
0000
0100
0000
0001
0000
1000
0100
0000
0010
0001
,
1000
0010
0100
0000
0010
1000
0001
0000
0010
0100
1000
0000
0100
0010
0001
0000
,
1000
0100
1000
0100
0000
0010
0000
0100
0000
1000
0000
0001
0100
0000
0010
1000
,
0001
0010
0100
0000
0010
0001
1000
0000
0010
0100
0001
0000
0100
0010
1000
0000
,
0001
0010
0001
0000
0010
0001
0010
0000
0100
0010
0100
0000
0010
0100
0010
0000
,
0100
1000
0100
0000
1000
0100
1000
0000
0010
1000
0010
0000
1000
0010
1000
0000
,
0001
1000
0100
0000
1000
0001
0100
0000
0001
1000
0010
0000
1000
0001
0010
0000
,
0100
0000
0010
0000
0001
0000
1000
0000
0100
0010
0001
0100
0010
1000
0100
0010
,
0001
0100
0010
1000
0000
0010
0000
0001
0000
0010
0000
0100
0001
0000
1000
0001
,
0100
0001
0100
0000
0010
0100
0010
0000
0100
0001
0000
0010
0001
0000
0010
0100
,
1000
0100
0010
0001
0000
0010
0000
1000
0000
0010
0000
0100
1000
0000
0001
1000
,
0100
1000
0100
0000
0010
0100
0010
0000
0100
1000
0000
0010
1000
0000
0010
0100
,
0001
0010
0001
0100
0000
0010
0000
0001
0000
0010
0000
1000
0001
0000
0010
0100
,
1000
0010
0100
0000
0010
1000
0100
0000
0010
1000
0000
0010
0001
0000
0100
0010
,
1000
0010
1000
0100
0000
0010
0000
1000
0000
0010
0000
0001
1000
0000
0010
0100
,
0001
0010
0100
0000
0010
0001
0100
0000
0010
0001
0000
0010
1000
0000
0100
0010
,
0100
1001
0100
0101
,
0010
0000
0110
0000
0010
0000
1010
1000
,
0100
1001
0100
1100
,
0010
0000
0110
0000
0010
0000
0011
0001
,
1000
0100
1000
0000
0100
1000
0100
0000
0010
0100
0010
0100
0010
0100
0010
0100
,
0010
0001
0010
0000
0001
0100
0001
0000
0100
0010
0100
0010
0100
0010
0100
0010
,
1000
0010
1000
0010
0100
0010
0100
0010
0100
0001
0100
0001
0010
0001
0010
0001
,
0010
0000
0011
0000
0110
0000
1100
0000
1000
0100
0010
0001
0100
0010
1000
0100
;

//---------------dance-single - Basic like an UPPER chart----------------
#NOTES:
     dance-single:
     Riakodoadm:
     Easy:
     9:
     0.403616,0.507248,0.111617,0.404613,0.000000,405.000000,389.000000,16.000000,58.000000,0.000000,0.000000,0.403616,0.507248,0.111617,0.404613,0.000000,405.000000,389.000000,16.000000,58.000000,0.000000,0.000000:
0000
0000
0000
0000
,
0000
0000
0000
0000
,
0000
0000
0000
0000
,
0000
0000
0000
0000
,
0000
0000
0000
0000
,
0000
0000
0000
0000
,
0000
0000
0000
0000
,
0000
0000
0000
0000
,
2000
0000
0100
0000
,
0001
0000
3100
1000
,
0002
0000
0100
0000
,
1000
0000
0103
0001
,
2000
0000
3100
1000
,
0002
0000
0103
0001
,
2002
0000
0000
3003
,
0220
0000
0000
0330
,
2002
0000
0000
0003
,
0002
0000
0000
3000
,
2000
0000
0000
0003
,
0002
0000
0000
3003
,
2020
0000
0000
3030
,
0202
0000
0000
0303
,
0022
0033
2200
3300
,
1000
0100
0010
0001
,
1000
0010
1000
0100
,
1000
0000
0010
0000
0100
0000
0001
0100
,
0001
0010
0001
0100
,
0001
0000
0010
0000
0001
0000
1000
0100
,
1000
0010
0001
0010
,
1000
0000
0001
0000
0100
0000
0010
0100
,
0001
0010
1000
0010
,
0001
0000
1000
0000
0100
0000
0010
0100
,
1000
0010
0100
0001
,
1000
0000
0100
0000
0010
0000
0100
0010
,
0001
0010
0100
1000
,
0001
0000
0100
0000
0010
0000
0100
0010
,
1000
0100
0001
0010
,
1000
0000
0100
0000
0001
0000
0100
1000
,
0001
0100
1000
0010
,
0001
0000
0100
0000
1000
0000
0100
0001
,
1000
2000
0010
3100
,
1000
2000
0010
3100
,
0100
0200
1000
0310
,
0100
0200
1000
0010
,
0310
0020
0001
0130
,
0010
0020
0001
0130
,
0001
0002
0100
0013
,
1000
2000
0100
3010
,
0001
0002
0010
0103
,
0001
0002
0010
0103
,
0100
0200
0001
0310
,
0100
0200
0001
0010
,
0310
0020
1000
0130
,
0010
0020
1000
0130
,
1000
2000
0100
3010
,
0001
0002
0100
0013
,
1001
0000
0001
0020
0000
0000
0030
0000
,
1001
0000
1000
0020
0000
0000
0030
0000
,
1001
0000
0001
0200
0000
0000
0300
0000
,
1001
0000
1000
0200
0000
0000
0300
0000
,
1000
0100
1000
0000
0020
0000
0030
0000
,
0001
0100
0001
0000
0020
0000
0030
0000
,
1000
0100
1000
0000
0001
0100
0001
0000
,
0220
0000
0000
0000
0000
0000
0000
0330
,
2000
0010
0100
3010
,
0001
0000
0100
0000
1000
0000
0010
0100
,
0002
0010
0100
0013
,
1000
0000
0010
0000
0001
0000
0010
0001
,
0200
0000
1000
0000
0001
0000
0310
1000
,
0020
0001
1030
0001
,
0010
0001
0010
0002
1000
0000
1003
0000
,
0100
1000
0100
2000
0001
0000
3001
0100
,
0002
0010
0100
0013
,
1000
0000
0100
0000
0001
0000
0010
0100
,
2000
0010
0100
3010
,
0001
0000
0010
0000
1000
0000
0010
1000
,
0200
0000
0001
0000
1000
0000
0310
0001
,
0020
1000
0031
1000
,
0010
1000
0010
2000
0001
0000
3001
0000
,
0100
0001
0100
0002
2000
0000
0000
3003
,
1000
0010
0001
1000
,
0100
0001
1001
0110
,
0001
0010
1000
0001
,
0100
1000
1001
0110
,
1000
1000
0010
0010
,
0001
0001
0100
0100
,
1000
1000
0100
0100
,
0010
0001
1000
0010
,
0100
0001
0100
0001
0100
0000
0010
0000
,
1000
0000
0100
0000
0010
0000
0001
0010
,
0100
1000
0100
1000
0100
0000
0010
0000
,
0001
0000
0100
0000
0010
0000
1000
0010
,
1000
0001
0100
0001
1000
0000
0010
0000
,
0001
0000
0100
0000
1000
0000
0010
0100
,
0001
1000
0100
1000
0001
0000
0010
0000
,
1000
0000
0100
0000
0001
0000
0010
0100
,
1000
1000
0100
0100
,
0001
0000
0001
0000
0010
0000
0010
0010
,
0001
0001
0100
0100
,
1000
0000
1000
0000
0010
0000
0010
0010
,
1000
0000
1000
0000
1000
0100
1000
0100
,
0010
0000
0010
0000
0001
0100
0001
0100
,
0010
0000
0010
0000
1000
0001
1000
0001
,
0010
0000
0100
0000
1000
0010
0100
0001
;

//---------------dance-single - Original X=Y from memory----------------
#NOTES:
     dance-single:
     Riakodoadm:
     Beginner:
     3:
     0.163440,0.253319,0.048833,0.286019,0.000000,164.000000,157.000000,7.000000,41.000000,0.000000,0.000000,0.163440,0.253319,0.048833,0.286019,0.000000,164.000000,157.000000,7.000000,41.000000,0.000000,0.000000:
0000
0000
0000
0000
,
0000
0000
0000
0000
,
0000
0000
0000
0000
,
0000
0000
0000
0000
,
0000
0000
0000
0000
,
0000
0000
0000
0000
,
0000
0000
0000
0000
,
0000
0000
0000
0000
,
2000
0000
0000
0000
,
3000
0000
0000
0000
,
0002
0000
0000
0000
,
0003
0000
0000
0000
,
0200
0000
0000
0000
,
0300
0000
0000
0000
,
0020
0000
0000
0000
,
0030
0000
0000
0000
,
2002
0000
0000
0000
,
0000
0000
0000
0000
,
3003
0000
0000
0000
,
0000
0000
0000
0000
,
2000
0000
3000
0000
,
0200
0000
0300
0000
,
0020
0000
0030
0000
,
0002
0000
0003
0000
,
1000
0000
0001
0000
,
1000
0000
0001
1000
,
0001
0000
1000
0000
,
0001
0000
1000
0001
,
1000
0000
0100
0000
,
1000
0000
0001
1000
,
0001
0000
0100
0000
,
0001
0000
1000
0001
,
1000
0000
0010
0000
,
1000
0000
0001
1000
,
0001
0000
0010
0000
,
0001
0000
1000
0001
,
1000
0000
0100
0000
,
0010
0000
0001
1000
,
0001
0000
0100
0000
,
0010
0000
1000
0001
,
2000
0000
3000
0000
,
2000
0000
3000
0000
,
0200
0000
0300
0000
,
0200
0000
0300
0000
,
0020
0000
0030
0000
,
0020
0000
0030
0000
,
0002
0000
0003
0000
,
0200
0000
0300
0000
,
0002
0000
0003
0000
,
0002
0000
0003
0000
,
0200
0000
0300
0000
,
0200
0000
0300
0000
,
0020
0000
0030
0000
,
0020
0000
0030
0000
,
2000
0000
3000
0000
,
0200
0000
0300
0000
,
2002
0000
3003
0000
,
2002
0000
3003
0000
,
0220
0000
0330
0000
,
0220
0000
0330
0000
,
0002
0000
0003
0000
,
0200
0000
0300
0000
,
0020
0000
0030
0000
,
2000
0000
3000
0000
,
0001
0001
0000
0000
,
1000
1000
0000
0000
,
0001
1000
0000
0000
,
1000
0001
0000
0000
,
0010
0010
0000
0000
,
0100
0100
0000
0000
,
0100
0010
0000
0000
,
0010
0100
0000
0000
,
1000
1000
0000
0000
,
0001
0001
0000
0000
,
1000
0001
0000
0000
,
0001
1000
0000
0000
,
0010
0010
0000
0000
,
0100
0100
0000
0000
,
0100
0010
0000
0000
,
0010
0100
0000
0000
,
1000
0000
1000
0000
,
0100
0000
0100
0000
,
0001
0000
0001
0000
,
0100
0000
0100
0000
,
2002
0000
3003
0000
,
0020
0000
0030
0000
,
0100
0000
0010
0000
,
0100
0010
0100
0000
,
0001
0100
0001
0000
,
0100
0000
0100
0000
,
1000
0100
1000
0000
,
0100
0000
0100
0000
,
0001
0010
0001
0000
,
0010
0000
0010
0000
,
1000
0010
1000
0000
,
0010
0000
0010
0000
,
1001
0000
0000
0000
,
0001
0000
0000
0000
,
1000
0000
0000
0000
,
0001
0000
0000
0000
,
0010
0010
0010
0000
,
0100
0100
0100
0000
,
0010
0010
0010
0000
,
0100
0100
0100
0100
;

//---------------para-single - ----------------
#NOTES:
     para-single:
     Riakodoadm:
     Challenge:
     8:
     0.984624,1.305137,0.809225,0.181378,0.892938,988.000000,872.000000,116.000000,26.000000,0.000000,0.000000,0.984624,1.305137,0.809225,0.181378,0.892938,988.000000,872.000000,116.000000,26.000000,0.000000,0.000000:
00000
00000
00000
00000
,
00000
00000
00000
00000
,
00000
00000
00000
00000
,
00000
00000
00000
00000
,
00000
00000
00000
00000
,
00000
00000
00000
00000
,
00000
00000
00000
00000
,
00000
00000
00000
00000
,
02000
00100
00010
00100
,
03020
00100
01000
00130
,
00011
00110
01100
21000
00100
00000
00010
00000
,
00001
00010
00100
31000
,
00020
00100
01000
00100
,
02030
00100
00010
03100
,
11000
01100
00110
00012
00100
00000
01000
00000
,
10000
01000
00100
00013
,
00001
00010
00100
01000
00001
00010
00100
01000
,
10000
01000
00100
00010
10000
01000
00100
00010
,
01000
00100
00010
00001
01000
00100
00010
00001
,
00010
00100
01000
10000
00010
00100
01000
10000
,
01100
00110
00011
00000
00110
01100
11000
00000
,
01100
00110
00011
00000
00110
01100
11000
00000
,
00010
00001
01000
10000
00100
00010
00100
01000
,
00001
00000
00010
00000
00100
00000
01000
00000
00001
00000
00010
00000
00100
00000
01000
00000
00001
00000
00010
00000
00100
00000
01000
00000
00001
00000
00010
00000
00100
00000
01000
00000
00001
00000
00010
00000
00100
00000
00000
01000
00000
00000
10000
00000
00000
00001
00000
00000
,
00100
01000
10000
00000
00010
00100
01000
00000
00100
01000
10000
00000
00010
00100
01000
00000
,
10001
00010
00100
00000
01010
00100
00010
00000
10001
00010
00100
00000
01010
10000
00001
00000
,
00100
01000
10000
00000
01000
00100
00010
00000
00100
01000
10000
00000
01000
00100
00010
00000
,
00101
01000
10000
00000
01100
00010
00001
00000
00101
00010
00100
00000
01100
10000
01000
00000
,
10000
00010
00001
00000
10000
00010
00001
00000
01000
00010
00001
00000
01000
00010
00001
00000
,
00010
01000
10000
00000
00010
01000
10000
00000
00001
00100
01000
00000
00001
00100
01000
00000
,
00010
00100
01001
00000
00100
01000
10010
00000
01000
00100
01010
00000
00001
00010
00101
00000
,
10000
01000
10100
00000
00010
00100
01010
00000
01010
10100
01000
00000
01010
00101
00010
00000
,
00100
00010
00001
00000
01000
00100
00010
00000
00100
00010
00001
00000
01000
00100
00010
00000
,
10001
01000
00100
00000
01010
00100
01000
00000
10001
01000
00100
00000
01010
00001
10000
00000
,
00100
00010
00001
00000
00010
00100
01000
00000
00100
00010
00001
00000
00010
00100
01000
00000
,
10100
00010
00001
00000
00110
01000
10000
00000
10100
01000
00100
00000
00110
00001
00010
00000
,
00001
01000
10000
00000
00001
01000
10000
00000
00010
01000
10000
00000
00010
01000
10000
00000
,
01000
00010
00001
00000
01000
00010
00001
00000
10000
00100
00010
00000
10000
00100
00010
00000
,
01000
00100
10010
00000
00100
00010
01001
00000
00010
00100
01010
00000
10000
01000
10100
00000
,
00001
00010
00101
00000
01000
00100
01010
00000
01010
00101
00010
00000
01010
10100
01000
00000
,
20100
00010
00100
00000
00000
00000
00000
30000
,
01020
00100
01000
00000
00000
00000
00000
00030
,
00201
00010
00001
00000
00000
00000
00000
00300
,
10002
01000
10000
00000
00000
00000
00000
00003
,
00102
01000
00100
00000
00000
00000
00000
00003
,
02010
00100
00010
00000
00000
00000
00000
03000
,
10200
01000
10000
00000
00000
00000
00000
00300
,
20001
00010
00001
00000
00000
00000
00000
30000
,
00102
01000
00100
00000
00000
00000
00000
00003
,
02010
00100
00010
00000
00000
00000
00000
03000
,
10200
01000
10000
00000
00000
00000
00000
00300
,
20001
00010
00001
00000
00000
00000
00000
30000
,
20100
00010
00100
00000
00000
00000
00000
30000
,
01020
00100
01000
00000
00000
00000
00000
00030
,
00201
00010
00001
00000
00000
00000
00000
00300
,
10002
01000
10000
00000
00000
00000
00000
00003
,
00010
00100
01000
20000
00010
00010
30010
00000
,
01000
00100
00010
00002
01000
01000
01003
00000
,
00001
00010
00100
02000
00010
00010
03010
00000
,
10000
01000
00100
00020
01000
01000
01030
00000
,
00110
01100
11000
00000
01100
00110
00011
00000
,
00110
01100
11000
00000
01100
00110
00011
00000
,
01000
10000
00010
00001
00100
01000
00100
00010
,
10000
00000
01000
00000
00100
00000
00010
00000
10000
00000
01000
00000
00100
00000
00010
00000
10000
00000
01000
00000
00100
00000
00010
00000
10000
00000
01000
00000
00100
00000
00010
00000
10000
00000
01000
00000
00100
00000
00000
00010
00000
00000
00001
00000
00000
00010
00000
00000
,
10000
00000
01000
00000
00010
00000
00100
00000
01000
00100
00010
00001
01000
00010
00100
01000
,
10000
00000
01000
00000
00010
00000
00100
00000
01000
00100
00010
00001
00010
00100
01000
10000
,
00010
00000
00001
00000
00100
00000
01000
00000
10000
01000
00100
00001
00010
00100
01000
00100
,
00010
00000
00001
00000
00100
00000
01000
00000
00100
00010
00001
00100
01000
10000
00100
00010
,
00001
00000
00010
00000
01000
00000
10000
00000
00100
00010
01000
10000
00010
00100
01000
10000
,
00001
00000
00010
00000
01000
00000
10000
00000
00001
00010
00100
10000
01000
00100
00010
00001
,
01000
00000
00100
00000
00010
00000
01000
00000
10000
01000
00001
00010
00100
01000
00010
00001
,
01000
00000
00100
00000
00010
00000
01000
00000
00001
00010
01000
00100
00010
00100
01000
10000
,
00001
00000
00010
00000
01000
00000
00100
00000
00010
00100
01000
10000
00010
01000
00100
00010
,
00001
00000
00010
00000
01000
00000
00100
00000
00010
00100
01000
10000
01000
00100
00010
00001
,
01000
00000
10000
00000
00100
00000
00010
00000
00001
00010
00100
10000
01000
00100
00010
00100
,
01000
00000
10000
00000
00100
00000
00010
00000
00100
01000
10000
00100
00010
00001
00100
01000
,
10000
00000
01000
00000
00010
00000
00001
00000
00100
01000
00010
00001
01000
00100
00010
00001
,
10000
00000
01000
00000
00010
00000
00001
00000
10000
01000
00100
00001
00010
00100
01000
10000
,
00010
00000
00100
00000
01000
00000
00010
00000
00001
00010
10000
01000
00100
00010
01000
10000
,
00010
00000
00100
00000
01000
00000
00010
00000
10000
01000
00010
00100
01000
00100
00010
00001
,
01000
10000
00010
00001
01000
10000
00010
00001
00100
01000
00100
00010
00100
01000
00100
00010
,
00001
00010
00100
01000
00001
00010
00100
01000
10000
01000
00100
00010
10000
01000
00100
01000
,
00010
00001
01000
10000
00010
00001
01000
10000
00100
00010
00100
01000
00100
00010
00100
01000
,
10000
01000
00100
00010
10000
01000
00100
00010
00001
00010
00100
01000
00001
00010
00100
00010
,
00100
01000
10000
00000
00100
00010
00001
00000
00100
01000
10000
00000
00100
00010
00001
00000
,
00010
00100
01000
00000
01000
00100
00010
00000
00010
00100
01000
00000
01000
00100
00010
00000
,
10000
01000
00100
00000
00001
00010
00100
00000
10000
01000
00100
00000
00001
00010
00100
00000
,
00011
00000
00110
00000
01100
00000
11000
00000
00001
00010
00100
01000
00010
00100
01000
10000
,
01000
00100
00010
01001
00000
00010
00100
01000
00000
10001
00000
01010
10100
00000
00010
00001
,
00100
01000
10000
00000
01000
00100
00010
00000
00001
10000
00000
01000
00010
00000
00100
01000
,
00010
00100
01000
10010
00000
01000
00100
00010
00000
10001
00000
01010
00101
00000
01000
10000
,
00100
00010
00001
00000
00010
00100
01000
00000
10000
00001
00000
00010
01000
00000
00100
00010
,
10000
01000
00100
01010
00000
00001
00010
01100
00000
00110
00000
00001
00010
00000
10000
01000
,
00100
00010
00001
00000
01000
00100
00010
00000
10000
01000
00000
00010
00001
00000
01010
00100
,
00001
00010
00100
01010
00000
10000
01000
00110
00000
01100
00000
10000
01000
00000
00001
00010
,
00100
01000
10000
00000
00010
00100
01000
00000
00001
00010
00000
01000
10000
00000
01010
00100
,
01000
10010
00100
10001
,
00010
01001
00100
10001
,
00010
10100
00010
01100
,
01000
00101
01000
00110
,
01000
00100
00010
00001
01000
00100
00010
00001
,
00010
00100
01000
10000
00010
00100
01000
10000
,
00010
00001
01000
10000
00100
00010
01000
10000
,
11000
00000
01100
00000
00110
00000
00011
00000
10000
01000
00100
00010
01000
00100
00010
00001
;

//---------------para-single - ----------------
#NOTES:
     para-single:
     Riakodoadm:
     Medium:
     3:
     0.276053,0.506638,0.341828,0.348804,0.000000,277.000000,228.000000,49.000000,50.000000,0.000000,0.000000,0.276053,0.506638,0.341828,0.348804,0.000000,277.000000,228.000000,49.000000,50.000000,0.000000,0.000000:
// measure 0
00000
00000
00000
00000
,  // measure 1
00000
00000
00000
00000
,  // measure 2
00000
00000
00000
00000
,  // measure 3
00000
00000
00000
00000
,  // measure 4
00000
00000
00000
00000
,  // measure 5
00000
00000
00000
00000
,  // measure 6
00000
00000
00000
00000
,  // measure 7
00000
00000
00000
00000
,  // measure 8
20000
00000
00000
00000
,  // measure 9
00020
00000
00000
30030
,  // measure 10
10000
01000
00100
00010
,  // measure 11
00002
00000
00003
00000
,  // measure 12
00002
00000
00000
00000
,  // measure 13
02000
00000
00000
03003
,  // measure 14
00001
00010
00100
01000
,  // measure 15
20000
00000
00000
30000
,  // measure 16
02020
00000
00030
00000
,  // measure 17
00020
00000
03000
00000
,  // measure 18
02000
00000
00030
00000
,  // measure 19
00020
00000
03030
00000
,  // measure 20
20200
00000
30300
00000
,  // measure 21
00202
00000
00303
00000
,  // measure 22
01010
00000
10001
00000
,  // measure 23
00200
00000
00300
00000
,  // measure 24
00010
01000
00010
01000
,  // measure 25
00010
01000
00010
00000
,  // measure 26
10000
00001
10000
00001
,  // measure 27
10000
00001
10000
00000
,  // measure 28
01000
00100
00010
00100
,  // measure 29
01000
00100
00010
00000
,  // measure 30
01000
00110
00001
00000
,  // measure 31
00010
01100
10000
00000
,  // measure 32
01000
00010
01000
00010
,  // measure 33
01000
00010
01000
00000
,  // measure 34
00001
10000
00001
10000
,  // measure 35
00001
10000
00001
00000
,  // measure 36
00010
00100
01000
00100
,  // measure 37
00010
00100
01000
00000
,  // measure 38
00010
01100
10000
00000
,  // measure 39
01000
00110
00001
00000
,  // measure 40
02000
00000
00000
00000
,  // measure 41
00020
00000
00000
03030
,  // measure 42
00002
00000
00000
00000
,  // measure 43
20000
00000
00000
30003
,  // measure 44
20000
00000
00000
00000
,  // measure 45
00200
00000
00000
30300
,  // measure 46
00002
00000
00000
00000
,  // measure 47
02000
00000
00000
03003
,  // measure 48
00020
00000
00000
00000
,  // measure 49
02000
00000
00000
03030
,  // measure 50
20000
00000
00000
00000
,  // measure 51
00002
00000
00000
30003
,  // measure 52
00002
00000
00000
00000
,  // measure 53
00200
00000
00000
00303
,  // measure 54
20000
00000
00000
00000
,  // measure 55
00020
00000
00000
30030
,  // measure 56
00100
20020
00000
30030
,  // measure 57
00100
02002
00000
03003
,  // measure 58
00010
00202
00000
00303
,  // measure 59
01000
20200
00000
30300
,  // measure 60
01000
10100
00010
00000
,  // measure 61
00010
00101
01000
00000
,  // measure 62
00100
01010
10001
01010
,  // measure 63
00100
01010
20002
30003
,  // measure 64
00010
00101
00000
00000
,  // measure 65
01000
10100
00000
00000
,  // measure 66
01000
00100
00010
00000
00000
00000
00000
00000
,  // measure 67
00010
00100
01000
00000
00000
00000
00000
00000
,  // measure 68
00010
01001
00000
00000
,  // measure 69
01000
10010
00000
00000
,  // measure 70
00100
00010
00001
00000
00000
00000
00000
00000
,  // measure 71
00100
01000
10000
00000
00000
00000
00000
00000
,  // measure 72
01000
10100
00000
00000
,  // measure 73
00010
00101
00000
00000
,  // measure 74
00010
00100
01000
00000
00000
00000
00000
00000
,  // measure 75
01000
00100
00010
00000
00000
00000
00000
00000
,  // measure 76
01000
10010
00000
00000
,  // measure 77
00010
01001
00000
00000
,  // measure 78
00100
01000
10000
00000
00000
00000
00000
00000
,  // measure 79
00100
00010
00001
00000
00000
00000
00000
00000
,  // measure 80
00010
01000
00010
01000
,  // measure 81
00001
10000
00001
10000
,  // measure 82
01000
00010
01000
00010
,  // measure 83
10000
00001
10000
00001
,  // measure 84
20020
00000
30030
00000
,  // measure 85
02002
00000
03003
00000
,  // measure 86
02000
00000
00020
03030
,  // measure 87
00100
01010
10001
10001
,  // measure 88
10000
00001
10000
00001
,  // measure 89
01100
00110
01100
00110
,  // measure 90
00001
10000
00001
10000
,  // measure 91
00110
01100
00110
01100
,  // measure 92
10000
00001
10000
00001
,  // measure 93
01100
00110
01100
00110
,  // measure 94
00001
10000
00001
10000
,  // measure 95
00110
01100
00110
01100
,  // measure 96
00000
00100
00000
00100
,  // measure 97
00000
00100
00000
00100
,  // measure 98
00000
00100
00000
00100
,  // measure 99
00000
00100
00000
00100
,  // measure 100
02000
00000
00000
03000
,  // measure 101
00020
00000
00000
00030
,  // measure 102
01000
01000
00010
00010
,  // measure 103
10000
01000
00010
00001
;
