#VERSION:0.83;
#TITLE:Worlds Apart (Impact Remix);
#SUBTITLE:;
#ARTIST:Jarvis feat. Taya;
#TITLETRANSLIT:;
#SUBTITLETRANSLIT:;
#ARTISTTRANSLIT:;
#GENRE:UK HARDCORE;
#ORIGIN:;
#CREDIT:Walk It Out!/Step to the Beat (2010);
#BANNER:Worlds Apart (Impact Mix).PNG;
#BACKGROUND:Worlds Apart (Impact Mix)-bg.PNG;
#PREVIEWVID:;
#JACKET:Worlds Apart (Impact Mix)-jacket.PNG;
#CDIMAGE:;
#DISCIMAGE:;
#LYRICSPATH:Worlds Apart (Impact Mix).lrc;
#CDTITLE:;
#MUSIC:Worlds Apart (Impact Mix).ogg;
#OFFSET:-2.825000;
#SAMPLESTART:45.178001;
#SAMPLELENGTH:15.000000;
#SELECTABLE:YES;
#BPMS:0.000=170.000;
#STOPS:;
#DELAYS:;
#WARPS:;
#TIMESIGNATURES:0.000=4=4;
#TICKCOUNTS:0.000=4;
#COMBOS:0.000=1;
#SPEEDS:0.000=1.000=0.000=0;
#SCROLLS:0.000=1.000;
#FAKES:;
#LABELS:0.000=Song Start;
#BGCHANGES:;
#KEYSOUNDS:;
#ATTACKS:
;

//---------------dance-single - Stupid.----------------
#NOTEDATA:;
#CHARTNAME:origExpert;
#STEPSTYPE:dance-single;
#DESCRIPTION:Stupid.;
#CHARTSTYLE:;
#DIFFICULTY:Edit;
#METER:11;
#RADARVALUES:0.627425,0.609427,0.464017,0.237404,0.107911,407.000000,364.000000,43.000000,22.000000,0.000000,0.000000,0.000000,0.000000,0.000000,0.627425,0.609427,0.464017,0.237404,0.107911,407.000000,364.000000,43.000000,22.000000,0.000000,0.000000,0.000000,0.000000,0.000000;
#CREDIT:Riakodoadm of the past;
#NOTES:
0000
0000
0000
0000
,
0000
0000
0000
0000
,
1000
1100
1000
1010
,
0001
0011
0001
0101
,
0100
1100
0100
0101
,
0010
0011
0010
1010
,
1000
0010
0100
0001
0000
0001
0100
0001
,
0000
1000
0010
1000
0000
0001
0010
0100
,
0000
1000
0001
0100
0000
0001
0010
0001
,
0000
1000
0100
1000
0010
0100
0001
0010
,
0100
1000
0100
1000
0010
0000
0110
0000
,
0100
0001
0100
0001
0010
0000
1100
0000
,
1000
0010
0100
0001
0100
0010
1000
0001
,
0010
0000
0000
0000
,
1000
0100
1100
0000
0100
1000
0001
0000
,
0100
0001
0101
0000
0100
0001
0010
0000
,
0020
0000
0130
0010
0002
0000
0103
0010
,
2000
0000
3100
1000
0002
0000
1003
0100
,
0010
0001
0011
0000
0010
0100
1000
0000
,
1000
0010
1010
0000
0010
1000
0100
0000
,
1000
0100
1000
0100
0001
0100
0001
0100
,
1000
0100
0001
0100
1000
0100
0001
0000
,
2000
0010
0010
0000
3001
0010
0001
0000
,
0200
0001
0001
0000
0310
1000
0001
0000
,
0021
0000
0130
1000
0020
0000
0031
0000
,
1020
0000
0031
0010
2000
0000
3100
0000
,
1000
0001
1000
0000
0001
0100
0001
0010
,
0100
1000
0100
0000
1000
0001
0100
0010
,
1000
0100
0010
0001
,
2001
3100
1002
0103
,
1100
1000
0100
0010
0001
1000
0100
0000
,
0101
0001
0100
0010
1000
0001
0010
0100
,
1000
0000
0000
0001
0000
0000
1000
0000
0100
0000
0000
0010
0000
0000
0100
0000
,
1000
0000
0000
0010
0000
0000
0100
0000
0001
0000
0000
0100
0000
0000
0010
0000
,
1000
0100
0010
0001
0100
0010
1010
0000
,
0001
0100
0010
1000
0100
0010
0011
0000
,
2000
0000
0000
0100
0000
0000
3002
0000
0100
0000
0000
0023
0000
0000
0130
0000
,
1000
1000
0100
0100
0010
0010
0001
0001
,
1000
0010
0020
0000
1030
0001
0101
0000
,
0001
0010
0020
0000
0130
1000
1010
0000
,
0010
0000
0000
0100
0000
0000
0001
0000
1000
0000
0000
0100
0000
0000
0001
0000
,
0100
0000
0000
0010
0000
0000
0001
0000
0100
0000
0000
0010
0000
0000
1000
0000
,
1200
0000
0301
0100
1000
0010
0001
0010
,
1020
0000
0031
0010
1000
0100
0001
0100
,
0110
0000
0021
0000
1030
0010
0001
0100
,
0101
0000
0000
0000
,
1001
1000
0100
0000
1001
0001
0100
0000
,
0001
0100
0010
1000
0010
0100
0010
1000
,
1001
0001
0010
0000
1001
1000
0010
0000
,
1000
0100
0010
0001
0100
0010
1000
0100
,
0110
0010
0001
0000
0110
0010
1000
0000
,
0001
0010
0100
1000
0010
0001
0010
0100
,
0110
0100
0001
0000
0110
0100
1000
0000
,
1000
1000
1000
0000
0001
0001
0001
0000
,
1000
0010
1000
0010
0001
0010
0001
0010
,
1000
0010
0001
0010
1000
0100
0001
0100
,
1000
0010
0100
0001
1000
0010
0100
0001
,
0010
0100
1000
0010
1010
0000
0101
0000
,
1000
0000
0000
0100
0000
0010
0000
0000
0001
0000
0000
0100
0000
0010
0000
0000
,
1000
0000
0000
0100
0000
0001
0000
0000
0100
0000
0000
1000
0000
0010
0000
0000
,
0001
0000
0000
0010
0000
0000
0100
0000
0001
0000
0000
0010
0000
0000
0100
0000
,
0000
0110
1100
0101
,
2002
0000
0000
3003
;

//---------------dance-single - ----------------
#NOTEDATA:;
#CHARTNAME:Difficult;
#STEPSTYPE:dance-single;
#DESCRIPTION:;
#CHARTSTYLE:;
#DIFFICULTY:Medium;
#METER:9;
#RADARVALUES:0.524139,0.575570,0.312942,0.107911,0.161866,340.000000,311.000000,29.000000,10.000000,0.000000,0.000000,0.000000,0.000000,0.000000,0.524139,0.575570,0.312942,0.107911,0.161866,340.000000,311.000000,29.000000,10.000000,0.000000,0.000000,0.000000,0.000000,0.000000;
#CREDIT:Riakodoadm;
#NOTES:
0000
0000
0000
0000
,
0000
0000
0000
0000
,
1000
0100
1000
0100
,
0001
0100
0001
0100
,
1000
0010
1000
0010
,
0001
0010
0001
0010
,
1001
0100
1001
0100
,
0110
1000
0110
1000
,
1001
0010
1001
0010
,
0110
0001
0110
0001
,
1100
0010
1100
0010
,
0011
1000
0011
1000
,
0101
0010
0101
0010
,
0000
0000
0000
0000
,
1000
0001
0000
0100
0000
1000
0000
0100
,
0000
0001
0000
0100
0000
1000
0000
0100
,
0000
0010
0000
0010
0000
0100
0000
0100
,
0000
0001
0000
0010
0000
0100
0000
1000
,
0001
0100
0000
1000
0000
0100
0000
0001
,
0000
0010
0000
1000
0000
0010
0000
0001
,
0000
0100
0000
0100
0000
0010
0000
0010
,
0000
1000
0000
0010
0100
0001
0100
0001
,
0000
1000
0100
1000
0000
1000
0100
1000
,
0000
0100
0010
0100
0000
0100
0010
0100
,
0000
0010
0001
0010
0000
0010
0001
0010
,
0000
0001
0100
0001
0000
0001
0100
0001
,
0000
1000
0001
0100
0000
0001
1000
0100
,
0000
1000
0001
0010
0000
0001
1000
0010
,
0000
0100
0001
0010
0000
0100
1000
0010
,
0220
0330
2002
3003
,
0100
1000
0100
0000
1000
0100
1000
0000
,
0001
0100
0001
0000
0100
0001
0100
0000
,
1000
0010
0000
0000
0001
0000
0000
0000
1000
0010
0000
0000
0001
0000
0000
0000
,
1000
0100
0000
0000
0001
0000
0000
0000
1000
0100
0000
0000
0001
0000
0000
0000
,
1000
0001
0100
0000
0001
1000
0100
0000
,
0010
0001
0100
0000
0010
1000
0100
0000
,
1000
0100
0001
0000
0001
0100
1000
0000
,
1000
0100
0000
0000
0010
0001
0000
0000
0001
0100
0000
0000
0010
1000
0000
0000
,
0010
1000
0010
0000
1000
0010
1000
0000
,
0001
0010
0001
0000
0010
0001
0010
0000
,
0001
0010
0000
0000
1000
0000
0000
0000
0001
0010
0000
0000
1000
0000
0000
0000
,
0001
0100
0000
0000
1000
0000
0000
0000
0001
0100
0000
0000
1000
0000
0000
0000
,
1000
0200
0000
0000
0010
0000
0000
0000
1000
0000
0000
0000
0310
0000
0000
0000
,
0001
0200
0000
0000
0010
0000
0000
0000
0001
0000
0000
0000
0310
0000
0000
0000
,
0220
0000
0000
0330
,
1001
0000
0000
0000
,
1000
0100
0000
0000
1000
0000
0000
0000
0001
0100
0000
0000
0001
0000
0000
0000
,
1000
0001
1000
0001
1000
0001
1000
0000
,
0001
0010
0000
0000
0001
0000
0000
0000
1000
0010
0000
0000
1000
0000
0000
0000
,
0010
0100
0010
0100
0010
0100
0010
0000
,
1000
0100
0000
0000
0010
0000
0000
0000
0001
0100
0000
0000
0010
0000
0000
0000
,
1000
0100
1000
0100
1000
0100
1000
0000
,
0001
0010
0000
0000
0100
0000
0000
0000
1000
0010
0000
0000
0100
0000
0000
0000
,
0001
0100
0001
0100
0001
0100
0001
0000
,
1001
0000
0000
1000
0010
0000
0000
0000
1001
0000
0000
0001
0010
0000
0000
0000
,
0001
1000
0001
1000
0010
0100
0100
0000
,
1001
0000
0000
0001
0010
0000
0000
0000
1001
0000
0000
1000
0010
0000
0000
0000
,
1000
0001
1000
0001
0010
0100
0100
0000
,
1001
0000
0000
1000
0100
0000
0000
0000
1001
0000
0000
0001
0100
0000
0000
0000
,
0001
0100
0010
1000
0100
0010
0010
0000
,
1001
0000
0000
0001
0100
0000
0000
0000
1001
0000
0000
1000
0100
0000
0000
0000
,
0000
0100
1001
0110
,
2002
0000
0000
3003
;

//---------------dance-single - Stupid AND unfair.----------------
#NOTEDATA:;
#CHARTNAME:origChallenge;
#STEPSTYPE:dance-single;
#DESCRIPTION:Stupid AND unfair.;
#CHARTSTYLE:;
#DIFFICULTY:Edit;
#METER:14;
#RADARVALUES:0.786208,0.846427,0.517973,0.183449,0.631279,510.000000,462.000000,48.000000,17.000000,0.000000,0.000000,0.000000,0.000000,0.000000,0.786208,0.846427,0.517973,0.183449,0.631279,510.000000,462.000000,48.000000,17.000000,0.000000,0.000000,0.000000,0.000000,0.000000;
#CREDIT:Riakodoadm of the past feat. Riakodoadm;
#NOTES:
0000
0000
0000
0000
,
0000
0000
0000
0000
0000
0000
0000
0000
1000
0001
1000
0001
0100
0000
0010
0000
,
1001
1100
1001
0011
,
1001
0101
1001
1010
,
0110
0101
1001
1100
,
0110
0000
0000
0000
0011
0000
0000
0000
0001
0010
0001
1000
0002
0000
0000
0000
,
1003
0000
0010
0000
0000
0000
0100
0001
0000
0000
0010
0000
0000
0000
0100
1000
,
0000
0000
0001
0000
0000
0000
1000
0010
0000
0000
0100
0000
0000
0000
0001
0100
,
0000
0000
0010
0000
0000
0000
0001
0010
0000
0000
1000
0000
0000
0000
0100
1000
,
0000
0000
0001
0000
0000
0000
0100
0010
1000
0001
0100
0001
0010
0000
0100
0000
,
1000
0100
0010
0100
1000
0010
0100
0001
,
0010
0100
0010
0001
0100
0010
1000
0100
,
1000
0010
1000
0010
0100
0001
0100
0001
0010
0100
1000
0001
0010
0100
1000
0020
,
0000
0000
0000
0000
0000
0000
0000
0000
0130
0010
0100
0010
0100
0010
0100
0010
,
1000
0200
0010
0310
0000
0010
0001
0100
,
0000
0200
0010
0310
0000
0010
1000
0100
,
0000
0001
0100
1000
0000
1000
0010
0001
,
0000
1000
0100
0001
0000
0001
0010
1000
,
0000
0020
0001
0031
0000
0100
0001
1000
,
0000
0020
1000
1030
0000
0100
1000
0001
,
0000
0001
0010
1000
0000
0001
0100
1000
,
0000
0000
1000
0000
0010
0000
0001
0000
0010
0100
0010
0100
0002
0000
0000
0000
,
0013
1000
0001
0100
0000
1000
0010
0200
,
0000
0301
0100
0020
0000
1030
0010
0002
,
0000
0013
1000
0200
0000
0301
0100
1000
,
0000
0001
0100
0010
0000
1000
0100
0010
,
0000
0110
0010
0001
0000
0101
0001
1000
,
0000
0010
1000
1100
0000
0100
0010
0011
,
0000
0101
0001
0011
0000
0100
0000
1000
,
0002
0000
0000
0000
1003
0001
1000
0001
1000
0001
1000
0001
2000
0000
0000
3000
,
1000
0100
1000
0001
0101
0001
0010
0100
,
1100
0100
0001
0100
0110
0010
0001
0100
,
1001
0000
0000
0100
0000
0000
0010
0000
1001
0000
0000
0010
0000
0000
0100
0000
,
1001
0000
0000
0100
0000
0000
1000
0000
1010
0000
0000
0100
0000
0000
0001
0000
,
0011
0010
1000
0010
0110
0100
1000
0010
,
0110
0100
0001
0100
1000
0100
0101
0010
,
1100
0100
0010
0001
1000
0010
0110
0100
,
0001
0001
0010
0010
0100
0100
1000
1000
,
0001
0100
0010
0100
0101
0001
0010
0100
,
1100
0100
0001
0100
0110
0010
0001
1000
,
1100
0000
0000
0100
0000
0000
0001
0000
0101
0000
0000
0100
0000
0000
1000
0000
,
1010
0000
0000
0100
0000
0000
0001
0000
0011
0000
0000
0100
0000
0000
1000
0000
,
1100
0100
0001
0100
1000
0010
0001
0010
,
0110
0100
0001
0010
1000
0010
0001
0100
,
0011
0010
1000
0010
0001
0100
1000
0100
,
0001
1000
0001
1000
0002
0000
0000
0000
2000
0000
0000
0000
0000
0000
3003
0000
,
1000
0000
0000
0100
0000
1000
0000
0010
0100
0000
0000
0001
0000
0010
0100
0000
,
0010
0000
0000
0001
0000
1000
0000
0010
1000
0000
0100
0010
0001
0000
1000
0000
,
0100
0000
0000
0010
0000
0001
0000
0010
1000
0000
0000
0010
0000
0100
1000
0000
,
0010
0000
0000
0100
0000
0010
0000
1000
0100
0000
0000
0010
0000
0001
0000
0100
,
0001
0000
0000
0100
0000
0001
0000
0010
0100
0000
0000
1000
0000
0010
0100
0000
,
0010
0000
0000
1000
0000
0001
0000
0010
0001
0000
0100
0010
0000
1000
0001
0000
,
0100
0000
0000
0010
0000
0010
0000
1000
0100
0000
0000
0010
0000
0010
0000
0001
,
1000
0001
1000
0001
1000
0000
0001
1000
0010
0000
0100
0000
1001
0000
0000
0000
,
0001
0000
0001
0010
0000
0100
0000
1000
0010
0000
0100
0010
0000
0001
0010
0000
,
1000
0000
1000
0100
0000
0100
0000
0010
0001
0000
0100
0010
1000
0000
0010
0000
,
0100
0000
0100
0001
0000
1000
0000
0100
0010
0000
1000
0010
0000
0001
0010
0000
,
0001
0000
0001
0100
0000
0100
0000
1000
0100
0000
0010
1000
0000
0001
0010
0000
,
0001
0000
0010
0100
0000
1000
0001
1000
0010
0000
0010
0100
0000
0100
0001
0010
,
0001
0000
0001
1000
0000
1000
0010
0100
0001
0000
0010
1000
0000
0010
0001
0100
,
0010
0000
0010
1000
0000
0100
1000
0001
0010
0000
0010
0001
0000
0100
0010
1000
,
0000
0110
1100
0101
,
2002
0000
0000
3003
;

//---------------dance-single - Hey, this one's actually good!----------------
#NOTEDATA:;
#CHARTNAME:Expert;
#STEPSTYPE:dance-single;
#DESCRIPTION:Hey, this one's actually good!;
#CHARTSTYLE:;
#DIFFICULTY:Hard;
#METER:13;
#RADARVALUES:0.662882,0.677141,0.388479,0.194240,0.318337,430.000000,394.000000,36.000000,18.000000,0.000000,0.000000,0.000000,0.000000,0.000000,0.662882,0.677141,0.388479,0.194240,0.318337,430.000000,394.000000,36.000000,18.000000,0.000000,0.000000,0.000000,0.000000,0.000000;
#CREDIT:Riakodoadm;
#NOTES:
0000
0000
0000
0000
,
0000
0000
0000
0000
,
1000
0100
0001
1100
,
0001
0100
1000
0101
,
0001
0010
1000
0011
,
1000
0000
0000
0000
0010
0000
0000
0000
1000
0001
1000
0001
0200
0000
0000
0000
,
0301
0100
0001
0000
0101
0000
0110
0000
,
1000
0100
1000
0000
1100
0000
0110
0000
,
0010
0001
0100
0000
0010
1000
0100
0000
,
0020
0032
0203
2300
,
3100
0001
0100
0001
1000
0010
1000
0010
,
1000
0001
1000
0001
0010
0001
0010
0001
,
1000
0000
0100
0000
0010
0000
0001
0000
0100
0010
0100
0010
1000
0001
1000
0002
,
0000
0000
2000
0003
,
3001
1000
0100
0010
0000
0001
0100
0010
,
0000
1000
0100
0001
0000
0001
0100
1000
,
0000
0001
0010
0100
0000
1000
0010
0100
,
0000
0001
0010
1000
0000
1000
0010
0001
,
0000
1000
0001
0100
0000
0010
0100
0001
,
0000
0001
1000
0100
0000
0010
0100
1000
,
0000
0100
1000
0010
0000
0100
0001
0010
,
0000
0000
0010
0000
0001
0000
0100
0000
0010
0100
0010
1000
0001
0000
0000
0000
,
1000
0100
0010
0001
0000
0100
0010
1000
,
0001
0100
0010
1000
0000
0100
0010
0001
,
0011
0000
1000
0010
0000
0001
0100
0000
,
1010
0000
0001
0010
0000
1000
0001
0100
,
0010
1000
0010
1000
0000
0100
1000
0001
,
0010
0001
0010
0001
0000
0100
0001
1000
,
0010
0100
0001
0100
0000
0001
1000
0000
,
1002
0103
2001
3100
,
1100
1000
0100
0010
0001
1000
0100
0000
,
0101
0001
0100
0010
1000
0001
0010
0100
,
1001
0000
0000
0100
0000
0000
0010
0000
1001
0000
0000
0010
0000
0000
0100
0000
,
1001
0000
0000
0100
0000
0000
1000
0000
1010
0000
0000
0100
0000
0000
0001
0000
,
1000
0100
0010
0001
0100
0010
1010
0000
,
0001
0100
0010
1000
0100
0010
0011
0000
,
1000
0100
0010
0001
1000
0010
0100
0001
,
0100
0100
0010
0010
1000
1000
0001
0001
,
1000
0100
0001
0100
1000
0010
0110
0000
,
0001
0100
1000
0100
0001
0010
0100
1000
,
1100
0000
0000
0100
0000
0000
0001
0000
0101
0000
0000
0100
0000
0000
1000
0000
,
1010
0000
0000
0010
0000
0000
0001
0000
0011
0000
0000
0010
0000
0000
1000
0000
,
1200
0000
0310
0100
1000
0001
0100
0010
,
2010
0000
3001
0100
0010
1000
0001
0010
,
0210
0000
0310
0001
0100
1000
0100
0001
,
0020
0000
0200
0030
,
0310
0000
0000
0010
0000
0000
0001
0000
0100
0000
0010
0000
1000
0000
0100
0000
,
0010
0000
0000
0010
0000
0000
0100
0000
1000
0000
0010
0000
0001
0000
0010
0000
,
1010
0000
0000
0100
0000
0000
0010
0000
0011
0000
0000
0100
0000
0000
0010
0000
,
1000
0100
0001
0100
1000
0001
1000
0000
,
0010
0000
0000
0010
0000
0000
1000
0000
0100
0000
0010
0000
0001
0000
0100
0000
,
0010
0000
0000
0010
0000
0000
0100
0000
0001
0000
0010
0000
1000
0000
0010
0000
,
0011
0000
0000
0010
0000
0000
1000
0000
1010
0000
0000
0010
0000
0000
0001
0000
,
0100
0000
0010
0100
0010
0000
0000
0000
2002
0000
0000
0000
3003
0000
0000
0000
,
1000
0000
0000
0100
0000
1000
0000
0010
0100
0000
0100
0001
0000
0010
0100
0000
,
0010
0000
0000
0001
0000
1000
0000
0010
1000
0000
0100
0010
0001
0000
1000
0000
,
0100
0000
0000
0010
0000
0001
0000
0010
1000
0000
0010
0100
0000
0100
1000
0000
,
0010
0000
0000
0100
0000
0010
0000
1000
0100
0000
0100
0010
0000
0001
0100
0000
,
0001
0000
0000
0100
0000
0001
0000
0010
0100
0000
0100
1000
0000
0010
0100
0000
,
0010
0000
0000
1000
0000
0001
0000
0010
0001
0000
0100
0010
0000
1000
0001
0000
,
0010
0000
0000
0100
0000
0010
0000
0001
0100
0000
0100
0010
0000
1000
0100
0000
,
0000
1010
0110
0011
,
2002
0000
0000
3003
;

//---------------dance-single - ----------------
#NOTEDATA:;
#CHARTNAME:Beginner;
#STEPSTYPE:dance-single;
#DESCRIPTION:;
#CHARTSTYLE:;
#DIFFICULTY:Beginner;
#METER:2;
#RADARVALUES:0.168033,0.267619,0.140284,0.000000,0.000000,109.000000,96.000000,13.000000,0.000000,0.000000,0.000000,0.000000,0.000000,0.000000,0.168033,0.267619,0.140284,0.000000,0.000000,109.000000,96.000000,13.000000,0.000000,0.000000,0.000000,0.000000,0.000000,0.000000;
#CREDIT:Riakodoadm;
#NOTES:
0000
0000
0000
0000
,
0000
0000
0000
0000
,
1000
0000
1000
0000
,
1000
0000
1000
0000
,
0010
0000
0010
0000
,
0010
0000
0000
0000
,
0001
0000
0001
0000
,
0001
0000
0001
0000
,
0010
0000
0010
0000
,
0010
0000
0000
0000
,
0100
0000
0100
0000
,
0100
0000
0100
0000
,
0010
0000
0010
0000
,
0010
0000
0000
0000
,
1000
0000
0000
0000
,
1000
0000
0000
0000
,
0100
0000
0100
0000
,
0100
0000
0000
0000
,
0001
0000
0000
0000
,
0001
0000
0000
0000
,
0100
0000
0100
0000
,
0100
0000
0000
0000
,
1000
0000
0000
0000
,
0100
0000
0000
0000
,
0001
0000
0001
0000
,
0001
0000
0000
0000
,
0001
0000
0000
0000
,
0100
0000
0000
0000
,
1000
0000
1000
0000
,
1000
0000
0000
0000
,
1000
0000
0100
0000
,
1000
0000
0100
0000
,
1001
0000
0000
0000
,
0110
0000
0000
0000
,
0001
0000
0100
0000
,
0001
0000
0100
0000
,
1001
0000
0000
0000
,
0110
0000
0000
0000
,
1001
0000
0100
0000
,
1001
0000
0100
0000
,
0110
0000
0000
0000
,
0110
0000
0000
0000
,
1001
0000
0010
0000
,
1001
0000
0010
0000
,
0110
0000
0000
0000
,
0110
0000
0000
0000
,
0010
0000
0010
0000
,
1000
0000
0100
0000
,
0010
0000
0010
0000
,
0001
0000
0100
0000
,
1000
0000
0100
0000
,
0010
0000
0001
0000
,
0100
0000
0010
0000
,
1000
0000
0000
0000
,
0100
0000
0100
0000
,
1000
0000
0010
0000
,
0100
0000
0100
0000
,
0001
0000
0010
0000
,
0001
0000
0100
0000
,
1000
0000
0100
0000
,
0001
0000
0100
0000
,
0000
0000
0010
0000
,
1001
0000
0000
0000
;

//---------------dance-single - ----------------
#NOTEDATA:;
#CHARTNAME:Basic;
#STEPSTYPE:dance-single;
#DESCRIPTION:;
#CHARTSTYLE:;
#DIFFICULTY:Easy;
#METER:5;
#RADARVALUES:0.325274,0.440142,0.377688,0.345315,0.000000,211.000000,176.000000,35.000000,32.000000,0.000000,0.000000,0.000000,0.000000,0.000000,0.325274,0.440142,0.377688,0.345315,0.000000,211.000000,176.000000,35.000000,32.000000,0.000000,0.000000,0.000000,0.000000,0.000000;
#CREDIT:Riakodoadm;
#NOTES:
0000
0000
0000
0000
,
0000
0000
0000
0000
,
1000
0000
1000
0000
,
0001
0000
0001
0000
,
1000
1000
0001
0001
,
1001
0000
1001
0000
,
0001
0000
0001
0000
,
1000
0000
1000
0000
,
0001
0001
1000
1000
,
1001
0000
1001
0000
,
1000
0000
0001
0000
,
1000
0000
0001
0000
,
1000
0001
1000
0001
,
0000
0000
0000
0000
,
0010
0100
0000
0100
,
0010
0100
0000
1000
,
0100
0001
0000
0001
,
0100
1000
0000
0010
,
0100
0010
0000
0100
,
0010
0100
0000
1000
,
0010
0001
0000
0001
,
0010
1000
0200
0300
,
1000
0100
0000
0100
,
1000
0010
0000
0001
,
0100
1000
0000
1000
,
0100
0001
0000
0010
,
0001
0100
0000
0100
,
0001
0010
0000
1000
,
0010
0001
0000
0001
,
0020
0000
0130
0000
,
0010
0010
1000
0100
,
0010
0010
0001
0100
,
2002
3003
2002
3003
,
0220
0330
0220
0330
,
0100
0100
1000
0010
,
0100
0100
0001
0010
,
0100
1000
0010
0001
,
1001
0110
1001
0000
,
1000
1000
0100
0010
,
0001
0001
0100
0010
,
0220
0330
0220
0330
,
2002
3003
2002
3003
,
0100
0100
1000
0010
,
0001
0001
0100
1000
,
0010
0010
0100
0001
,
1001
0000
0000
0000
,
2002
3003
2001
0000
,
0001
0100
3001
0000
,
2002
3003
1002
0000
,
1000
0100
1003
0000
,
0220
0330
2001
0000
,
0010
0100
3001
0000
,
0220
0330
1002
0000
,
0010
0100
1003
0000
,
1001
0010
1001
0010
,
0001
0010
0100
0000
,
1001
0010
1001
0010
,
1000
0010
0100
0000
,
1001
0100
1001
0100
,
0001
0010
0100
0000
,
1001
0100
1001
0100
,
0000
1000
1001
0110
,
2002
0000
0000
3003
;

//---------------dance-double - ----------------
#NOTEDATA:;
#CHARTNAME:Expert;
#STEPSTYPE:dance-double;
#DESCRIPTION:;
#CHARTSTYLE:;
#DIFFICULTY:Hard;
#METER:13;
#RADARVALUES:0.675214,0.839682,0.420853,0.237404,0.361502,438.000000,399.000000,39.000000,22.000000,0.000000,0.000000,0.000000,0.000000,0.000000,0.675214,0.839682,0.420853,0.237404,0.361502,438.000000,399.000000,39.000000,22.000000,0.000000,0.000000,0.000000,0.000000,0.000000;
#CREDIT:Riakodoadm;
#NOTES:
00000000
00000000
00000000
00000000
,
00000000
00000000
00000000
00000000
00000000
00000000
00000000
00000000
10000000
00010000
10000000
00010000
01000000
00000000
00001000
00000000
,
00010000
00011000
00001000
00001100
,
00000100
00000101
00000001
00000011
,
00000010
00000110
00000100
00001100
,
00001000
00000000
00000000
00000000
00001010
00000000
00000000
00000000
00000010
00000100
00000001
00001000
00000200
00000000
00000000
00000000
,
00010300
00011000
00001000
01001000
,
01000000
01100000
00100000
10100000
,
10000000
10010000
00010000
00110000
,
00200000
02300000
23000000
30020000
,
00130000
01000000
10000000
00010000
00100000
01000000
00010000
00001000
,
00000100
00000010
00001000
00000001
00000010
00000100
00001000
00010000
,
00000010
00010000
00000010
00010000
00001000
00100000
00001000
00100000
00010000
01000000
00010000
01000000
00100000
10000000
00100000
10000000
,
02000000
00000000
00200000
00000000
,
03300000
01000000
00100000
01000000
00000000
00100000
00010000
01000000
,
00000000
00100000
01000000
00100000
00000000
01000000
00010000
00100000
,
00000000
10000000
00100000
00010000
00000000
00100000
01000000
00010000
,
00000000
00001000
00010000
00000100
00000000
00001000
00000010
00000100
,
00000000
00000010
00000100
00000010
00000000
00000100
00000001
00000010
,
00000000
00000100
00001000
00000100
00000000
00000010
00000001
00000100
,
00000000
00001000
00000100
00000001
00000000
00001000
00000010
00000100
,
00000000
00000000
00000010
00000000
00010000
00000000
00001000
00000000
00100000
00001000
00010000
00000100
00002000
00000000
00000000
00000000
,
00003000
00000001
00000100
00000010
00000000
00001000
00000010
00000001
,
00000000
00000010
00001000
00000100
00000000
00000010
00001000
00010000
,
00000000
00001000
00000100
00000001
00000000
00000010
00000100
00010000
,
00000000
00001000
00010000
01000000
00000000
00100000
00010000
01000000
,
00100000
10000000
00010000
10000000
00000000
01000000
00100000
01000000
,
00010000
00000100
00010000
00001000
00000000
00000010
00000001
00000100
,
00000010
00001000
00000001
00001000
00000000
00000001
00000100
00000000
,
00000220
00000330
00022000
00033000
,
01001000
01000000
00100000
10000000
00010000
00100000
01000000
00000000
,
11000000
10000000
00100000
01000000
00010000
00100000
01000000
10000000
,
10010000
00000000
00000000
00010000
00000000
00000000
00100000
00000000
00101000
00000000
00000000
00001000
00000000
00000000
00010000
00000000
,
00010010
00000000
00000000
00000010
00000000
00000000
00001000
00000000
00001100
00000000
00000000
00000100
00000000
00000000
00000010
00000000
,
00000001
00000100
00001000
00000100
00000001
00000010
00000110
00000000
,
00000100
00001000
00000010
00000100
00000001
00000010
00000011
00000000
,
00000010
00000100
00001000
00000001
00001000
00000010
00010000
00001000
,
00000100
00000100
00001000
00001000
00010000
00010000
01000000
01000000
,
10000000
00100000
00010000
00100000
10000000
01000000
11000000
00000000
,
10000000
00100000
01000000
00010000
00100000
00001000
00010000
00000100
,
00010100
00000000
00000000
00010000
00000000
00000000
00000010
00000000
00000110
00000000
00000000
00000100
00000000
00000000
00000001
00000000
,
00000011
00000000
00000000
00000010
00000000
00000000
00001000
00000000
00011000
00000000
00000000
00010000
00000000
00000000
01000000
00000000
,
12000000
00000000
03010000
01000000
10000000
00100000
00010000
00001000
,
00012000
00000000
00003100
00000001
00000010
00001000
00010000
01000000
,
01200000
00000000
01300000
10000000
01000000
00010000
00001000
00000100
,
00000020
00000000
00000000
00000000
00000200
00000000
00000000
00000330
,
00000001
00000000
00000000
00001000
00000000
00000000
00000001
00000000
00000010
00000000
00000100
00000000
00001000
00000000
00000010
00000000
,
00000100
00000000
00000000
00000001
00000000
00000000
00000010
00000000
00001000
00000000
00010000
00000000
01000000
00000000
10000000
00000000
,
10100000
00000000
00000000
10000000
00000000
00000000
00010000
00000000
00110000
00000000
00000000
00100000
00000000
00000000
01000000
00000000
,
00100000
00000000
00000000
00010000
00000000
00100000
00010000
00000000
10000000
00000000
00000000
00100000
00000000
10000000
00100000
00000000
,
10000000
00000000
00000000
00010000
00000000
00000000
10000000
00000000
00100000
00000000
01000000
00000000
00010000
00000000
00100000
00000000
,
01000000
00000000
00000000
10000000
00000000
00000000
01000000
00000000
00010000
00000000
00001000
00000000
00000100
00000000
00000001
00000000
,
00000101
00000000
00000000
00000001
00000000
00000000
00001000
00000000
00001100
00000000
00000000
00000100
00000000
00000000
00000010
00000000
,
00000001
00000010
00000100
00010000
00002000
00000000
00000000
00000000
00023000
00000000
00000000
00000000
00032000
00000000
00000000
00000000
,
00103000
00000000
00000000
01000000
00000000
10000000
00000000
00100000
10000000
00000000
00100000
01000000
00000000
00010000
00100000
00000000
,
01000000
00000000
00000000
10000000
00000000
00010000
00000000
00100000
01000000
00000000
00010000
00001000
00100000
00000000
00001000
00000000
,
00010000
00000000
00000000
00000010
00000000
00000100
00000000
00000001
00000010
00000000
00000100
00000001
00000000
00000100
00001000
00000000
,
00000010
00000000
00000000
00000001
00000000
00000010
00000000
00001000
00000010
00000000
00000100
00000001
00000000
00000010
00001000
00000000
,
00010000
00000000
01000000
00100000
00000000
01000000
00000000
10000000
00100000
00000000
01000000
00001000
00000000
00010000
00000010
00000000
,
00000100
00000000
00001000
00000100
00000000
00000001
00000000
00000010
00001000
00000000
00010000
00001000
00000000
00010000
01000000
00000000
,
00100000
00000000
00000000
00001000
00000000
00000000
00000100
00000000
00001000
00000000
00000000
00100000
00000000
00000000
01000000
00000000
,
00000000
01100000
00011000
00000110
,
00022000
00033000
00000000
00000000
;

//---------------dance-double - ----------------
#NOTEDATA:;
#CHARTNAME:Difficult;
#STEPSTYPE:dance-double;
#DESCRIPTION:;
#CHARTSTYLE:;
#DIFFICULTY:Medium;
#METER:9;
#RADARVALUES:0.502557,0.570984,0.107911,0.280568,0.129493,326.000000,316.000000,10.000000,26.000000,0.000000,0.000000,0.000000,0.000000,0.000000,0.502557,0.570984,0.107911,0.280568,0.129493,326.000000,316.000000,10.000000,26.000000,0.000000,0.000000,0.000000,0.000000,0.000000;
#CREDIT:Riakodoadm;
#NOTES:
00000000
00000000
00000000
00000000
,
00000000
00000000
00000000
00000000
,
00000001
00000100
00000010
00001000
,
00000001
00000010
00000100
00010000
,
00001000
01000000
00100000
10000000
,
00010000
00100000
00000000
00000000
,
10000000
01000000
00100000
00010000
,
10000000
00100000
01000000
00001000
,
00010000
00000100
00000010
00000001
,
00000020
00000230
00002300
00003002
,
00000103
00000010
00000100
00000010
00010000
00001000
00010000
00001000
,
00100000
01000000
00100000
01000000
00010000
00001000
00010000
00001000
,
00100000
01000000
10000000
00100000
01000000
00001000
00010000
00000100
,
00000000
00000000
00000000
00000000
00000220
00000000
00000000
00000330
,
00000010
00000001
00000000
00000100
00000000
00001000
00000000
00000100
,
00000000
00000010
00000000
00010000
00000000
00001000
00000000
00010000
,
00000000
00000100
00000000
00010000
00000000
00001000
00000000
00000100
,
00000000
00000001
00000000
00000010
00000000
00001000
00000000
00010000
,
01000000
00100000
00000000
00010000
00000000
00100000
00000000
01000000
,
00000000
10000000
00000000
00100000
00000000
10000000
00000000
00010000
,
00000000
10000000
00000000
01000000
00000000
00010000
00000000
00001000
,
00000000
00100000
00000000
00001000
00010000
00001000
00010000
00000000
,
00001000
00010000
01000000
00010000
00000000
00010000
00001000
00010000
,
00000000
00000010
00010000
00000010
00000000
00000010
00000100
00000010
,
00000000
00000100
00001000
00000100
00000000
00000100
00000001
00000100
,
00000000
00000001
00000010
00000001
00000000
00000001
00001000
00000001
,
00000000
00001000
00000010
00001000
00000000
00001000
00000100
00001000
,
00000000
00000100
00001000
00000100
00000000
00000100
00010000
00000100
,
00000000
00010000
00001000
00010000
00000000
00010000
01000000
00100000
,
02200000
03300000
20020000
30030000
,
10010000
00000000
10000000
00100000
01000000
00000000
00010000
00100000
,
01000000
00000000
10000000
01000000
00010000
00000000
01000000
00000000
,
10000000
00100000
00000000
00000000
00010000
00000000
00000000
00000000
10000000
00100000
00000000
00000000
00010000
00000000
00000000
00000000
,
01000000
00001000
00000000
00000000
00010000
00000000
00000000
00000000
01000000
00001000
00000000
00000000
00010000
00000000
00000000
00000000
,
00010100
00000000
00000100
00001000
00000010
00000000
00000100
00000001
,
00000010
00000000
00001000
00000010
00000001
00000000
00001000
00000100
,
00000010
00000000
00000001
00000100
00001000
00000000
00000100
00000001
,
00000010
00000010
00001000
00001000
00010000
00010000
00100000
00100000
,
01000000
00000000
00100000
10000000
01000000
00000000
00010000
00001000
,
00000100
00000000
00001000
00010000
01000000
00000000
00010000
00001000
,
00000100
00000001
00000000
00000000
00000010
00000000
00000000
00000000
00000100
00000001
00000000
00000000
00000010
00000000
00000000
00000000
,
00000100
00010000
00000000
00000000
00001000
00000000
00000000
00000000
00000100
00010000
00000000
00000000
00001000
00000000
00000000
00000000
,
00021000
02030000
23000000
30200000
,
00320000
00032000
00003200
00000302
,
00000023
00000000
00000000
00000000
00000200
00000000
00000000
00000330
,
00002000
00000000
00000000
00000000
00000002
00000000
00000000
00003003
,
00001000
00000000
00000000
00000100
00001000
00000000
00000000
00000000
00000001
00000000
00000000
00000100
00000001
00000000
00000000
00000000
,
00000010
00000100
00001000
00000010
00010000
00001000
00010000
00000000
,
00001000
00000000
00000000
00100000
00001000
00000000
00000000
00000000
00010000
00000000
00000000
00000010
00010000
00000000
00000000
00000000
,
00001000
00100000
01000000
10000000
00010000
01000000
00100000
00000000
,
10000000
00000000
00000000
00100000
10000000
00000000
00000000
00000000
00010000
00000000
00000000
00100000
00010000
00000000
00000000
00000000
,
10000000
01000000
10000000
00100000
01000000
00001000
01000000
00000000
,
00001000
00000000
00000000
01000000
00001000
00000000
00000000
00000000
00010000
00000000
00000000
00000100
00010000
00000000
00000000
00000000
,
00000200
00000000
00000000
00000000
00000020
00000000
00000000
00000330
,
00000010
00000000
00000000
00000001
00000000
00000000
00000010
00000000
00000100
00000000
00000000
00001000
00000000
00000000
00000100
00000000
,
00001000
00000010
00000001
00000010
00001000
00000100
00010000
00000000
,
00001000
00000000
00000000
00100000
00000000
00000000
00001000
00000000
00010000
00000000
00000000
00000010
00000000
00000000
00010000
00000000
,
00001000
00010000
00100000
01000000
00010000
00100000
01000000
00000000
,
10000000
00000000
00000000
00100000
00000000
00000000
10000000
00000000
00010000
00000000
00000000
00100000
00000000
00000000
00010000
00000000
,
00100000
00001000
00010000
00001000
01000000
00100000
10000000
00000000
,
00100000
00000000
00000000
10000000
00000000
00000000
00100000
00000000
01000000
00000000
00000000
00010000
00000000
00000000
01000000
00000000
,
00000000
01100000
00011000
00000110
,
00022000
00033000
00000000
00000000
;

//---------------dance-double - ----------------
#NOTEDATA:;
#CHARTNAME:Basic;
#STEPSTYPE:dance-double;
#DESCRIPTION:;
#CHARTSTYLE:;
#DIFFICULTY:Easy;
#METER:5;
#RADARVALUES:0.385396,0.436635,0.431644,0.194240,0.000000,250.000000,210.000000,40.000000,18.000000,0.000000,0.000000,0.000000,0.000000,0.000000,0.385396,0.436635,0.431644,0.194240,0.000000,250.000000,210.000000,40.000000,18.000000,0.000000,0.000000,0.000000,0.000000,0.000000;
#CREDIT:Riakodoadm;
#NOTES:
// measure 0
00000000
00000000
00000000
00000000
,  // measure 1
00000000
00000000
00000000
00000000
,  // measure 2
00000001
00000001
00000100
00000100
,  // measure 3
00000010
00000010
00010000
00010000
,  // measure 4
00001000
00001000
00100000
00100000
,  // measure 5
01000000
01000000
00000000
00000000
,  // measure 6
10000000
10000000
00100000
00100000
,  // measure 7
01000000
01000000
00001000
00001000
,  // measure 8
00010000
00010000
00000100
00000100
,  // measure 9
00000020
00000230
00002300
00003002
,  // measure 10
00000103
00000100
00000010
00000010
,  // measure 11
00010000
00010000
00001000
00001000
,  // measure 12
00100000
00100000
01000000
01000000
,  // measure 13
02200000
00000000
00000000
03300000
,  // measure 14
10000000
01000000
00010000
01000000
,  // measure 15
10000000
00100000
00010000
00100000
,  // measure 16
10000000
01000000
00010000
00001000
,  // measure 17
00010000
00001000
00000100
00000001
,  // measure 18
00001000
00000100
00000001
00000100
,  // measure 19
00001000
00000010
00000001
00000010
,  // measure 20
00001000
00000100
00010000
00000100
,  // measure 21
00001000
00000010
00000220
00000330
,  // measure 22
00000001
00000100
00001000
00000100
,  // measure 23
00000001
00000010
00001000
00000010
,  // measure 24
00000100
00010000
00001000
01000000
,  // measure 25
00001000
00010000
00000010
00010000
,  // measure 26
00001000
00100000
01000000
10000000
,  // measure 27
00010000
01000000
00100000
10000000
,  // measure 28
00100000
01000000
00001000
00010000
,  // measure 29
00022000
00033000
02002000
03003000
,  // measure 30
00010100
00000010
00000100
00000010
,  // measure 31
00001100
00000010
00000001
00000010
,  // measure 32
00000110
00000000
00011000
00000000
,  // measure 33
01100000
00000000
00011000
00000000
,  // measure 34
00001000
00100000
00010000
01000000
,  // measure 35
00100000
10000000
00100000
01000000
,  // measure 36
00010000
00100000
01000000
10000000
,  // measure 37
00010000
00110000
10000000
10100000
,  // measure 38
01010000
00100000
01000000
00100000
,  // measure 39
01010000
00100000
10000000
00100000
,  // measure 40
01100000
00000000
00011000
00000000
,  // measure 41
00000110
00000000
00011000
00000000
,  // measure 42
00010010
00000010
00010000
00001000
,  // measure 43
00101000
00100000
00001000
00010000
,  // measure 44
00010100
00000100
00000010
00000001
,  // measure 45
00002002
00000000
00000000
00003003
,  // measure 46
00000101
00000000
00000101
00000000
,  // measure 47
00000100
00001000
00010000
01000000
,  // measure 48
11000000
00000000
11000000
00000000
,  // measure 49
01000000
00100000
00010000
10000000
,  // measure 50
10100000
00000000
10100000
00000000
,  // measure 51
00100000
00010000
00001000
00000010
,  // measure 52
00000011
00000000
00000011
00000000
,  // measure 53
00002002
00000000
00000000
00003003
,  // measure 54
00001010
00000001
00001010
00000001
,  // measure 55
00000100
00001000
00010000
01000000
,  // measure 56
01100000
00010000
01100000
00010000
,  // measure 57
10000000
00100000
01000000
00010000
,  // measure 58
01010000
10000000
01010000
10000000
,  // measure 59
01000000
00010000
00001000
00000100
,  // measure 60
00000110
00000001
00000110
00000001
,  // measure 61
00000000
00000100
00001000
00010000
,  // measure 62
00022000
00033000
00000000
00000000
;
