#VERSION:0.83;
#TITLE:White Dust;
#SUBTITLE:;
#ARTIST:Download;
#TITLETRANSLIT:;
#SUBTITLETRANSLIT:;
#ARTISTTRANSLIT:;
#GENRE:HAPPY HARDCORE;
#ORIGIN:;
#CREDIT:Vinyl single (2000);
#BANNER:White Dust.png;
#BACKGROUND:White Dust-bg.png;
#PREVIEWVID:;
#JACKET:White Dust-jacket.png;
#CDIMAGE:;
#DISCIMAGE:;
#LYRICSPATH:;
#CDTITLE:;
#MUSIC:White Dust.ogg;
#OFFSET:-2.885000;
#SAMPLESTART:11.539000;
#SAMPLELENGTH:15.000000;
#SELECTABLE:YES;
#BPMS:0.000=166.400;
#STOPS:;
#DELAYS:;
#WARPS:;
#TIMESIGNATURES:0.000=4=4;
#TICKCOUNTS:0.000=4;
#COMBOS:0.000=1;
#SPEEDS:0.000=1.000=0.000=0;
#SCROLLS:0.000=1.000;
#FAKES:;
#LABELS:0.000=Song Start;
#BGCHANGES:;
#KEYSOUNDS:;
#ATTACKS:
;

//---------------dance-single - ----------------
#NOTEDATA:;
#CHARTNAME:Expert;
#STEPSTYPE:dance-single;
#DESCRIPTION:;
#CHARTSTYLE:;
#DIFFICULTY:Hard;
#METER:12;
#RADARVALUES:0.559594,0.710268,0.256615,0.407566,0.079249,519.000000,485.000000,34.000000,54.000000,0.000000,0.000000,0.000000,0.000000,0.000000,0.559594,0.710268,0.256615,0.407566,0.079249,519.000000,485.000000,34.000000,54.000000,0.000000,0.000000,0.000000,0.000000,0.000000;
#CREDIT:Riakodoadm;
#NOTES:
// measure 0
0000
0000
0000
0000
,  // measure 1
0000
0000
0000
0000
,  // measure 2
1000
0100
0000
1000
0000
0010
0010
0010
,  // measure 3
0000
0000
0000
0000
,  // measure 4
0001
0100
0001
0100
0000
0010
0010
0100
,  // measure 5
0000
0001
0000
1000
0000
0001
0000
0000
,  // measure 6
1000
0100
1000
0001
0000
0010
0001
0200
,  // measure 7
0000
0010
0000
0001
0000
0310
0000
0100
,  // measure 8
0001
0010
0001
0100
0000
0010
1000
0002
,  // measure 9
0000
1000
0000
0010
0000
1003
0000
0100
,  // measure 10
0010
0001
1000
0001
0000
0100
0001
0020
,  // measure 11
0000
0100
0000
0001
0000
0130
0000
1000
,  // measure 12
0100
0001
0100
1000
0000
0010
1000
0200
,  // measure 13
0000
0000
0001
0000
0000
0000
0010
0000
0000
1300
0000
0000
0100
0000
1000
0000
,  // measure 14
0001
0100
0001
1000
0000
0010
1000
0200
,  // measure 15
0000
0010
0000
1000
0000
0310
0000
0100
,  // measure 16
1000
0010
1000
0100
0000
0010
0001
2000
,  // measure 17
0000
0001
0000
0010
0000
3001
0000
0100
,  // measure 18
0010
1000
0001
1000
0000
0100
1000
0020
,  // measure 19
0000
0100
0000
1000
0000
0130
0000
0001
,  // measure 20
0100
1000
0100
0001
0000
0010
0001
0200
,  // measure 21
0000
1000
0000
0010
0000
0301
0100
0001
,  // measure 22
1000
0000
0100
0010
0000
0011
0000
0101
,  // measure 23
0000
0001
0000
1100
0000
0100
0000
1000
,  // measure 24
0001
0000
0010
1000
0000
1100
0000
0101
,  // measure 25
0000
0001
0000
1100
0000
1000
0000
0010
,  // measure 26
0100
0000
0001
0010
0000
0110
0000
1100
,  // measure 27
0000
1000
0000
0101
0000
0001
0000
1000
,  // measure 28
0100
0000
1000
0010
0000
0011
0000
0101
,  // measure 29
0000
0001
0000
1100
0000
0100
0000
1000
,  // measure 30
0001
0000
0100
0010
0000
1010
0000
1100
,  // measure 31
0000
1000
0000
0101
0000
0100
0000
0001
,  // measure 32
1000
0000
0010
0001
0000
0101
0000
1100
,  // measure 33
0000
1000
0000
0101
0000
0001
0000
0010
,  // measure 34
0100
0000
1000
0010
0000
0110
0000
0101
,  // measure 35
0000
0001
0000
1100
0000
1000
0000
0001
,  // measure 36
0100
0000
0001
0010
0000
1010
0000
1100
,  // measure 37
0000
0100
0000
0101
0000
0001
0000
0010
,  // measure 38
0200
0000
2300
0000
,  // measure 39
3002
0000
0000
0000
,  // measure 40
0203
0000
0302
0000
,  // measure 41
2003
0000
0000
0000
,  // measure 42
3200
0000
2300
0000
,  // measure 43
3020
0000
0000
0000
,  // measure 44
0230
0000
0302
0000
,  // measure 45
0023
0000
0000
0000
,  // measure 46
0032
0100
0000
0103
0020
1000
1000
1030
,  // measure 47
0200
0010
0000
1300
2000
0010
0000
0000
,  // measure 48
3002
0010
0000
0013
0200
1000
1000
1300
,  // measure 49
0020
0001
0000
1030
0200
0010
0000
0000
,  // measure 50
2300
0100
0000
3100
0020
0001
0001
0031
,  // measure 51
0200
0010
0000
0301
0002
0010
0000
0000
,  // measure 52
2003
0010
0000
3010
0200
0001
0001
0301
,  // measure 53
0020
1000
0000
0031
0200
0010
0000
0300
,  // measure 54
0110
0100
0001
1000
0000
0010
1000
0100
,  // measure 55
0110
0010
0001
0100
0000
0010
1000
0100
,  // measure 56
1100
1000
0010
0001
0000
0001
0010
0100
,  // measure 57
0101
0001
0010
1000
0000
0001
0100
1000
,  // measure 58
1100
0100
0000
0010
0011
0001
0000
0100
,  // measure 59
0110
0010
0000
1000
1001
0001
0000
0010
,  // measure 60
0001
0100
1000
0100
0001
0100
0010
0100
,  // measure 61
1000
0100
0001
1000
0000
0100
0010
0001
,  // measure 62
1000
0010
1000
0100
1000
0001
0100
0020
,  // measure 63
0000
0000
0001
0000
0000
0000
0100
0000
0000
0000
1030
0000
0100
0000
1000
0001
,  // measure 64
0100
0010
1000
0001
0010
0100
0010
0002
,  // measure 65
0000
0000
0100
0000
0000
0000
1000
0000
0000
0010
0003
0000
0010
0000
0100
0000
,  // measure 66
0010
1000
0010
0001
1000
0010
1000
0200
,  // measure 67
0000
0000
0010
0000
0000
0000
0001
0000
0000
0000
1300
0000
0100
0000
1000
0010
,  // measure 68
0100
0001
0100
0010
1000
0100
0010
0002
,  // measure 69
0000
0000
0100
0000
0000
0000
0010
0000
0000
1003
0000
0000
0100
0000
1000
0000
,  // measure 70
0001
0010
0001
0100
0001
1000
0100
0010
,  // measure 71
0001
0010
0001
0000
1000
0001
1000
0000
0010
1000
0010
0000
0100
0001
1000
0000
,  // measure 72
0100
0010
0001
1000
0010
0100
0010
1000
,  // measure 73
0100
1000
0100
0000
0010
0001
0010
0000
0001
1000
0001
0000
1000
0001
0100
0000
,  // measure 74
0010
0001
0010
1000
0001
0010
0001
0100
,  // measure 75
0010
1000
0010
0000
1000
0100
1000
0000
0001
0010
0001
0000
0100
0001
0010
0000
,  // measure 76
0100
1000
0100
0010
0001
0100
0010
1000
,  // measure 77
0100
1000
0100
0000
1000
0001
1000
0000
0001
0010
0001
0000
0100
0010
0100
0000
,  // measure 78
0002
0010
0000
1003
0200
1000
1000
1300
,  // measure 79
0020
0100
0000
0001
0000
1000
0000
0000
,  // measure 80
2030
0010
0000
3001
0200
0001
0001
0301
,  // measure 81
0020
0100
0000
1000
0000
0001
0000
0000
,  // measure 82
0032
1000
0000
1000
0203
0001
0001
0001
,  // measure 83
0320
1000
0000
0001
0000
1000
0000
0000
,  // measure 84
2030
0001
0000
0001
3200
1000
1000
1000
,  // measure 85
0320
0001
0000
1000
0000
0001
0030
0000
,  // measure 86
0110
0010
1000
1000
,  // measure 87
0100
0000
0100
0000
0001
0000
0001
0010
,  // measure 88
1000
1000
0100
0100
,  // measure 89
2002
0000
0000
0000
0000
3003
0000
0000
;

//---------------dance-single - ----------------
#NOTEDATA:;
#CHARTNAME:Basic;
#STEPSTYPE:dance-single;
#DESCRIPTION:;
#CHARTSTYLE:;
#DIFFICULTY:Easy;
#METER:3;
#RADARVALUES:0.228582,0.470210,0.113213,0.150950,0.000000,212.000000,197.000000,15.000000,20.000000,0.000000,0.000000,0.000000,0.000000,0.000000,0.228582,0.470210,0.113213,0.150950,0.000000,212.000000,197.000000,15.000000,20.000000,0.000000,0.000000,0.000000,0.000000,0.000000;
#CREDIT:Riakodoadm;
#NOTES:
0000
0000
0000
0000
,
0000
0000
0000
0000
,
0000
0000
0000
0000
,
0000
0000
0000
0000
,
0000
0000
0000
0000
,
0000
0000
0000
0000
,
1000
0100
0010
0001
,
0000
1000
0000
0000
,
0001
0100
0010
1000
,
0000
0001
0000
0000
,
1000
0010
0100
0001
,
0000
1000
0000
0000
,
0001
0010
0100
1000
,
0000
0001
0000
0000
,
1000
0100
0001
0010
,
0000
0010
0000
0000
,
1000
0010
0001
0100
,
0000
1000
0000
0000
,
0001
0100
1000
0010
,
0000
0010
0000
0000
,
0001
0010
1000
0100
,
0000
0001
0000
0000
,
1000
0000
0010
1000
,
0100
0000
0100
0000
,
1000
0000
0100
1000
,
0010
0000
0010
0000
,
0001
0000
0010
0001
,
0100
0000
0100
0000
,
0001
0000
0100
0001
,
0010
0000
0010
0000
,
1000
0000
0010
1000
,
0100
0000
0100
0000
,
1000
0000
0100
1000
,
0010
0000
0010
0000
,
0001
0000
0010
0001
,
0100
0000
0100
0000
,
0001
0000
0100
0001
,
0010
0000
0010
0000
,
1000
0000
1000
0000
,
2000
0000
3000
0000
,
0100
0000
0100
0000
,
0200
0000
0300
0000
,
0001
0000
0001
0000
,
0002
0000
0003
0000
,
0010
0000
0010
0000
,
0020
0000
0030
0000
,
0001
0000
0001
0000
,
0002
0000
0003
0000
,
0100
0000
0100
0000
,
0200
0000
0300
0000
,
1000
0000
1000
0000
,
2000
0000
3000
0000
,
0010
0000
0010
0000
,
0020
0000
0030
0000
,
0110
0000
0000
0000
,
1001
0000
0000
0000
,
0110
0000
0000
0000
,
1001
0000
0000
0000
,
0110
0000
1001
0000
,
0110
0000
1001
0000
,
0110
0110
1001
1001
,
0110
0000
0000
0000
,
1000
0100
0010
0001
,
0100
0100
0100
0000
,
0001
0010
0100
1000
,
0010
0010
0010
0000
,
1000
0010
0100
0001
,
0010
0010
0010
0000
,
0001
0100
0010
1000
,
0100
0100
0100
0000
,
1000
0100
0001
0010
,
1000
0000
0100
1000
,
0001
0100
1000
0010
,
0001
0000
0100
0001
,
0010
1000
0100
0001
,
0010
0000
0100
1000
,
0010
1000
0100
0001
,
0010
0000
1000
0001
,
2000
0000
3002
0000
,
2003
0000
0010
0000
,
3002
0000
2003
0000
,
3002
0000
0010
0000
,
2003
0000
3200
0000
,
2300
0000
0010
0000
,
3002
0000
0203
0000
,
0302
0000
0010
0003
,
1001
1000
0000
0100
,
0000
0010
0000
0001
,
0000
0100
0000
0010
,
0110
0000
0000
0000
;

//---------------dance-single - ----------------
#NOTEDATA:;
#CHARTNAME:Difficult;
#STEPSTYPE:dance-single;
#DESCRIPTION:;
#CHARTSTYLE:;
#DIFFICULTY:Medium;
#METER:8;
#RADARVALUES:0.405409,0.541157,0.166045,0.166045,0.000000,376.000000,354.000000,22.000000,22.000000,0.000000,0.000000,0.000000,0.000000,0.000000,0.405409,0.541157,0.166045,0.166045,0.000000,376.000000,354.000000,22.000000,22.000000,0.000000,0.000000,0.000000,0.000000,0.000000;
#CREDIT:Riakodoadm;
#NOTES:
0000
0000
0000
0000
,
0000
0000
0000
0000
,
0000
0000
0000
0000
,
0000
0000
0000
0000
,
0000
0000
0000
0000
,
0000
0000
0000
0000
,
1000
0100
0000
0010
0000
0100
1000
0010
,
0000
0100
0000
0001
0000
0100
0000
0000
,
0001
0100
0000
1000
0000
0100
0010
1000
,
0000
0001
0000
0010
0000
0001
0000
0000
,
1000
0100
0000
0001
0000
0010
1000
0010
,
0000
1000
0000
0100
0000
1000
0000
0000
,
0010
0100
0000
0001
0000
0010
0001
0100
,
0000
1000
0000
0010
0000
0001
0000
0100
,
0001
0100
0000
0010
0000
0100
0001
0010
,
0000
0100
0000
1000
0000
0100
0000
0000
,
1000
0100
0000
0001
0000
0100
0010
0001
,
0000
1000
0000
0010
0000
1000
0000
0000
,
0001
0100
0000
1000
0000
0010
0001
0010
,
0000
0001
0000
0100
0000
0001
0000
0000
,
0010
0100
0000
1000
0000
0010
1000
0100
,
0000
0001
0000
0010
0000
1000
0000
0100
,
1000
0000
1000
0001
0000
0100
0000
0101
,
0000
0000
0000
0011
0000
0000
0000
0000
,
0001
0000
0001
0010
0000
0100
0000
0110
,
0000
0000
0000
1100
0000
0000
0000
0000
,
1000
0000
1000
0010
0000
0001
0000
0011
,
0000
0000
0000
0101
0000
0000
0000
0000
,
0100
0000
0100
1000
0000
0010
0000
0110
,
0000
0000
0000
0101
0000
0000
0000
0000
,
0001
0000
0001
1000
0000
0100
0000
1100
,
0000
0000
0000
1010
0000
0000
0000
0000
,
1000
0000
1000
0010
0000
0100
0000
0110
,
0000
0000
0000
0101
0000
0000
0000
0000
,
0001
0000
0001
0010
0000
1000
0000
1010
,
0000
0000
0000
1100
0000
0000
0000
0000
,
0100
0000
0100
0001
0000
0010
0000
0110
,
0000
0000
0000
1100
0000
0000
0000
0000
,
0200
0000
2300
0000
,
3002
0000
0000
0000
,
0203
0000
0302
0000
,
2003
0000
0000
0000
,
3200
0000
2300
0000
,
3020
0000
0000
0000
,
0230
0000
0302
0000
,
0023
0000
0000
0000
,
0031
0010
0000
1000
0000
0100
0001
0100
,
0000
0001
0000
0001
0000
0001
0000
0000
,
1000
0100
0000
0001
0000
0010
1000
0010
,
0000
1000
0000
1000
0000
1000
0000
0000
,
0001
0100
0000
1000
0000
0010
0001
0010
,
0000
0001
0000
0001
0000
0001
0000
0000
,
1000
0010
0000
0001
0000
0100
1000
0100
,
0000
1000
0000
1000
0000
1000
0000
0000
,
1001
0001
0000
0100
0000
0010
1000
0001
,
1001
1000
0000
0100
0000
0010
0001
1000
,
1001
0001
0000
0010
0000
0100
1000
0001
,
1001
1000
0000
0010
0000
0100
0001
1000
,
0100
0100
0000
0100
0001
0001
0000
0001
,
0010
0010
0000
0010
1000
1000
0000
1000
,
0001
0100
1000
0100
0001
0100
1000
0100
,
0001
0001
0000
0010
0000
0100
1000
0000
,
0001
0010
0001
0100
0000
0010
1000
0100
,
0000
1000
0000
0010
0000
0100
0000
0000
,
0001
0100
1000
0100
0000
0010
1000
0001
,
0000
0010
0000
1000
0000
0100
0000
0000
,
0001
0100
0010
1000
0000
0100
1000
0010
,
0000
0100
0000
1000
0000
0100
0000
0000
,
0001
0010
0100
1000
0000
0010
0001
0010
,
0000
1000
0000
0001
0000
0010
0000
0001
,
1000
0010
1000
0100
0000
0010
0001
0100
,
0000
0001
0000
0010
0000
0100
0000
0000
,
1000
0100
0001
0100
0000
0010
0001
1000
,
0000
0010
0000
0001
0000
0100
0000
0000
,
1000
0100
0010
0001
0000
0100
0001
0010
,
0000
0100
0000
0001
0000
0100
0000
0000
,
1000
0010
0100
0001
0000
0010
1000
0010
,
0000
0001
0000
1000
0000
0010
0000
0000
,
2000
0010
0000
0100
0000
3010
0100
0001
,
2000
0100
0000
0001
0000
0010
0000
0000
,
3002
0100
0000
0010
0000
0103
0010
1000
,
0002
0010
0000
1000
0000
0100
0000
0000
,
2003
0100
0000
0010
0000
3100
0010
0001
,
2000
0010
0000
0001
0000
0100
0000
0000
,
3002
0010
0000
0100
0000
0013
0100
1000
,
0002
0100
0000
1000
0000
0010
0000
0003
,
0110
0010
0001
0001
,
0100
0000
0100
0000
1000
0000
1000
0010
,
0001
0001
0100
0100
,
2002
0000
0000
0000
0000
3003
0000
0000
;

//---------------dance-single - ----------------
#NOTEDATA:;
#CHARTNAME:Beginner;
#STEPSTYPE:dance-single;
#DESCRIPTION:;
#CHARTSTYLE:;
#DIFFICULTY:Beginner;
#METER:2;
#RADARVALUES:0.148794,0.335864,0.075475,0.090570,0.000000,138.000000,128.000000,10.000000,12.000000,0.000000,0.000000,0.000000,0.000000,0.000000,0.148794,0.335864,0.075475,0.090570,0.000000,138.000000,128.000000,10.000000,12.000000,0.000000,0.000000,0.000000,0.000000,0.000000;
#CREDIT:Riakodoadm;
#NOTES:
0000
0000
0000
0000
,
0000
0000
0000
0000
,
0000
0000
0000
0000
,
0000
0000
0000
0000
,
0000
0000
0000
0000
,
0000
0000
0000
0000
,
1000
0000
1000
1000
,
0000
0000
0000
0000
,
0001
0000
0001
0001
,
0000
0000
0000
0000
,
1000
0000
0100
0100
,
0000
0000
0000
0000
,
0001
0000
0100
0100
,
0000
0000
0000
0000
,
1000
0000
0010
0010
,
0000
0000
0000
0000
,
0001
0000
0010
0010
,
0000
0000
0000
0000
,
1000
0000
0100
1000
,
0000
0000
0000
0000
,
0001
0000
0100
0001
,
0000
0000
0000
0000
,
1000
0000
1000
0000
,
0010
0000
0000
0000
,
0001
0000
0001
0000
,
0010
0000
0000
0000
,
1000
0000
1000
0000
,
0100
0000
0000
0000
,
0001
0000
0001
0000
,
0100
0000
0000
0000
,
1000
0000
0100
0000
,
1000
0000
0000
0000
,
0001
0000
0100
0000
,
0001
0000
0000
0000
,
1000
0000
0010
0000
,
1000
0000
0000
0000
,
0001
0000
0010
0000
,
0001
0000
0000
0000
,
2000
0000
0000
0000
,
3000
0000
0000
0000
,
0200
0000
0000
0000
,
0300
0000
0000
0000
,
0002
0000
0000
0000
,
0003
0000
0000
0000
,
0020
0000
0000
0000
,
0030
0000
0000
0000
,
0002
0000
0000
0000
,
0003
0000
0000
0000
,
0200
0000
0000
0000
,
0300
0000
0000
0000
,
2000
0000
0000
0000
,
3000
0000
0000
0000
,
0020
0000
0000
0000
,
0030
0000
0000
0000
,
1001
0000
0000
0000
,
1001
0000
0000
0000
,
1001
0000
0000
0000
,
1001
0000
0000
0000
,
1001
0000
1001
0000
,
1001
0000
1001
0000
,
1000
0001
1000
0001
,
1001
0000
0000
0000
,
1000
0000
0010
0100
,
0010
0000
0010
0000
,
1000
0000
0001
0100
,
0001
0000
0001
0000
,
0010
0000
0100
1000
,
0100
0000
0100
0000
,
1000
0000
0010
1000
,
0010
0000
1000
0000
,
0001
0000
0100
0010
,
0100
0000
0100
0000
,
0001
0000
1000
0010
,
1000
0000
1000
0000
,
0100
0000
0010
0001
,
0010
0000
0010
0000
,
0001
0000
0100
0001
,
0100
0000
0001
0000
,
1000
0000
1000
0000
,
2000
0000
3000
0000
,
0001
0000
0001
0000
,
0002
0000
0003
0000
,
0100
0000
0100
0000
,
0200
0000
0300
0000
,
0010
0000
0010
0000
,
0020
0000
0030
0000
,
0000
1000
0000
1000
,
0000
0001
0000
0001
,
0000
0100
0000
0100
,
0110
0000
0000
0000
;
