#TITLE:WALK ON WATER;
#SUBTITLE:(H20 RADIO MIX);
#ARTIST:MILK INC.;
#TITLETRANSLIT:;
#SUBTITLETRANSLIT:;
#ARTISTTRANSLIT:;
#GENRE:TRANCE;
#CREDIT:Land of the Living (2000);
#BANNER:WALK ON WATER (H20 RADIO MIX).png;
#BACKGROUND:WALK ON WATER (H20 RADIO MIX)-bg.png;
#LYRICSPATH:;
#CDTITLE:;
#MUSIC:WALK ON WATER (H20 RADIO MIX).ogg;
#OFFSET:-3.830000;
#SAMPLESTART:21.277000;
#SAMPLELENGTH:15.000000;
#SELECTABLE:YES;
#BPMS:0.000000=141.000000
;
#STOPS:
;
#BGCHANGES:;
#KEYSOUNDS:;
#ATTACKS:;

//---------------dance-single - ----------------
#NOTES:
     dance-single:
     Riakodoadm:
     Hard:
     12:
     0.516279,0.555633,0.186768,0.121399,0.588318,354.000000,20.000000,13.000000,0.000000,0.000000,0.000000,0.516279,0.555633,0.186768,0.121399,0.588318,354.000000,20.000000,13.000000,0.000000,0.000000,0.000000:
0000
0000
0000
0000
,
0000
0000
0000
0000
,
1000
0100
0010
0002
0000
0000
0000
0000
,
2003
0000
0000
0000
0000
3010
0100
0001
,
0000
0010
0100
2000
0000
0000
0000
0000
,
3002
0000
0000
0000
0000
0000
0000
0000
1003
0000
0000
0010
0100
0000
0010
0100
,
0000
0000
0000
0100
0000
0000
0100
0000
0000
0000
0000
0000
0000
0000
0000
0000
,
0000
0000
0000
0001
0000
0000
0002
0000
0010
0000
0000
0000
1000
0000
0000
0000
,
0010
0000
0000
1003
0000
0000
2000
0000
0100
0000
0000
0000
0001
0000
0000
0000
,
0100
0000
0000
3001
0000
0000
0002
0000
0100
0000
0000
0000
1000
0000
0000
0000
,
0103
0000
1000
0010
0100
1001
0000
0000
,
1000
0100
0000
0000
1000
0000
0000
1000
0000
0100
0000
0000
1000
0000
0000
0001
,
0000
0100
0000
0000
0001
0000
0000
0001
0000
0100
0000
0000
0001
0000
0000
1000
,
0000
0100
0000
0000
0010
0000
0000
0010
0000
0100
0000
0000
1000
0000
0000
0001
,
0000
0100
0000
0000
0010
0000
0000
0010
0000
0100
0000
0000
0001
0000
0000
1000
,
0000
0100
0000
0000
0010
0000
0000
0001
0000
0100
0000
0000
0010
0000
0000
0100
,
0000
0001
0000
0000
0010
0000
0000
1000
0000
0010
0000
0000
0001
0000
0000
0001
,
0000
0100
0000
0000
0010
0000
0000
1000
0000
0100
0000
0000
0010
0000
0000
0100
,
0000
1000
0000
0000
0010
0000
0000
0001
0000
0010
0000
0000
1000
0000
0000
0000
,
1001
0000
0000
0100
0000
0000
1000
0000
0000
0010
0000
0000
0001
0000
0000
0000
,
0010
0000
0000
0001
0000
0000
1000
0000
0000
0100
0000
0000
0010
0000
0000
0000
,
1001
0000
0000
0010
0000
0000
0001
0000
0000
0100
0000
0000
1000
0000
0000
0000
,
0010
0000
0000
1000
0000
0000
0100
0000
0000
0010
0001
0000
1000
0001
1000
0000
,
1001
0000
0000
0010
0000
0000
1000
0000
0000
0100
0000
0000
0001
0000
0000
0000
,
0100
0000
0000
1000
0000
0000
0100
0000
0000
0001
0000
0000
0010
0000
0000
0000
,
1001
0000
0000
0100
0000
0000
0001
0000
0000
0010
0000
0000
1000
0000
0000
0000
,
0100
0000
0000
0001
0000
0000
0100
0000
0000
1000
0010
0000
1000
0001
1000
0000
,
0010
1000
0001
0100
0000
0101
0000
0100
,
0001
0010
0100
1000
0000
1100
0000
0100
,
0010
0001
1000
0100
0000
0110
0000
0010
,
0001
1000
0001
0100
0000
1010
0000
0100
,
0010
1000
0100
0010
0000
0011
0000
0001
,
0100
0001
1000
0010
0000
1010
0000
0100
,
1000
0000
0001
0011
0000
1100
0000
1001
,
1000
0000
0001
1000
0000
0100
0010
0000
0002
0000
0000
0000
1003
0000
0000
0000
,
1000
0000
0000
1000
0000
0000
2000
0000
0010
0000
0010
0000
0000
0000
0100
0000
,
0000
0000
0010
0000
0000
0000
0001
0000
0000
0000
3100
0000
0000
1000
0000
0000
,
0001
0000
0000
0001
0000
0000
0002
0000
0000
0000
0100
0000
0000
0000
1000
0000
,
0000
0000
0010
0000
0000
0000
0100
0000
0000
0000
0013
0000
0000
0001
0000
0000
,
1000
0000
0100
1000
0000
1001
0000
0201
,
0000
0000
0000
0000
0010
0000
0310
0000
0000
0000
0010
0000
0000
1000
0000
0000
,
0001
0000
0100
0001
0000
1001
0000
2100
,
0000
0000
3001
0100
0010
1001
0000
0000
,
1000
0100
0000
0000
0010
0000
0000
0100
0000
0010
0000
0000
0001
0000
0000
0100
,
0000
1000
0000
0000
0100
0000
0000
0001
0000
0010
0000
0000
0100
0000
1000
0001
,
0000
0100
0000
0000
0010
0000
0000
0100
0000
0010
0000
0000
1000
0000
0000
0100
,
0000
0001
0000
0000
0100
0000
0000
1000
0000
0010
0000
0000
0100
0000
0001
1000
,
0001
0100
0010
1000
0010
0100
0001
1000
,
0100
0010
0001
0010
0100
1000
0010
0100
,
0001
0010
0100
0010
0001
0100
0010
1000
,
0100
0000
1000
0100
0010
1001
0000
0000
,
1000
0010
0000
1000
0010
0000
0100
0001
0000
0010
0000
0001
0010
0000
0100
1000
,
0000
0001
0000
0100
0010
0000
1000
0010
0000
0100
0000
0001
0010
0000
0010
0001
,
0000
0010
0000
0001
0010
0000
0100
1000
0000
0010
0000
1000
0010
0000
0100
0001
,
0000
1000
0000
0100
0010
0000
0001
0010
0000
0100
0000
1000
0010
0000
0010
1000
,
0000
0100
0000
0010
0001
0000
0010
0100
0000
1000
0000
0010
1000
0000
0010
0100
,
0000
0001
0000
0100
0001
0000
1000
0010
0000
0100
0000
0001
0100
0000
0100
0001
,
0000
0100
0000
0010
1000
0000
0010
0100
0000
0001
0000
0010
0001
0000
0010
0100
,
0000
1000
0000
0100
1000
0000
0001
0010
0000
0100
0000
1000
0100
0000
1000
0002
,
0000
0000
0003
0000
;

//---------------dance-single - ----------------
#NOTES:
     dance-single:
     Riakodoadm:
     Medium:
     8:
     0.404218,0.416725,0.177429,0.308166,0.102722,251.000000,19.000000,33.000000,0.000000,0.000000,0.000000,0.404218,0.416725,0.177429,0.308166,0.102722,251.000000,19.000000,33.000000,0.000000,0.000000,0.000000:
// measure 0
0000
0000
0000
0000
,  // measure 1
0000
0000
0000
0000
,  // measure 2
2002
0000
0000
0000
0000
0000
0000
3003
,  // measure 3
2200
0000
0000
0000
0000
0000
0000
3300
,  // measure 4
0022
0000
0000
0000
0000
0000
0000
0033
,  // measure 5
0202
0000
0000
0000
0000
0000
0000
0303
,  // measure 6
1001
0000
0000
0000
,  // measure 7
1000
0010
0100
0001
,  // measure 8
1000
0100
0010
0001
,  // measure 9
0001
0010
0100
1000
,  // measure 10
0001
0000
0100
0010
1000
1000
0000
1001
,  // measure 11
0000
0110
0000
0000
0000
0001
0010
0001
,  // measure 12
1000
0100
0000
0000
0001
0001
0000
1001
,  // measure 13
0000
0110
0000
0000
0000
1000
0010
1000
,  // measure 14
0000
0001
0000
0000
1001
0000
1000
2000
,  // measure 15
0000
3100
0000
0000
1001
0000
0001
0002
,  // measure 16
0000
0103
0000
0000
1000
1000
0000
0002
,  // measure 17
0000
0013
0000
0001
0001
0000
1000
0020
,  // measure 18
0000
0030
0000
0000
,  // measure 19
1000
0100
1000
0100
0000
0010
0000
0001
,  // measure 20
0000
1000
0000
0001
0000
0100
0001
0010
,  // measure 21
0000
0100
0000
1000
0000
0010
0000
0100
,  // measure 22
0000
0001
0000
0010
0000
0001
0000
1000
,  // measure 23
0001
0100
0001
0100
0000
0010
0000
1000
,  // measure 24
0000
0001
0000
1000
0000
0100
1000
0010
,  // measure 25
0000
0100
0000
0001
0000
0010
0000
1000
,  // measure 26
0000
0100
0000
0001
0000
0010
0000
0100
,  // measure 27
1000
0100
2000
0000
0010
0000
3010
0000
,  // measure 28
0001
0100
0002
0000
1000
0000
1003
0000
,  // measure 29
0010
1000
0100
0000
0010
0001
0100
0000
,  // measure 30
0010
0100
0010
0200
0000
0000
0300
0000
,  // measure 31
0001
0010
0002
0000
0100
0000
0103
0000
,  // measure 32
1000
0010
2000
0000
0001
0000
3001
0000
,  // measure 33
0100
0001
0000
2000
0000
3001
0000
2002
,  // measure 34
0000
3003
0000
0000
,  // measure 35
2000
0000
0000
0000
0000
0000
3100
0000
0000
0000
0100
0000
0000
0010
0000
0000
,  // measure 36
0002
0000
0000
0000
0000
0000
0103
0000
0000
0000
0100
0000
0000
0010
0000
0000
,  // measure 37
2000
0000
0000
0000
0000
0000
3001
0000
0000
0000
0100
0000
0000
0010
0000
0000
,  // measure 38
0200
0000
0000
0000
0000
0000
0310
0000
0000
0000
0010
0000
0000
0100
0000
0000
,  // measure 39
0002
0000
0000
0000
0000
0000
1003
0000
0000
0000
0100
0000
0000
0010
0000
0000
,  // measure 40
0200
0000
0000
0000
0000
0000
0310
0000
0000
0000
0010
0000
0000
0100
0000
0000
,  // measure 41
1000
0000
0010
0100
0000
0001
0000
2001
,  // measure 42
0000
0000
3100
0010
0001
0001
0000
1002
,  // measure 43
0000
0203
0000
0310
0000
1000
0100
0001
,  // measure 44
0100
1000
0000
0000
1000
1000
0000
2001
,  // measure 45
0000
3200
0000
0310
0000
0001
0100
1000
,  // measure 46
0100
0001
1000
0000
0010
1000
0001
0000
,  // measure 47
1000
0101
0010
1100
,  // measure 48
0001
1010
0100
0011
,  // measure 49
1000
0100
0010
0001
0010
0100
1000
0001
,  // measure 50
0000
0000
1000
0100
0010
0002
0000
1003
,  // measure 51
0100
0000
1000
0000
0001
0000
0000
0010
0000
0001
0000
0000
0100
0000
0000
0000
,  // measure 52
0010
0000
1000
0000
0100
0000
0000
0010
0000
0001
0000
0000
0001
0000
0000
0000
,  // measure 53
0100
0000
0001
0000
1000
0000
0000
0010
0000
1000
0000
0000
0100
0000
0000
0000
,  // measure 54
0010
0000
0001
0000
0100
0000
0000
0010
0000
1000
0000
0000
1000
0000
0000
0000
,  // measure 55
0001
0000
0100
0000
0010
0000
0000
1000
0000
0100
0000
0000
0001
0000
0000
0000
,  // measure 56
0100
0000
0010
0000
0001
0000
0000
0010
0000
0100
0000
0000
1000
0000
0000
0000
,  // measure 57
1000
0000
0100
0000
0010
0000
0000
0001
0000
0100
0000
0000
1000
0000
0000
0000
,  // measure 58
0100
0000
0010
0000
1000
0000
0000
0010
0000
0100
0000
0000
0001
0000
0000
0000
,  // measure 59
0200
0000
0300
0000
;

//---------------dance-single - ----------------
#NOTES:
     dance-single:
     Riakodoadm:
     Easy:
     3:
     0.238796,0.277817,0.149414,0.326843,0.000000,128.000000,16.000000,35.000000,0.000000,0.000000,0.000000,0.238796,0.277817,0.149414,0.326843,0.000000,128.000000,16.000000,35.000000,0.000000,0.000000,0.000000:
0000
0000
0000
0000
,
0000
0000
0000
0000
,
0002
0000
0000
0003
,
0200
0000
0000
0300
,
0020
0000
0000
0030
,
2000
0000
0000
3000
,
1000
0000
0000
0000
,
1000
0000
0010
0010
,
1000
0000
0010
0010
,
0001
0000
0100
0100
,
1000
0000
0100
0000
,
0002
1003
0000
0000
,
0002
1003
0000
0000
,
2000
3001
0000
0000
,
2000
3001
0000
0000
,
0002
0103
0000
0000
,
0002
0103
0000
0000
,
2000
3100
0000
0000
,
2000
3100
0000
0000
,
1000
0000
0010
0000
,
0001
0000
0100
0000
,
0010
0010
0010
0000
,
0001
0000
1000
0000
,
0001
0000
0010
0000
,
1000
0000
0100
0000
,
0010
0010
0010
0000
,
1000
0000
0001
0000
,
1000
1000
1000
0000
,
0001
0001
0001
0000
,
0010
0100
1000
0000
,
0010
0100
0001
0000
,
1000
0100
0001
0000
,
0001
0100
1000
0000
,
1000
0010
0001
0000
,
0010
0000
1000
0000
,
2002
0000
0003
0000
,
0100
0000
0100
3000
,
2002
0000
3000
0000
,
0100
0000
0100
0003
,
2000
0000
0100
0000
,
0010
3000
1001
0000
,
0002
0000
0100
0000
,
0010
0003
1001
0000
,
2001
3100
0000
0000
,
2001
3100
0000
0000
,
1002
0103
0000
0000
,
1002
0103
0000
0000
,
2001
3010
0000
0000
,
2001
3010
0000
0000
,
1002
0013
0000
0000
,
1002
0013
0000
0000
,
0002
0100
1003
0000
,
2000
0100
3001
0000
,
0002
0010
0103
0000
,
2000
0010
3100
0000
,
2001
0010
3001
0000
,
2001
0100
3010
0000
,
1002
0010
1003
0000
,
1002
0100
0013
0000
,
0200
0000
0300
0000
;

//---------------dance-single - ----------------
#NOTES:
     dance-single:
     Riakodoadm:
     Beginner:
     1:
     0.096052,0.110193,0.074707,0.074707,0.000000,56.000000,8.000000,8.000000,0.000000,0.000000,0.000000,0.096052,0.110193,0.074707,0.074707,0.000000,56.000000,8.000000,8.000000,0.000000,0.000000,0.000000:
0000
0000
0000
0000
,
0000
0000
0000
0000
,
1000
0000
0000
0000
,
0000
0000
0000
0000
,
0001
0000
0000
0000
,
0000
0000
0000
0000
,
1001
0000
0000
0000
,
1000
0000
0000
0000
,
0001
0000
0000
0000
,
1000
0000
0000
0000
,
0001
0000
0000
0000
,
0020
0000
0030
0000
,
0000
0000
0000
0000
,
0020
0000
0030
0000
,
0000
0000
0000
0000
,
1001
0000
0000
0000
,
0000
0000
0000
0000
,
1001
0000
0000
0000
,
0000
0000
0000
0000
,
1000
0000
1000
0000
,
0000
0000
0000
0000
,
0001
0000
0001
0000
,
0000
0000
0000
0000
,
0100
0000
0100
0000
,
0000
0000
0000
0000
,
0010
0000
0010
0000
,
0000
0000
0000
0000
,
1000
0000
0000
0000
,
0010
0000
0010
0000
,
0001
0000
0000
0000
,
0010
0000
0010
0000
,
1000
0000
0000
0000
,
0100
0000
0100
0000
,
1000
0000
0000
0000
,
0100
0000
0100
0000
,
0200
0000
0300
0000
,
0000
0000
0000
0000
,
0200
0000
0300
0000
,
0000
0000
0000
0000
,
0020
0000
0030
0000
,
0000
0000
0000
0000
,
0020
0000
0030
0000
,
0000
0000
0000
0000
,
1000
0000
1000
0000
,
1000
0000
0000
0000
,
0001
0000
0001
0000
,
0001
0000
0000
0000
,
2000
0000
3000
0000
,
0000
0000
0000
0000
,
0002
0000
0003
0000
,
0000
0000
0000
0000
,
1001
0000
0000
0000
,
0100
0000
0100
0000
,
1001
0000
0000
0000
,
0010
0000
0010
0000
,
1001
0000
0000
0000
,
1000
0000
0001
0000
,
1001
0000
0000
0000
,
0001
0000
1000
0000
,
1001
0000
0000
0000
;
