#VERSION:0.83;
#TITLE:Vertex β;
#SUBTITLE:;
#ARTIST:Silvia;
#TITLETRANSLIT:Vertex BETA;
#SUBTITLETRANSLIT:;
#ARTISTTRANSLIT:;
#GENRE:TRANCE;
#ORIGIN:;
#CREDIT:(Info needed) (2005?);
#BANNER:Vertex BETA.png;
#BACKGROUND:Vertex BETA-bg.png;
#PREVIEWVID:;
#JACKET:Vertex BETA-jacket.png;
#CDIMAGE:;
#DISCIMAGE:;
#LYRICSPATH:;
#CDTITLE:;
#MUSIC:Vertex BETA.ogg;
#OFFSET:2.409000;
#SAMPLESTART:77.973999;
#SAMPLELENGTH:15.000000;
#SELECTABLE:YES;
#BPMS:0.000=100.021,
36.000=200.042,
360.000=100.021;
#STOPS:;
#DELAYS:;
#WARPS:;
#TIMESIGNATURES:0.000=4=4;
#TICKCOUNTS:0.000=4;
#COMBOS:0.000=1;
#SPEEDS:0.000=1.000=0.000=0;
#SCROLLS:0.000=1.000;
#FAKES:;
#LABELS:0.000=Song Start;
#BGCHANGES:;
#KEYSOUNDS:;
#ATTACKS:
;

//---------------dance-single - ----------------
#NOTEDATA:;
#CHARTNAME:Expert;
#STEPSTYPE:dance-single;
#DESCRIPTION:;
#CHARTSTYLE:;
#DIFFICULTY:Hard;
#METER:13;
#RADARVALUES:0.694988,1.051495,0.287409,0.960366,0.161229,694.000000,653.000000,41.000000,137.000000,0.000000,0.000000,0.000000,0.000000,0.000000,0.694988,1.051495,0.287409,0.960366,0.161229,694.000000,653.000000,41.000000,137.000000,0.000000,0.000000,0.000000,0.000000,0.000000;
#CREDIT:Riakodoadm;
#NOTES:
0000
0000
0000
0000
,
1020
0000
2030
3200
,
0320
0000
0032
0203
,
2300
0000
3002
0023
,
2030
0000
0000
0000
0000
0000
3010
1000
0002
0000
0000
0000
0000
0000
0000
0000
,
0203
0000
0302
2003
,
3020
0000
2030
3200
,
0302
0000
2003
3020
,
0032
0000
0000
0003
0220
0000
0000
0330
,
1000
0000
0100
1000
0000
0000
0011
0000
,
0001
0000
1010
0000
1000
0000
0010
1000
,
0100
0000
0100
1000
0000
0000
1100
0000
,
1000
0000
0101
0000
0001
0000
0100
0001
,
0010
0000
0010
0100
0000
0000
1100
0000
,
1000
0011
0001
0100
,
0010
0100
0000
1001
0000
0001
0100
0001
,
0010
0010
0100
0100
1000
0010
0100
0001
,
1000
0100
0010
0100
0000
0000
1010
0000
,
1000
0000
0011
0000
0001
0000
0010
0001
,
0100
0010
0100
0001
0000
0000
1100
0000
,
1000
0000
0101
0000
0001
0000
0100
0001
,
0010
0100
1000
0001
0000
0000
1010
0000
,
1000
0000
0101
0000
0001
0000
0100
0010
,
1000
0001
0000
1001
0000
1000
0100
1000
,
0010
0010
0100
0100
0001
0010
0100
1000
,
0001
0010
0001
0100
0000
0100
0010
0100
,
0001
0010
0001
0010
0100
1000
0100
1000
,
0010
0100
0001
0100
0000
0100
0010
1000
,
0100
1000
0100
1000
0100
0001
0100
0001
,
0100
1000
0010
1000
0000
1000
0010
0001
,
0010
0100
0001
0010
0100
1000
0100
0010
,
0001
0001
0000
0101
0000
0100
0010
1000
,
0001
0001
0010
0010
0100
0100
1000
0010
,
1000
0010
1000
0100
0000
0100
0010
0100
,
1000
0010
1000
0010
0100
0001
0100
0001
,
0010
0100
1000
0100
0000
0100
0010
0001
,
0100
0001
0100
0001
0100
1000
0100
1000
,
0100
0001
0010
0001
0000
0001
0010
1000
,
0010
0100
1000
0010
0100
0001
0100
0010
,
1000
1000
0000
1100
0000
0100
0010
0001
,
1000
1000
0010
0010
0100
0100
0001
0010
,
0021
0000
1030
0020
0000
0031
0100
0010
,
2000
0000
3010
0200
0000
0301
0010
0001
,
2000
0000
3100
0002
0000
0103
0010
0001
,
0100
1000
0100
1000
0100
0001
0100
0001
,
0010
0100
0010
0100
0000
0100
1000
0010
,
0001
0010
0001
0010
1000
0010
1000
0010
,
0100
0001
1000
0010
0000
0001
0010
1000
,
0001
0010
0100
1000
0100
0001
0100
1000
,
0020
0000
0031
0020
0000
1030
0100
0010
,
0002
0000
0013
0200
0000
1300
0001
1000
,
0020
0000
0031
0020
0000
0130
0010
1000
,
0100
0001
0100
0001
0100
1000
0100
1000
,
0010
0100
0010
0100
0000
0100
0001
0010
,
1000
0010
1000
0010
0001
0010
0001
0010
,
0100
1000
0001
0010
0000
0010
0001
1000
,
0010
0001
0010
1000
0100
0001
0100
1000
,
0001
0100
0001
0100
0010
1000
0010
1000
0100
1000
0100
1000
0001
0010
0001
0010
,
0002
0000
0013
0200
0000
1300
0020
1030
,
0002
0000
0103
0020
0000
0031
0020
1030
,
0200
0000
0301
0200
0000
1300
0020
0130
,
0002
0013
0100
0010
0001
0010
0100
1000
,
0020
0000
1030
0200
0000
1300
0020
0130
,
0002
0000
0103
2000
0000
3100
0020
1030
,
0002
0000
0013
0200
0000
0301
0200
1300
,
0020
0000
0130
0000
1000
0000
0100
0000
0001
0100
0001
0100
0001
1000
0001
1000
,
0200
0000
1300
0020
0000
0031
0020
0130
,
0002
0000
0013
0200
0000
0310
0002
0103
,
0020
0000
0031
0020
0000
1030
0200
0310
,
0002
0103
0001
0010
0100
1000
0010
1000
,
0200
0000
1300
0002
0000
0103
2000
3100
,
0020
0000
0031
2000
0000
3100
0002
0013
,
0200
0000
0310
0002
0000
0013
0200
1300
,
0010
1000
0010
1000
0001
0100
0001
0100
0020
0000
0100
0000
0100
0000
0100
0000
,
2030
0000
3010
0200
0000
0301
0020
0031
,
2000
0000
3100
0020
0000
1030
0020
0031
,
0200
0000
1300
0200
0000
0301
0020
0130
,
2000
3010
0100
0010
1000
0010
0100
0001
,
0020
0000
0031
0200
0000
0301
0020
0130
,
2000
0000
3100
0002
0000
0103
0020
0031
,
2000
0000
3010
0200
0000
1300
0200
0301
,
0020
0130
0001
0100
0020
0130
1000
0010
,
2000
0000
3010
0200
0000
0310
0002
0000
,
0023
0130
0001
0010
0100
1000
0100
0010
,
0002
0000
0103
0020
0000
0130
2000
0000
,
3200
0301
1000
0010
1000
0100
0010
0001
,
0200
0000
1300
0200
0000
0301
2000
0000
,
3200
0000
0310
2000
0000
3010
0002
0000
,
0203
0000
1300
0002
0000
0013
2000
0000
,
3100
0000
1000
0000
0010
0000
0100
0000
0001
0010
0001
0010
0100
1000
0100
1000
,
0002
0000
0103
0001
0000
0001
1000
0000
2010
0000
3001
0000
0012
0000
1003
0000
,
2100
0000
3010
1000
0000
1000
0001
0000
0102
0000
1003
0000
2100
0000
3001
0000
,
1002
0000
0103
1000
0000
0100
0001
0000
0021
0000
0130
0000
1020
0000
0130
0000
,
1002
0000
1003
0010
0000
1000
0010
0000
2001
0000
3001
0000
0100
0001
0010
0100
,
2100
0000
3100
0001
0000
0100
1000
0010
2010
0000
3100
0000
0120
0000
0031
0000
,
0102
0000
0013
1000
0000
0010
0001
1000
2100
0000
3010
0000
0102
0000
0013
0000
,
2001
0000
3100
0001
0000
0100
1000
0010
2010
0000
3100
0000
0012
0000
0103
0000
,
2001
0000
3100
0001
0000
0100
0010
0001
1002
0000
0103
1000
0001
0010
1000
0001
,
2002
0000
0000
0000
,
0000
0000
0000
0000
,
3003
0000
0000
0000
;

//---------------dance-single - ----------------
#NOTEDATA:;
#CHARTNAME:Basic;
#STEPSTYPE:dance-single;
#DESCRIPTION:;
#CHARTSTYLE:;
#DIFFICULTY:Easy;
#METER:6;
#RADARVALUES:0.386550,0.490698,0.420598,0.462658,0.000000,386.000000,326.000000,60.000000,66.000000,0.000000,0.000000,0.000000,0.000000,0.000000,0.386550,0.490698,0.420598,0.462658,0.000000,386.000000,326.000000,60.000000,66.000000,0.000000,0.000000,0.000000,0.000000,0.000000;
#CREDIT:Riakodoadm;
#NOTES:
0000
0000
0000
0000
,
2002
3003
2000
3200
,
2300
3000
0002
0203
,
0302
0003
2000
3020
,
2030
3000
0220
0330
,
2002
3003
0002
0023
,
0032
0003
2000
3020
,
2030
3000
0002
0203
,
0302
0003
0220
0330
,
1001
1000
0000
1000
,
0000
0001
0000
0001
,
0000
0010
0000
0010
,
0000
0100
0000
0100
,
0000
1000
0000
1000
,
0000
0010
0000
0010
,
0000
0100
0000
0100
,
0000
0001
0000
0001
,
1001
1000
0000
0100
,
0000
1000
0000
0010
,
0000
0001
0000
0100
,
0000
0001
0000
0010
,
0000
1000
0000
0100
,
0000
0001
0000
0010
,
0000
1000
0000
0100
,
0010
0010
0100
0100
,
1001
0100
0010
1000
,
0100
0001
0100
1000
,
1001
0100
0010
0001
,
0100
1000
0100
0001
,
0110
1000
0100
0010
,
0100
1000
0001
0100
,
0110
0001
0100
0010
,
0001
0010
1000
0100
,
1001
0100
0010
0001
,
0010
1000
0010
0001
,
1001
0100
0010
1000
,
0010
0001
0010
1000
,
0110
0001
0100
0010
,
0100
0001
1000
0100
,
0110
1000
0100
0010
,
1000
0010
0001
0100
,
0102
0000
0010
1003
,
2100
0000
0010
3001
,
0201
0000
0010
0310
,
0220
0330
1001
0000
,
0010
0100
0010
1000
,
0100
0010
0110
0000
,
0010
0100
0010
0001
,
0100
0010
0110
1001
,
2100
0000
0010
3001
,
0102
0000
0010
1003
,
1200
0000
0010
0310
,
0220
0330
1001
0000
,
0010
0100
0010
0001
,
0100
0010
0110
0000
,
0010
0100
0010
1000
,
0100
0010
0110
1001
,
0220
0000
0000
0330
,
1000
0100
0010
0001
,
0010
0100
1000
0010
,
0100
0100
0001
0001
,
1001
0100
1001
0010
,
1000
0100
0001
0010
,
0100
0001
0010
0100
,
1000
0010
1000
0001
,
0110
1000
0110
0001
,
0001
0010
0100
1000
,
0100
0010
0001
0100
,
0010
0010
1000
1000
,
1001
0010
1001
0100
,
0001
0010
1000
0100
,
0010
1000
0100
0010
,
0001
0100
0001
1000
,
0110
0001
0110
1000
,
0001
0010
1000
0001
,
0100
1000
0010
0100
,
0001
0010
0100
1000
,
1001
1100
1001
1100
,
0100
0010
0001
0100
,
0010
1000
0010
0001
,
0100
1000
0010
0100
,
0110
1001
0110
1001
,
1000
0010
0001
1000
,
0100
0001
0010
0100
,
1000
0010
0100
0001
,
1001
0101
1001
0101
,
0100
0010
1000
0100
,
0010
0001
0010
1000
,
0100
0001
0010
0100
,
0110
1001
0110
1001
,
0220
0330
2000
3200
,
0320
0030
0002
0203
,
0320
0030
2000
3200
,
2300
3000
0220
0330
,
2002
3003
0002
0023
,
0230
0300
2000
3020
,
0230
0300
0002
0023
,
0032
0003
2002
3003
,
0220
0000
0000
0000
,
0000
0000
0000
0000
,
0330
0000
0000
0000
;

//---------------dance-single - ----------------
#NOTEDATA:;
#CHARTNAME:Difficult;
#STEPSTYPE:dance-single;
#DESCRIPTION:;
#CHARTSTYLE:;
#DIFFICULTY:Medium;
#METER:8;
#RADARVALUES:0.439625,0.595847,0.133189,1.023455,0.003505,439.000000,420.000000,19.000000,146.000000,0.000000,0.000000,0.000000,0.000000,0.000000,0.439625,0.595847,0.133189,1.023455,0.003505,439.000000,420.000000,19.000000,146.000000,0.000000,0.000000,0.000000,0.000000,0.000000;
#CREDIT:Riakodoadm;
#NOTES:
0000
0000
0000
0000
,
1020
0000
2030
3200
,
0320
0000
0032
0203
,
0320
0000
0230
0302
,
2003
0000
0000
0000
0000
0000
3100
1000
0002
0000
0000
0000
0000
0000
0000
0000
,
0023
0000
0032
2003
,
3020
0000
2030
3200
,
0320
0000
0032
0023
,
0230
0000
0300
0000
0220
0000
0000
0330
,
0001
1000
0000
0100
0000
0010
0000
0001
,
0000
1000
0000
0010
0000
0100
0001
0010
,
0000
0100
0000
1000
0000
0001
0000
0010
,
0000
0100
0000
0010
0000
0001
0100
0010
,
0000
1000
0000
0010
0000
0001
0000
0010
,
0000
1000
0000
0100
0000
0001
0000
0100
,
0000
1000
0000
0010
0000
0100
0000
0001
,
0000
0100
0000
1000
0000
0100
0000
0001
,
1000
0001
0000
0100
0000
0010
0000
1000
,
0000
0001
0000
0010
0000
0100
1000
0010
,
0000
0100
0000
0001
0000
1000
0000
0010
,
0000
0100
0000
0010
0000
1000
0100
0010
,
0000
0001
0000
0010
0000
1000
0000
0010
,
0000
0001
0000
0100
0000
1000
0000
0100
,
0001
0100
0001
0100
0001
1000
0001
1000
,
0010
1000
0010
1000
0100
0010
0100
0010
,
0001
1100
1000
0010
,
0100
0001
0100
0000
0001
1000
0001
0000
,
0010
0011
0001
0100
,
0001
0100
0001
0000
1000
0010
1000
0000
,
0100
0110
0010
0100
,
1000
0010
1000
0000
0001
0100
0001
0000
,
0010
0100
0000
1000
0000
1000
0001
0000
,
1000
0100
0010
0100
1000
0100
0010
0001
,
1000
0101
0001
0010
,
0100
1000
0100
0000
1000
0001
1000
0000
,
0010
1010
1000
0100
,
1000
0100
1000
0000
0001
0010
0001
0000
,
0100
0110
0010
0100
,
0001
0010
0001
0000
1000
0100
1000
0000
,
0010
0100
0000
0001
0000
0001
1000
0000
,
0001
0100
0010
0100
0001
0100
0010
1000
,
0200
0000
0000
2300
0000
0000
3020
0000
,
0230
0000
0000
0302
0000
0000
0023
0000
,
0032
0000
0000
0203
0000
0000
2300
0000
,
3200
0001
0010
0301
,
0100
0000
0001
1000
0000
1000
0001
0000
,
0010
0100
1000
0100
,
0010
0000
0001
1000
0000
1000
0001
0000
,
0010
0001
1000
0000
0010
1000
0001
0000
,
0200
0000
0000
0302
0000
0000
0023
0000
,
0230
0000
0000
2300
0000
0000
3020
0000
,
0032
0000
0000
0023
0000
0000
2030
0000
,
3200
0010
1000
0310
,
0100
0000
1000
0001
0000
0001
1000
0000
,
0010
0100
0001
0100
,
0010
0000
1000
0001
0000
0001
1000
0000
,
0010
1000
0001
0000
0010
0001
1000
0000
,
0010
1000
0010
1000
0001
0100
0001
0100
,
0020
0000
0000
2030
0000
0000
3200
0000
,
0320
0000
0000
0032
0000
0000
0203
0000
,
2300
0000
0000
3200
0000
0000
0302
0000
,
1003
0100
1000
0100
0010
0001
0010
0001
,
0200
0000
0000
0302
0000
0000
0023
0000
,
0230
0000
0000
2300
0000
0000
3020
0000
,
0230
0000
0000
2300
0000
0000
3200
0000
,
0301
0010
0001
0010
0100
1000
0100
1000
,
0002
0000
0000
0023
0000
0000
0230
0000
,
2300
0000
0000
3200
0000
0000
0320
0000
,
0032
0000
0000
0203
0000
0000
0320
0000
,
1030
0010
1000
0001
0100
0001
1000
0010
,
2000
0000
0000
3200
0000
0000
0302
0000
,
0203
0000
0000
2300
0000
0000
3020
0000
,
0230
0000
0000
0302
0000
0000
0023
0000
,
0031
0010
0100
1000
0010
0100
0001
0000
,
0020
0000
0000
0032
0000
0000
0203
0000
,
0320
0000
0000
2030
0000
0000
3200
0000
,
0302
0000
0000
0203
0000
0000
2300
0000
,
3001
0100
0010
0100
0001
1000
0010
1000
,
0200
0000
0000
2300
0000
0000
3020
0000
,
0230
0000
0000
0302
0000
0000
0023
0000
,
0230
0000
0000
0302
0000
0000
0203
0000
,
1300
0010
0100
0010
1000
0001
0010
0001
,
2000
0000
0000
3200
0000
0000
0320
0000
,
0031
0010
0001
0000
1000
0010
1000
0000
,
0002
0000
0000
0023
0000
0000
0230
0000
,
1300
0100
1000
0000
0001
0100
0001
0000
,
0020
0000
0000
0230
0000
0000
0302
0000
,
0203
0000
0000
2300
0000
0000
3020
0000
,
0230
0000
0000
0302
0000
0000
0023
0000
,
0031
0010
0100
1000
0010
0100
0001
0000
,
2002
0000
0000
0003
0020
0030
0200
3300
,
2002
0000
0000
3000
0020
0030
0200
0303
,
0202
0000
0000
0003
0020
0030
0002
0303
,
0022
0000
0000
0033
2200
0000
0000
3300
,
2002
0000
0000
3000
0200
0300
0020
0033
,
2002
0000
0000
0003
0200
0300
0020
3030
,
2020
0000
0000
3000
0200
0300
2000
3030
,
2200
0000
0000
3300
0022
0000
0000
0033
,
2002
0000
0000
0000
,
0000
0000
0000
0000
,
3003
0000
0000
0000
;

//---------------dance-single - ----------------
#NOTEDATA:;
#CHARTNAME:Beginner;
#STEPSTYPE:dance-single;
#DESCRIPTION:;
#CHARTSTYLE:;
#DIFFICULTY:Beginner;
#METER:3;
#RADARVALUES:0.211300,0.274791,0.014020,0.070100,0.000000,211.000000,209.000000,2.000000,10.000000,0.000000,0.000000,0.000000,0.000000,0.000000,0.211300,0.274791,0.014020,0.070100,0.000000,211.000000,209.000000,2.000000,10.000000,0.000000,0.000000,0.000000,0.000000,0.000000;
#CREDIT:Riakodoadm;
#NOTES:
0000
0000
0000
0000
,
0010
0000
1000
1000
,
1000
0000
0001
0001
,
0001
0000
0100
0100
,
0100
0000
0010
0000
,
0100
0000
0001
0001
,
0001
0000
1000
1000
,
1000
0000
0100
0100
,
0100
0000
0010
0000
,
0000
1000
0000
1000
,
0000
0001
0000
0001
,
0000
0010
0000
0010
,
0000
0100
0000
0100
,
0000
1000
0000
1000
,
0000
0010
0000
0010
,
0000
0100
0000
0100
,
0000
0001
0000
0001
,
0000
1000
0000
0100
,
0000
1000
0000
1000
,
0000
0001
0000
0100
,
0000
0001
0000
0001
,
0000
1000
0000
0010
,
0000
1000
0000
1000
,
0000
0001
0000
0010
,
0000
0001
0000
0001
,
1000
0000
1000
0000
,
0010
0010
0010
0000
,
0001
0000
0001
0000
,
0010
0010
0010
0000
,
1000
0000
0001
0000
,
1000
0001
1000
0000
,
0010
0000
0100
0000
,
0010
0100
0010
0000
,
1000
0000
1000
0000
,
0100
0100
0100
0000
,
0001
0000
0001
0000
,
0100
0100
0100
0000
,
1000
0000
0001
0000
,
1000
0001
1000
0000
,
0100
0000
0010
0000
,
0100
0010
0100
0000
,
1000
0000
1000
0000
,
0001
0000
0001
0000
,
0010
0000
0010
0000
,
0200
0000
0300
0000
,
0100
0000
0000
0000
,
0100
0000
0000
0000
,
0010
0000
0010
0000
,
0001
0000
1000
0000
,
0001
0000
0001
0000
,
1000
0000
1000
0000
,
0010
0000
0010
0000
,
0200
0000
0300
0000
,
0100
0000
0000
0000
,
0100
0000
0000
0000
,
0010
0000
0010
0000
,
1000
0000
0002
0000
,
0000
0000
0003
0000
,
1000
0000
1000
0000
,
0001
0000
0001
0000
,
0100
0000
0010
0010
,
0020
0000
0030
0000
,
1000
0000
1000
0000
,
0001
0000
0001
0000
,
0010
0000
0100
0100
,
0200
0000
0300
0000
,
1000
0000
1000
0000
,
0010
0000
0010
0000
,
0100
0000
0001
0001
,
0002
0000
0003
0000
,
1000
0000
1000
0000
,
0100
0000
0100
0000
,
0010
0000
0001
0000
,
1000
0001
1000
0000
,
0001
0000
0001
0000
,
1000
0000
1000
0000
,
0100
0000
0010
0010
,
0020
0000
0030
0000
,
0001
0000
0001
0000
,
1000
0000
1000
0000
,
0010
0000
0100
0100
,
0200
0000
0300
0000
,
0001
0000
0100
0100
,
0200
0000
0300
0000
,
1000
0000
0100
0100
,
0200
0000
0300
0000
,
0001
0000
0001
0000
,
0100
0000
0100
0000
,
0010
0000
1000
0000
,
0001
1000
0001
0000
,
1001
0000
0010
0010
,
0010
0000
0100
0100
,
0100
0000
0001
0001
,
0001
0000
1000
0000
,
0001
0000
0010
0010
,
0010
0000
0100
0100
,
0100
0000
1000
1000
,
1000
0000
0001
0000
,
1001
0000
0000
0000
;

//---------------dance-double - ----------------
#NOTEDATA:;
#CHARTNAME:Expert;
#STEPSTYPE:dance-double;
#DESCRIPTION:;
#CHARTSTYLE:;
#DIFFICULTY:Hard;
#METER:13;
#RADARVALUES:0.708007,1.086545,0.105150,0.792126,0.297924,707.000000,692.000000,15.000000,113.000000,0.000000,0.000000,0.000000,0.000000,0.000000,0.708007,1.086545,0.105150,0.792126,0.297924,707.000000,692.000000,15.000000,113.000000,0.000000,0.000000,0.000000,0.000000,0.000000;
#CREDIT:Riakodoadm;
#NOTES:
// measure 0
00000000
00000000
00000000
00000000
,  // measure 1
00022000
00003000
00032000
02003000
,  // measure 2
03200000
00000000
20300000
30200000
,  // measure 3
00320000
00000000
20030000
32000000
,  // measure 4
03020000
00000000
00000000
00000000
00000000
00000000
00130000
01000000
00020000
00000000
00000000
00000000
00000000
00000000
00000000
00000000
,  // measure 5
00032000
00000000
00023000
00030200
,  // measure 6
00000320
00000000
00000032
00000203
,  // measure 7
00002300
00000000
00003002
00000023
,  // measure 8
00002030
00000000
00023000
00000000
,  // measure 9
00130000
00000000
01000000
10000000
00000000
10000000
00010000
00000000
,  // measure 10
00100000
00000000
01100000
00000000
00100000
00000000
01000000
10000000
,  // measure 11
00100000
00000000
10000000
01000000
00000000
00010000
01000000
00000000
,  // measure 12
00100000
00000000
00101000
00000000
00100000
00000000
00001000
00010000
,  // measure 13
00000010
00000000
00001000
00000001
00000000
00000100
00000001
00000000
,  // measure 14
00001000
00001010
00000001
00000011
,  // measure 15
00000010
00000100
00000000
00000110
00000000
00000100
00001000
00000010
,  // measure 16
00000100
00000001
00000100
00001000
00010000
00100000
10000000
01000000
,  // measure 17
00100000
00010000
00100000
00010000
00000000
00010000
10000000
00000000
,  // measure 18
01000000
10100000
01000000
00110000
,  // measure 19
00010000
01000000
00010000
01000000
00000000
00100000
10000000
00000000
,  // measure 20
00010000
00101000
00010000
01001000
,  // measure 21
00001000
00000100
00001000
00000100
00000000
00000100
00000010
00000000
,  // measure 22
00001000
00000011
00000001
00001010
,  // measure 23
00000010
00000100
00000000
00000110
00000000
00000010
00001000
00000100
,  // measure 24
00000010
00001000
00010000
00100000
00010000
00001000
01000000
00010000
,  // measure 25
10000000
01000000
00100000
01000000
00000000
10000000
00100000
01000000
,  // measure 26
00100000
00010000
00100000
10000000
01000000
00010000
00001000
00000100
,  // measure 27
00000001
00000010
00000100
00000010
00000000
00000100
00000001
00000100
,  // measure 28
00001000
00000010
00010000
00001000
00000100
00001000
00010000
01000000
,  // measure 29
00100000
00010000
01000000
00100000
00000000
10000000
00100000
01000000
,  // measure 30
00001000
00010000
00001000
00000100
00000001
00000100
00001000
00010000
,  // measure 31
00100000
01000000
00000000
01010000
00000000
00010000
00100000
01000000
,  // measure 32
00010000
00010000
00001000
00001000
00000100
00000100
00000001
00000001
,  // measure 33
00001000
00000100
00000010
00000100
00000000
00000001
00000100
00001000
,  // measure 34
00000010
00000100
00000001
00000100
00001000
00010000
00100000
10000000
,  // measure 35
00010000
00100000
01000000
00100000
00000000
01000000
00100000
00010000
,  // measure 36
01000000
00100000
10000000
01000000
00010000
00001000
00000010
00000001
,  // measure 37
00000010
00000001
00000100
00000010
00000000
00001000
00000010
00000100
,  // measure 38
00001000
00010000
01000000
10000000
01000000
00010000
00001000
00000010
,  // measure 39
00000001
00000100
00000000
00000110
00000000
00000010
00000100
00000001
,  // measure 40
00000010
00000010
00001000
00001000
00010000
00010000
01000000
01000000
,  // measure 41
20000000
00000000
30100000
02000000
00000000
03010000
00200000
00310000
,  // measure 42
20000000
00000000
31000000
00020000
00000000
00031000
00000200
00001300
,  // measure 43
00020000
00000000
01030000
00200000
00000000
00310000
20000000
31000000
,  // measure 44
00010000
00001000
00010000
00001000
00100000
00010000
00100000
00010000
,  // measure 45
01000000
00001000
00010000
00000100
00000000
00000010
00001000
00010000
,  // measure 46
00001000
01000000
00001000
01000000
00010000
00100000
00010000
00100000
,  // measure 47
01000000
00010000
00001000
00010000
00000000
00000100
00001000
00000010
,  // measure 48
00010000
00000100
00010000
00000100
00001000
00000010
00000001
00000010
,  // measure 49
00002000
00000000
00003100
00000002
00000000
00000103
00002000
00003010
,  // measure 50
00020000
00000000
00031000
02000000
00000000
03100000
00020000
00031000
,  // measure 51
00000200
00000000
00000301
00002000
00000000
00003001
00000200
00000301
,  // measure 52
00000010
00001000
00000010
00001000
00010000
00001000
00010000
01000000
,  // measure 53
00010000
00001000
00100000
00001000
00000000
00010000
00000100
00010000
,  // measure 54
00000010
00001000
00000010
00001000
00000100
00010000
00000100
00001000
,  // measure 55
00000010
00000100
00001000
00010000
00000000
00001000
00010000
00100000
,  // measure 56
10000000
01000000
00010000
00001000
00000010
00000001
00000100
00000010
,  // measure 57
00001000
00000010
00001000
00000010
00010000
00001000
00010000
00001000
00100000
00010000
00100000
00010000
10000000
01000000
10000000
01000000
,  // measure 58
00200000
00000000
00310000
02000000
00000000
03010000
00200000
00310000
,  // measure 59
00002000
00000000
00013000
00200000
00000000
01300000
00020000
00031000
,  // measure 60
00000200
00000000
00001300
00020000
00000000
01030000
00200000
01300000
,  // measure 61
00100000
00001000
00010000
01000000
00010000
00001000
00000100
00000001
,  // measure 62
00002000
00000000
00003100
00000020
00000000
00001030
00010000
00001000
,  // measure 63
00000200
00000000
00000310
00000002
00000000
00000013
00000200
00000301
,  // measure 64
00002000
00000000
00003100
00000020
00000000
00000031
00002000
00003010
,  // measure 65
00000200
00000000
00000310
00000000
00001000
00000000
00000100
00000000
00010000
00000100
00001000
00000100
00010000
00001000
00100000
01000000
,  // measure 66
20000000
00000000
31000000
00200000
00000000
01300000
00020000
00031000
,  // measure 67
00000200
00000000
00001300
02000000
00000000
03100000
02000000
03010000
,  // measure 68
00200000
00000000
00301000
00020000
00000000
01030000
20000000
31000000
,  // measure 69
00100000
00001000
01000000
00001000
00010000
00001000
00000100
00000010
,  // measure 70
00002000
00000000
00003100
00000002
00000000
00001003
00000020
00000000
,  // measure 71
00000032
00000000
00000103
00002000
00000000
00003001
00000020
00000000
,  // measure 72
00002030
00000000
00003100
00000020
00000000
00001030
00020000
00000000
,  // measure 73
00031000
00100000
00010000
01000000
00100000
10000000
01000000
00100000
00001000
00000000
00010000
00000000
00000100
00000000
00001000
00000000
,  // measure 74
00000020
00000000
00001030
00000200
00000000
00001300
00000020
00001030
,  // measure 75
00020000
00000000
00031000
00000020
00000000
00000130
00002000
00013000
,  // measure 76
02000000
00000000
03010000
00002000
00000000
00003100
00000020
00000130
,  // measure 77
00000010
00010000
00001000
00000100
00001000
00010000
01000000
10000000
,  // measure 78
00020000
00000000
01030000
00200000
00000000
00310000
00001000
00010000
,  // measure 79
02000000
00000000
03100000
20000000
00000000
30100000
02000000
13000000
,  // measure 80
00020000
00000000
01030000
00200000
00000000
10300000
00020000
00130000
,  // measure 81
02000000
03100000
00010000
00100000
20000000
30100000
01000000
10000000
,  // measure 82
00200000
00000000
01300000
00200000
00000000
00310000
00200000
00000000
,  // measure 83
00301000
00100000
01000000
00010000
00100000
00001000
00010000
00000100
,  // measure 84
00000020
00000000
00000130
00000020
00000000
00001030
00000020
00000000
,  // measure 85
00000031
00000100
00001000
00010000
00001000
00000100
00001000
00010000
,  // measure 86
02000000
00000000
13000000
00200000
00000000
00310000
00002000
00000000
,  // measure 87
00023000
00000000
00030100
00000020
00000000
00001030
00000020
00000000
,  // measure 88
00000032
00000000
00000103
00000020
00000000
00000130
00002000
00000000
,  // measure 89
00013000
00000000
01000000
00000000
10000000
00000000
00100000
00000000
01000000
00010000
00100000
00001000
00010000
00000010
00000100
00000001
,  // measure 90
00001000
00000010
00001000
00000010
00000000
00000100
00000001
00000100
00000010
00000100
00001000
00010000
00000100
00010000
00001000
00100000
,  // measure 91
01000000
00100000
01000000
10000000
00000000
00100000
00010000
00100000
10000000
01000000
00100000
00001000
00010000
01000000
00010000
00001000
,  // measure 92
00000100
00000010
00000100
00001000
00000000
00000100
00000001
00000010
00000001
00000100
00000010
00001000
00000100
00001000
00000010
00010000
,  // measure 93
00001000
00010000
00100000
00010000
00000000
00001000
00000010
00001000
00010000
00000100
00001000
00000010
00010000
00001000
00100000
00010000
,  // measure 94
01000000
10000000
01000000
00100000
00000000
00010000
00100000
10000000
01000000
00100000
00010000
01000000
00100000
00010000
00001000
00000100
,  // measure 95
00000010
00000001
00000010
00000100
00000000
00001000
00000100
00000010
00001000
00000001
00000010
00000100
00010000
00001000
00010000
00100000
,  // measure 96
10000000
01000000
00010000
01000000
00000000
00100000
01000000
10000000
01000000
00010000
00001000
01000000
00100000
01000000
00001000
00010000
,  // measure 97
00001000
00000010
00001000
00010000
00000000
00001000
00000010
00000001
00000100
00001000
00010000
00100000
10000000
01000000
00010000
00002000
,  // measure 98
00020000
00000000
00000000
00000000
,  // measure 99
00000000
00000000
00000000
00000000
,  // measure 100
00033000
00000000
00000000
00000000
;

//---------------maniax-single - ----------------
#NOTEDATA:;
#CHARTNAME:Wild;
#STEPSTYPE:maniax-single;
#DESCRIPTION:;
#CHARTSTYLE:;
#DIFFICULTY:Hard;
#METER:8;
#RADARVALUES:0.576820,0.736967,0.700997,0.231329,0.031545,576.000000,476.000000,100.000000,33.000000,0.000000,0.000000,0.000000,0.000000,0.000000,0.576820,0.736967,0.700997,0.231329,0.031545,576.000000,476.000000,100.000000,33.000000,0.000000,0.000000,0.000000,0.000000,0.000000;
#CREDIT:Riakodoadm;
#NOTES:
0000
0000
0000
0000
,
0200
0000
0001
0301
,
0020
0000
1000
1030
,
2002
3003
1000
0001
,
0110
0000
0110
0000
,
2000
0000
0010
3010
,
0002
0000
0100
0103
,
2002
3003
1000
0001
,
0110
0000
0110
0000
,
0100
0000
0001
1000
0000
0000
0010
0000
,
1000
1000
0001
0001
,
0010
0000
1000
0001
0000
0000
0100
0000
,
0001
0001
1000
1000
,
0010
0000
0001
0001
0000
1000
1000
0000
,
0010
0100
0001
0000
0100
0010
1000
0000
,
0010
0010
0000
0011
0000
0010
0100
0100
,
0010
0010
1000
1000
0001
0001
0100
0100
,
0010
0000
1000
0001
0000
0000
0100
0000
,
0001
0001
1000
1000
,
0100
0000
0001
1000
0000
0000
0010
0000
,
1000
1000
0001
0001
,
0100
0000
1000
1000
0000
0001
0001
0000
,
0100
0010
1000
0000
0010
0100
0001
0000
,
0100
0100
0000
1100
0000
0100
0010
0010
,
0100
0100
0001
0001
1000
1000
0010
0010
,
0100
0001
0100
0001
0000
1000
0010
0000
,
0110
1010
0110
0101
,
1000
0001
1000
0001
0000
0100
0010
0000
,
1010
1001
0011
1001
,
0010
1000
0001
0100
0000
0001
0001
0000
,
0011
1001
1100
1001
,
0010
0010
0000
0110
0000
0100
1000
0100
,
0010
0010
0100
0100
0001
0001
1000
1000
,
0010
1000
0010
1000
0000
0001
0100
0000
,
0110
0101
0110
1010
,
0001
1000
0001
1000
0000
0010
0100
0000
,
0101
1001
1100
1001
,
0100
0001
1000
0010
0000
1000
1000
0000
,
1100
1001
0011
1001
,
0100
0100
0000
0110
0000
0010
0001
0010
,
0100
0100
0010
0010
1000
1000
0001
0001
,
2100
0000
0000
0010
0000
0000
3010
0000
,
0002
0000
0000
0100
0000
0000
1003
0000
,
0200
0000
0000
0010
0000
0000
0301
0000
,
0100
0100
0100
0000
0010
0010
0010
0000
,
0100
0010
1000
0001
0000
1000
1000
0000
,
0010
0010
0010
0000
0100
0100
0100
0000
,
0010
0100
0001
1000
0000
0001
0001
0000
,
0100
1000
1000
0000
0010
0001
0001
0000
,
0012
0000
0000
0100
0000
0000
0103
0000
,
2000
0000
0000
0010
0000
0000
3001
0000
,
0020
0000
0000
0100
0000
0000
1030
0000
,
0010
0010
0010
0000
0100
0100
0100
0000
,
0010
0100
0001
1000
0000
0001
0001
0000
,
0100
0100
0100
0000
0010
0010
0010
0000
,
0100
0010
1000
0001
0000
1000
1000
0000
,
0010
0001
0001
0000
0100
1000
1000
0000
,
0020
0000
0000
0000
0000
0000
0000
0030
,
0110
0000
1000
0001
1000
0000
1010
0000
,
0101
0000
0010
0100
0010
0000
0011
0000
,
1100
0000
0001
1000
0001
0000
1100
0000
,
0011
0010
0010
0000
0100
0100
0100
0000
,
1001
0000
0001
0010
0001
0000
0101
0000
,
1001
0000
1000
0100
1000
0000
1010
0000
,
0101
0000
0010
0100
1000
0000
1001
0000
,
0101
0100
0001
1000
0010
1000
0001
0000
,
0011
0000
0001
1000
0010
0000
1100
0000
,
1010
0000
0010
0100
0001
0000
0011
0000
,
1100
0000
0100
1000
0100
0000
0110
0000
,
1001
0010
0001
0000
1000
0100
1000
0000
,
1010
0000
0010
0110
0010
0000
1001
0000
,
0101
0000
0100
0110
0100
0000
0101
0000
,
1010
0000
1000
0001
0100
0000
0010
0000
,
0100
0010
0100
0010
1000
0001
1000
0001
0100
0000
0100
0000
0010
0000
0010
0000
,
0110
0000
0001
1000
0001
0000
0101
0000
,
1010
0000
0100
0010
0100
0000
1100
0000
,
0011
0000
1000
0001
1000
0000
0011
0000
,
1100
0100
0100
0000
0010
0010
0010
0000
,
1001
0000
1000
0100
1000
0000
1010
0000
,
1001
0000
0001
0010
0001
0000
0101
0000
,
1010
0000
0100
0010
0001
0000
1001
0000
,
1010
0010
1000
0001
0101
0100
0001
1000
,
1100
0000
0010
0110
0010
0000
0011
0000
,
0101
0100
1000
0000
0010
0010
0001
0000
,
0011
0000
1000
1001
1000
0000
1100
0000
,
1010
0010
0001
0000
0100
0100
1000
0000
,
0110
0000
1000
0001
1000
0000
0110
0000
,
1010
0000
0010
0100
0010
0000
1010
0000
,
0101
0000
0100
0010
0100
0000
0110
0000
,
0100
0010
0100
0010
2000
3001
1000
0001
0200
0000
0000
0000
0000
0000
0300
0000
,
1200
0001
0000
0000
0000
0000
0000
0000
0000
0000
0000
0000
0000
0000
0000
0000
1000
0000
0000
0000
0000
0000
0000
0000
0301
0000
0000
0000
0000
0000
0000
0000
,
2000
0000
0100
3010
,
0002
0000
0010
0103
,
0202
0303
2020
3030
,
0021
0000
0001
1030
,
0002
0000
0010
0103
,
2000
0000
0100
3010
,
2020
3030
0202
0303
,
0220
0000
0000
0000
,
0000
0000
0000
0000
,
0000
0330
0000
0000
0000
0000
0000
0000
;

//---------------dance-double - stretchy rage----------------
#NOTEDATA:;
#CHARTNAME:Difficult;
#STEPSTYPE:dance-double;
#DESCRIPTION:stretchy rage;
#CHARTSTYLE:;
#DIFFICULTY:Medium;
#METER:8;
#RADARVALUES:0.382544,0.490698,0.021030,1.023455,0.003505,382.000000,379.000000,3.000000,146.000000,0.000000,0.000000,0.000000,0.000000,0.000000,0.382544,0.490698,0.021030,1.023455,0.003505,382.000000,379.000000,3.000000,146.000000,0.000000,0.000000,0.000000,0.000000,0.000000;
#CREDIT:Riakodoadm;
#NOTES:
// measure 0
00000000
00000000
00000000
00000000
,  // measure 1
00022000
00003000
00032000
02003000
,  // measure 2
03200000
00000000
20300000
30200000
,  // measure 3
00320000
00000000
00230000
20300000
,  // measure 4
30020000
00000000
00000000
00000000
00000000
00000000
00130000
01000000
00020000
00000000
00000000
00000000
00000000
00000000
00000000
00000000
,  // measure 5
00032000
00000000
00023000
00030200
,  // measure 6
00000320
00000000
00000032
00000203
,  // measure 7
00002300
00000000
00003200
00000320
,  // measure 8
00020030
00000000
00032000
00000000
,  // measure 9
00003000
01000000
00000000
00100000
00000000
10000000
00000000
00010000
,  // measure 10
00000000
00100000
00000000
01000000
00000000
00100000
00001000
00010000
,  // measure 11
00000000
00000100
00000000
00001000
00000000
00000010
00000000
00000100
,  // measure 12
00000000
00000001
00000000
00000100
00000000
00001000
00010000
00000010
,  // measure 13
00000000
00010000
00000000
00001000
00000000
00100000
00000000
01000000
,  // measure 14
00000000
00010000
00000000
00001000
00000000
00010000
00000000
01000000
,  // measure 15
00000000
10000000
00000000
00100000
00000000
00010000
00000000
00001000
,  // measure 16
00000000
00000100
00000000
00000001
00000000
00000010
00000000
00000001
,  // measure 17
00001000
00000100
00000000
00000010
00000000
00000001
00000000
00001000
,  // measure 18
00000000
00000010
00000000
00000100
00000000
00000010
00010000
00001000
,  // measure 19
00000000
01000000
00000000
00010000
00000000
00100000
00000000
01000000
,  // measure 20
00000000
10000000
00000000
01000000
00000000
00010000
00001000
00100000
,  // measure 21
00000000
00001000
00000000
00010000
00000000
00000010
00000000
00000100
,  // measure 22
00000000
00001000
00000000
00010000
00000000
00001000
00000000
00000100
,  // measure 23
00000000
00000001
00000000
00000010
00000000
00001000
00000000
00010000
,  // measure 24
00000000
01000000
00000000
10000000
00000000
00100000
00000000
10000000
,  // measure 25
01000000
00010000
00001000
00010000
,  // measure 26
01000000
00010000
00001000
00000000
00001000
00010000
01000000
00000000
,  // measure 27
00010000
00001000
00000100
00001000
,  // measure 28
00010000
00001000
00000100
00000000
00000100
00001000
00010000
00000000
,  // measure 29
00000010
00001000
00000001
00000010
,  // measure 30
00000100
00010000
00001000
00000000
01000000
00001000
00010000
00000000
,  // measure 31
00001000
00000010
00000000
00000001
00000000
00001000
00000001
00000000
,  // measure 32
00001000
00000010
00001000
00000010
00010000
00001000
00010000
00001000
,  // measure 33
00000100
00001000
00010000
00001000
,  // measure 34
00000100
00001000
00010000
00000000
00010000
00001000
00000100
00000000
,  // measure 35
00001000
00010000
01000000
00010000
,  // measure 36
00001000
00010000
01000000
00000000
01000000
00010000
00001000
00000000
,  // measure 37
00100000
00010000
10000000
00100000
,  // measure 38
01000000
00001000
00010000
00000000
00000100
00010000
00001000
00000000
,  // measure 39
00010000
00100000
00000000
10000000
00000000
00010000
10000000
00000000
,  // measure 40
00010000
00100000
00010000
00100000
00001000
00010000
00001000
00010000
,  // measure 41
00002000
00000000
00000000
00003200
00000000
00000000
00000302
00000000
,  // measure 42
00000023
00000000
00000000
00002030
00000000
00000000
00023000
00000000
,  // measure 43
00032000
00000000
00000000
00003200
00000000
00000000
00002300
00000000
,  // measure 44
00023000
00100000
00001000
00130000
,  // measure 45
10000000
00000000
01000000
10000000
00000000
10000000
00010000
00000000
,  // measure 46
00100000
00100000
01000000
01000000
,  // measure 47
00010000
00000000
00001000
00000100
00000000
00000100
00000010
00000000
,  // measure 48
00001000
00000000
00001000
00000000
00010000
00000000
00010000
01000000
,  // measure 49
00020000
00000000
00000000
02030000
00000000
00000000
23000000
00000000
,  // measure 50
30020000
00000000
00000000
00230000
00000000
00000000
02300000
00000000
,  // measure 51
03002000
00000000
00000000
00023000
00000000
00000000
02030000
00000000
,  // measure 52
03020000
00001000
00100000
00031000
,  // measure 53
00000010
00000000
00000001
00000100
00000000
00000100
00000010
00000000
,  // measure 54
00000100
00000100
00001000
00001000
,  // measure 55
00010000
00000000
01000000
10000000
00000000
10000000
00100000
00000000
,  // measure 56
00010000
00000000
00010000
00000000
00001000
00000000
00001000
00000100
,  // measure 57
00000001
00000100
00000001
00000100
00000010
00010000
00000010
00010000
,  // measure 58
00002000
00000000
00000000
00003200
00000000
00000000
00000302
00000000
,  // measure 59
00000023
00000000
00000000
00002030
00000000
00000000
00023000
00000000
,  // measure 60
00230000
00000000
00000000
02300000
00000000
00000000
03020000
00000000
,  // measure 61
20030000
01000000
00010000
00100000
,  // measure 62
32000000
00000000
00000000
03020000
00000000
00000000
00032000
00000000
,  // measure 63
00023000
00000000
00000000
00230000
00000000
00000000
00320000
00000000
,  // measure 64
00032000
00000000
00000000
00003020
00000000
00000000
00000230
00000000
,  // measure 65
00000302
00000100
00001000
00000100
,  // measure 66
00002003
00000000
00000000
00003020
00000000
00000000
00000230
00000000
,  // measure 67
00002300
00000000
00000000
00023000
00000000
00000000
02030000
00000000
,  // measure 68
03200000
00000000
00000000
20300000
00000000
00000000
32000000
00000000
,  // measure 69
03020000
00001000
01000000
00001000
,  // measure 70
00030200
00000000
00000000
00000320
00000000
00000000
00002030
00000000
,  // measure 71
02003000
00000000
00000000
03200000
00000000
00000000
00320000
00000000
,  // measure 72
00030200
00000000
00000000
00000320
00000000
00000000
00002030
00000000
,  // measure 73
00023000
00100000
10000000
01000000
,  // measure 74
00032000
00000000
00000000
00203000
00000000
00000000
20300000
00000000
,  // measure 75
30020000
00000000
00000000
02030000
00000000
00000000
03200000
00000000
,  // measure 76
00302000
00000000
00000000
00023000
00000000
00000000
00030020
00000000
,  // measure 77
00002030
00000010
00000100
00000010
,  // measure 78
00003002
00000000
00000000
00000023
00000000
00000000
00002030
00000000
,  // measure 79
00023000
00000000
00000000
02030000
00000000
00000000
23000000
00000000
,  // measure 80
30020000
00000000
00000000
00032000
00000000
00000000
00003002
00000000
,  // measure 81
00000203
00000010
00002300
00000001
,  // measure 82
00023000
00000000
00000000
00230000
00000000
00000000
20300000
00000000
,  // measure 83
32000000
00100000
00001000
00100000
,  // measure 84
03020000
00000000
00000000
00032000
00000000
00000000
00003200
00000000
,  // measure 85
00000320
00000100
00001000
00000100
,  // measure 86
00020030
00000000
00000000
00032000
00000000
00000000
00003200
00000000
,  // measure 87
00000320
00000000
00000000
00002030
00000000
00000000
02003000
00000000
,  // measure 88
03200000
00000000
00000000
00302000
00000000
00000000
00003200
00000000
,  // measure 89
00000310
00001000
00010000
10000000
,  // measure 90
20020000
00000000
00000000
30000000
02030000
00000000
23000000
00000000
,  // measure 91
30200000
00000000
00320000
00032000
,  // measure 92
00003020
00000000
00000230
00000302
,  // measure 93
00000023
00000000
00002030
00000000
,  // measure 94
00023000
00000000
20030000
30020000
,  // measure 95
00032000
00000000
00003002
00002003
,  // measure 96
00023000
00000000
02030000
23000000
,  // measure 97
30200000
00000000
00000000
00000000
02300000
00000000
00000000
03000000
,  // measure 98
02000200
00000000
00000000
00000000
,  // measure 99
00000000
00000000
00000000
00000000
,  // measure 100
03000300
00000000
00000000
00000000
;

//---------------techno-double8 - ----------------
#NOTEDATA:;
#CHARTNAME:;
#STEPSTYPE:techno-double8;
#DESCRIPTION:A test for something vaguely like ez2catch;
#CHARTSTYLE:;
#DIFFICULTY:Challenge;
#METER:1;
#RADARVALUES:0.027038,0.253147,0.056080,0.000000,0.000000,27.000000,8.000000,8.000000,0.000000,444.000000,8.000000,0.000000,0.000000,0.000000,0.027038,0.253147,0.056080,0.000000,0.000000,27.000000,8.000000,8.000000,0.000000,444.000000,8.000000,0.000000,0.000000,0.000000;
#CREDIT:riak;
#NOTES:
0000000000000000
0000000000000000
MM000000000000MM
MMMM00000000MMMM
,
MMMMMM0000MMMMMM
MMMMMM0000MMMMMM
MMMMM0000MMMMMMM
MMMM0000MMMMMMMM
,
MMM0000MMMMMMMMM
MMM0000MMMMMMMMM
MMMM0000MMMMMMMM
MMMMM0000MMMMMMM
,
MMMMMM0000MMMMMM
MMMMMM0000MMMMMM
MMMMMMM0000MMMMM
MMMMMMMM0000MMMM
,
MMMMMMMMM0000MMM
MMMMMMMMM0000MMM
MMMMMMMMMM0000MM
MMMMMMMMMM0000MM
,
MMMMMMMMMMM0000M
MMMMMMMMMMM0000M
MMMMMMMMMMMM0000
MMMMMMMMMMM0000M
,
MMMMMMMMMM0000MM
MMMMMMMMMM0000MM
MMMMMMMMM0000MMM
MMMMMMMM0000MMMM
,
MMMMMMM0000MMMMM
MMMMMMM0000MMMMM
MMMMMM0000MMMMMM
MMMMM0000MMMMMMM
,
MMMM0000MMMMMMMM
MMMM0000MMMMMMMM
MMM0000MMMMMMMMM
MMM0000MMMMMMMMM
,
0000000000000000
MMMM0000MMMM0000
0000000000000000
MMMM0000MMMM0000
,
0000000000000000
0MMMM0000000MMMM
0000000000000000
0MMMM0000000MMMM
,
0000000000000000
0000MMMM0000MMMM
0000000000000000
0000MMMM0000MMMM
,
0000000000000000
0000000000000000
0000000000000000
0000000000000000
,
0000000000000000
0000000000000000
0000000000000000
0000000000000000
,
0000000000000000
0000000000000000
0000000000000000
0000000000000000
,
0000000000000000
0000000000000000
0000000000000000
0000000000000000
,
0000000000000000
0000000000000000
0000000000000000
0000000000000000
,
0000000000000000
0000000000000000
0000000000000000
0000000000000000
,
0000000000000000
0000000000000000
0000000000000000
0000000000000000
,
0000000000000000
0000000000000000
0000000000000000
0000000000000000
,
0000000000000000
0000000000000000
0000000000000000
0000000000000000
,
0000000000000000
0000000000000000
0000000000000000
0000000000000000
,
0000000000000000
0000000000000000
0000000000000000
0000000000000000
,
0000000000000000
0000000000000000
0000000000000000
0000000000000000
,
0000000000000000
0000000000000000
0000000000000000
0000000000000000
,
0000011111000000
0000001111000000
0000000111000000
0000000111000000
,
0000001110000000
0000011100000000
0000001110000000
0000000111000000
;

//---------------dance-double - ----------------
#NOTEDATA:;
#CHARTNAME:Basic;
#STEPSTYPE:dance-double;
#DESCRIPTION:;
#CHARTSTYLE:;
#DIFFICULTY:Easy;
#METER:6;
#RADARVALUES:0.338481,0.455648,0.112159,0.343488,0.000000,338.000000,322.000000,16.000000,49.000000,0.000000,0.000000,0.000000,0.000000,0.000000,0.338481,0.455648,0.112159,0.343488,0.000000,338.000000,322.000000,16.000000,49.000000,0.000000,0.000000,0.000000,0.000000,0.000000;
#CREDIT:Riakodoadm;
#NOTES:
// measure 0
00000000
00000000
00000000
00000000
,  // measure 1
20020000
30030000
00100000
00100000
,  // measure 2
00200000
00300000
00001000
00001000
,  // measure 3
00002000
00003000
00010000
00010000
,  // measure 4
00020000
00030000
00002020
00003030
,  // measure 5
00000002
00000003
00000100
00000100
,  // measure 6
00000200
00000300
00010000
00010000
,  // measure 7
00020000
00030000
00001000
00001000
,  // measure 8
00002000
00003000
00220000
00330000
,  // measure 9
00000000
00100000
00000000
00001000
,  // measure 10
00000000
00100000
00000000
00010000
,  // measure 11
00000000
01000000
00000000
00100000
,  // measure 12
00000000
10000000
00000000
00010000
,  // measure 13
00000000
00100000
00000000
00001000
,  // measure 14
00000000
00010000
00000000
00000010
,  // measure 15
00000000
00001000
00000000
00000100
,  // measure 16
00000000
00000010
00000000
00000001
,  // measure 17
00001001
00000010
00000000
00000100
,  // measure 18
00000000
00000010
00000000
00010000
,  // measure 19
00011000
00001000
00000000
00100000
,  // measure 20
00000000
00001000
00000000
00100000
,  // measure 21
01100000
01000000
00000000
10000000
,  // measure 22
10010000
00010000
00000000
00100000
,  // measure 23
00101000
00001000
00011000
00010000
,  // measure 24
00010010
00000010
00001010
00001000
,  // measure 25
00000010
00010000
00001000
00010000
,  // measure 26
00000010
00001000
00000100
00001000
,  // measure 27
00000001
00000100
00000010
00000100
,  // measure 28
00001000
00010000
00000010
00010000
,  // measure 29
00001000
00100000
00010000
00100000
,  // measure 30
00001000
01000000
00100000
10000000
,  // measure 31
00100000
01000000
00010000
10000000
,  // measure 32
01000000
00000000
00010000
00000000
01000000
10000000
00010000
00000000
,  // measure 33
00100000
00001000
00010000
00001000
,  // measure 34
00100000
00010000
01000000
00010000
,  // measure 35
10000000
01000000
00100000
01000000
,  // measure 36
00010000
00001000
00100000
00001000
,  // measure 37
00010000
00000010
00001000
00000010
,  // measure 38
00010000
00000100
00000010
00000001
,  // measure 39
00000010
00000100
00001000
00000001
,  // measure 40
00000100
00000000
00001000
00000000
00000100
00000001
00001000
00000000
,  // measure 41
00000010
00000000
00000000
00000020
00000000
00000000
00000000
00000000
,  // measure 42
00010000
00000000
00000000
00020030
00000000
00000000
00000000
00000000
,  // measure 43
00001000
00000000
00000000
00032000
00000000
00000000
00000000
00000000
,  // measure 44
00203000
00010000
00001000
00310000
,  // measure 45
00100000
01000000
10000000
01000000
,  // measure 46
00100000
00100000
00001000
00001000
,  // measure 47
00010000
00000010
00000100
00000010
,  // measure 48
00010000
00010000
00001000
00001000
,  // measure 49
00100000
00000000
00000000
00200000
00000000
00000000
00000000
00000000
,  // measure 50
00001000
00000000
00000000
00302000
00000000
00000000
00000000
00000000
,  // measure 51
00010000
00000000
00000000
00023000
00000000
00000000
00000000
00000000
,  // measure 52
00030020
00001000
00010000
00001030
,  // measure 53
00000010
00000100
00000001
00000100
,  // measure 54
00000010
00000010
00010000
00010000
,  // measure 55
00001000
00100000
01000000
00100000
,  // measure 56
00001000
00001000
00010000
00010000
,  // measure 57
00022000
00000000
00000000
00033000
,  // measure 58
00000010
00010000
00000010
00001000
,  // measure 59
00000010
00000100
00000010
00000001
,  // measure 60
00000010
00001000
00000100
00000010
,  // measure 61
00000002
00000010
00001000
00000013
,  // measure 62
00000001
00000010
00000100
00000010
,  // measure 63
00001000
00010000
00000010
00010000
,  // measure 64
00001000
00000100
00001000
00010000
,  // measure 65
00200000
10000000
01000000
10300000
,  // measure 66
01000000
00010000
00100000
00010000
,  // measure 67
00100000
01000000
00100000
10000000
,  // measure 68
00100000
00010000
01000000
00100000
,  // measure 69
20000000
00100000
00010000
30100000
,  // measure 70
10000000
00100000
01000000
00100000
,  // measure 71
00010000
00001000
00100000
00001000
,  // measure 72
00010000
01000000
00010000
00001000
,  // measure 73
00000020
00000001
00000100
00000031
,  // measure 74
00000010
00000000
00000000
00000001
00000000
00000000
00001000
00000000
,  // measure 75
00000010
00000000
00000000
00010000
00000000
00000000
00001000
00000000
,  // measure 76
00100000
00000000
00000000
00001000
00000000
00000000
00010000
00000000
,  // measure 77
00000200
00000010
00001000
00000310
,  // measure 78
00000100
00000000
00000000
00010000
00000000
00000000
00001000
00000000
,  // measure 79
01000000
00000000
00000000
00010000
00000000
00000000
00100000
00000000
,  // measure 80
00001000
00000000
00000000
00010000
00000000
00000000
01000000
00000000
,  // measure 81
20000000
00100000
30020000
00100000
,  // measure 82
10030000
00000000
00000000
10000000
00000000
00000000
10000000
00000000
,  // measure 83
00002000
00100000
01000000
00100000
,  // measure 84
00013000
00000000
00000000
00010000
00000000
00000000
00010000
00000000
,  // measure 85
00000002
00000010
00000100
00000013
,  // measure 86
00000001
00000010
00001000
00000010
,  // measure 87
00000100
00010000
00001000
01000000
,  // measure 88
00100000
00010000
00001000
00000100
,  // measure 89
00000020
00000000
00020000
00030030
,  // measure 90
00002002
00000003
00000010
00000001
,  // measure 91
00003020
00000000
00010000
00000100
,  // measure 92
00020030
00000000
00001000
00000010
,  // measure 93
00002000
00033000
00220000
00330000
,  // measure 94
20000000
00000000
00100000
00010000
,  // measure 95
32000000
00000000
10000000
00100000
,  // measure 96
03020000
00000000
00001000
00000100
,  // measure 97
00000020
00030030
00002020
00003030
,  // measure 98
00002002
00000000
00000000
00000000
,  // measure 99
00000000
00000000
00000000
00000000
,  // measure 100
00003003
00000000
00000000
00000000
;
