#TITLE:Vertex ALPHA;
#SUBTITLE:;
#ARTIST:Silvia;
#TITLETRANSLIT:;
#SUBTITLETRANSLIT:;
#ARTISTTRANSLIT:;
#GENRE:TRANCE;
#CREDIT:(Info needed);
#BANNER:Vertex ALPHA.png;
#BACKGROUND:Vertex ALPHA-bg.png;
#LYRICSPATH:;
#CDTITLE:;
#MUSIC:Vertex ALPHA.ogg;
#OFFSET:0.000000;
#SAMPLESTART:106.654999;
#SAMPLELENGTH:15.000000;
#SELECTABLE:YES;
#BPMS:0.000000=45.005001
,16.000000=90.010002
,48.000000=180.020004
,240.000000=90.010002
,304.000000=180.020004
,504.000000=90.010002
,536.000000=45.005001
;
#STOPS:
;
#BGCHANGES:;
#KEYSOUNDS:;
#ATTACKS:;

//---------------dance-single - Agh----------------
#NOTES:
     dance-single:
     Riakodoadm:
     Hard:
     13:
     0.646513,1.021490,0.347493,0.408816,0.392463,1107.000000,1022.000000,85.000000,100.000000,0.000000,0.000000,0.646513,1.021490,0.347493,0.408816,0.392463,1107.000000,1022.000000,85.000000,100.000000,0.000000,0.000000:
0000
0000
0000
0000
,
0200
0000
0000
0000
0300
0000
2000
3000
0020
0000
0000
0000
0030
0000
0000
0000
,
2000
0000
0000
0010
0000
0000
0001
0000
3020
0000
0000
0100
0000
0000
0001
0000
0230
0000
0000
1000
0000
0000
0010
0000
0302
0000
0000
0000
0000
0000
0003
0000
,
0200
0000
0000
0000
0300
0000
0002
0003
0020
0000
0000
0000
0030
0000
0000
0000
,
1000
0001
1000
0100
0000
0100
1000
0001
0100
0001
0100
0001
1000
0100
1000
0100
,
0010
0001
1000
0001
0000
0001
0010
0001
1000
0010
1000
0010
0100
0001
0100
0010
,
1000
0100
0010
0001
0000
1000
0010
1000
0001
0100
0001
0010
0001
1000
0100
1000
,
0010
0100
0000
0110
0000
0100
1000
0100
0001
0010
0100
1000
0001
0100
0010
1000
,
0001
1000
0001
0010
0000
0010
0001
1000
0010
1000
0010
1000
0001
0010
0001
0010
,
0100
1000
0001
1000
0000
1000
0100
1000
0001
0100
0001
0100
0010
1000
0010
0100
,
0001
0010
0100
1000
0000
0001
0100
0001
1000
0010
1000
0100
1000
0001
0010
0001
,
0011
0010
0000
0100
1100
1000
0010
0100
0001
0001
0011
0010
0110
0100
1100
1000
,
1010
0010
1000
0001
0000
0001
0010
0001
,
1000
0100
0010
0100
1000
0010
0100
0010
,
1000
0100
1000
0001
0000
0001
0010
0001
,
1000
0100
1000
0010
0100
0001
0100
0010
,
1000
0100
0001
0100
0000
0100
1000
0010
,
0100
0001
0010
0100
1000
0100
0010
0001
,
0100
0010
0000
1000
0000
0010
0100
0001
,
0010
0010
0100
0100
1000
1000
0010
0100
,
0001
0010
0001
1000
0000
1000
0010
1000
,
0001
0100
0010
0100
0001
0010
0100
0010
,
0001
0100
0001
1000
0000
1000
0010
1000
,
0001
0100
0001
0010
0100
1000
0100
0010
,
0001
0100
1000
0100
0000
0100
0001
0010
,
0100
1000
0010
0100
0001
0100
0010
1000
,
0100
0010
0000
0001
0000
0010
0100
1000
,
0010
0000
0010
0000
0100
0000
0100
0000
0001
1000
0001
1000
0010
0100
0010
0100
,
0001
0010
0100
1000
0000
1000
0010
0100
,
0010
0001
0010
0100
0010
1000
0010
0100
,
0001
0010
0100
1000
0000
1000
0100
0010
,
0001
0010
0100
0010
1000
0010
0001
0100
,
0010
1000
0001
0100
0000
0100
0001
1000
,
0100
0001
0100
1000
0010
0100
0001
0100
,
0010
0001
0000
0010
0000
1000
0100
0010
,
0001
0001
0100
0100
0010
0010
1000
0100
,
1000
0010
0100
0001
0000
0001
0010
0100
,
0010
1000
0010
0100
0010
0001
0010
0100
,
1000
0010
0100
0001
0000
0001
0100
0010
,
1000
0010
0100
0010
0001
0010
1000
0100
,
0010
0001
1000
0100
0000
0100
1000
0001
,
0100
1000
0100
0001
0010
0100
1000
0100
,
0010
1000
0000
0010
0000
0001
0100
0010
,
1000
0100
1000
0100
0010
0100
0010
0100
0010
0001
0010
0001
1000
0001
1000
0001
,
1000
0000
0100
1000
0100
0000
1001
0000
,
0011
0000
0001
0010
0001
0000
0110
0000
,
1100
0000
0100
1000
0001
0000
0101
0000
,
0110
0010
0100
1000
0100
0010
0100
0010
,
1000
0001
1000
0001
0000
0100
0001
1000
,
0100
0001
0100
1000
0100
0010
0001
1000
,
0010
1000
0010
1000
0000
0010
0100
0001
,
0100
1000
0100
0001
0010
0100
1000
0010
,
1010
0000
1000
0010
0100
0000
0101
0000
,
0011
0000
0001
0100
0010
0000
1010
0000
,
1100
0000
0100
0010
0001
0000
0101
0000
,
1010
1000
0010
0001
0010
1000
0100
0010
,
0001
1000
0001
1000
0000
0100
1000
0001
,
0100
1000
0100
0001
0100
0010
1000
0001
,
0010
0001
0010
0001
0000
0010
0100
1000
,
0100
1000
0100
1000
0001
0100
0001
0100
0010
1000
0100
0010
0001
0010
0100
0000
,
2100
0000
0000
3002
0000
0000
2003
0000
3020
0000
0000
2030
0001
0000
3200
0000
,
0302
0000
0000
2003
0000
0000
3020
0000
0032
0000
0000
0000
0010
0000
0000
0000
,
0203
0000
0000
2300
0000
0000
3002
0000
0023
0000
0000
2030
0000
0000
3200
0000
,
0320
0000
0000
0032
0000
0000
0203
0000
0320
0000
0000
0000
0001
0000
0000
0000
,
0230
0000
0000
0302
0000
0000
0023
0000
0032
0000
0000
2003
0100
0000
3200
0000
,
2300
0000
0000
3020
0000
0000
0230
0000
0302
0000
0000
0000
1000
0000
0000
0000
,
0203
0000
0000
0302
0000
0000
0023
0000
0230
0000
0000
2300
0000
0000
3020
0000
,
0032
0000
0000
0023
0000
0000
2030
0000
3002
0000
0000
0000
0000
0000
0003
0000
,
0102
0000
0000
2003
0000
0000
3002
0000
0023
0000
0000
0032
0000
0000
0203
0000
,
2300
0000
0000
3002
0000
0000
0023
0000
2030
0000
0000
0000
0000
0000
0000
0000
,
3200
0000
0000
0302
0000
0000
2003
0000
3020
0000
0000
0032
0000
0000
0203
0000
,
0320
0000
0000
2030
0000
0000
3200
0000
0320
0000
0000
0000
0032
0000
0000
0000
,
2003
0000
0000
3200
0000
0000
0320
0000
0032
0000
0000
0000
0000
0000
0000
0000
,
2003
0000
0000
3020
0000
0000
0230
0000
0302
0000
0000
0000
0000
0000
0000
0000
,
2003
0000
0000
3020
0000
0000
0032
0000
2003
0000
0000
3200
0000
0000
0302
0000
,
0023
0000
0000
2030
0000
0000
3002
0000
0103
0001
0100
1000
0001
0100
1000
0010
,
0000
0000
0000
0000
,
0000
0000
0000
0000
,
1001
0000
1000
0100
0010
0000
0110
0000
,
0011
0000
0001
0100
0010
0000
1010
0000
,
1100
0000
1000
0010
0100
0000
0101
0000
,
0110
0010
0001
0010
1000
0010
0100
0001
,
0101
0000
0100
0001
0010
0000
0110
0000
,
1100
0000
0100
0010
0001
0000
0011
0000
,
1001
0000
1000
0001
0100
0000
0110
0000
,
1001
0001
0010
0100
0001
0100
1000
0010
,
1010
0000
1000
0010
1000
0000
1100
0000
,
0011
0000
0001
0100
1000
0000
1100
0000
,
0101
0000
0100
0001
0010
0000
0011
0000
,
1001
0001
0010
0100
1000
0010
0001
0010
,
0110
0000
0010
0001
0010
0000
1010
0000
,
1100
0000
1000
0100
0001
0000
0101
0000
,
0110
0000
0100
1000
0010
0000
0110
0000
,
0010
1000
0010
1000
0100
1000
0100
1000
0100
0010
0100
0010
0001
0010
0001
0010
,
0001
0000
0001
0100
0010
0000
0110
0000
,
1010
0000
1000
0100
0010
0000
0011
0000
,
0101
0000
0001
0010
0100
0000
1100
0000
,
0110
0010
1000
0010
0001
0010
0100
1000
,
1100
0000
0100
1000
0010
0000
0110
0000
,
0101
0000
0100
0010
1000
0000
1010
0000
,
1001
0000
0001
1000
0100
0000
0110
0000
,
1001
1000
0010
0100
0110
0010
1000
0001
,
0011
0000
0010
0110
0100
0000
1100
0000
,
1010
0010
1000
0001
0100
0001
1000
0010
,
1010
0000
1000
1100
0100
0000
0110
0000
,
0011
0001
0100
1000
0100
0010
1000
0001
,
0101
0000
0001
0011
0010
0000
1001
0000
,
1100
0000
1000
1010
0010
0000
1001
0001
,
0011
0000
0010
0110
0100
0000
1010
0000
,
1000
0010
1000
0010
0100
0001
0100
0001
0010
0001
0100
0010
1000
0100
0010
0001
,
1000
0010
1000
0001
0000
0100
1000
0100
,
0001
0010
0100
1000
0100
0010
1000
0010
,
0001
0010
0001
0100
0000
1000
0100
0001
,
0010
1000
0010
0100
1000
0010
0100
0001
,
1000
0100
1000
0001
0000
0010
1000
0010
,
0001
0100
0010
1000
0100
0001
0100
1000
,
0010
1000
0001
1000
0000
1000
0100
1000
,
0001
0100
1000
0100
0010
0001
0010
1000
,
0001
0010
0001
1000
0000
0100
0001
0100
,
1000
0010
0100
0001
0100
0010
0001
0010
,
1000
0010
1000
0100
0000
0001
0100
1000
,
0010
0001
0010
0100
0001
0010
0100
1000
,
0001
0100
0001
1000
0000
0010
0001
0010
,
1000
0100
0010
0001
0100
1000
0100
0001
,
0010
0001
1000
0001
0000
0100
0010
0100
,
0010
0100
0001
1000
0010
0100
0001
1000
0100
0010
0001
1000
0010
0100
0001
1000
,
0001
1000
0100
0010
0000
0010
0001
0100
0010
0100
1000
0100
0010
0100
0001
0010
,
0100
1000
0010
0100
0000
0100
0001
1000
0010
0100
0010
0001
0010
0100
0010
1000
,
0002
0000
0000
0000
0000
0103
0001
1000
0100
0010
0001
1000
0010
1000
0100
1000
,
0020
0000
0000
0000
0000
0130
0001
1000
0010
0100
0001
0010
0001
0100
0010
1000
,
2002
0000
0000
0000
3003
1000
0001
1000
0010
0001
0010
1000
0001
0010
0100
1000
,
2200
0000
0000
0000
3300
0100
0010
0001
0100
0010
0001
0010
1000
0010
0100
0001
,
0202
0000
0000
0000
0303
0100
0001
1000
0010
0100
0001
0010
0100
1000
0001
0010
,
0022
0000
0000
0000
0033
0001
0010
0001
1000
0010
1000
0100
0001
1000
0010
0001
,
2002
0000
0000
0000
,
0000
3003
0000
0000
0000
0000
0000
0000
0000
0000
0000
0000
0000
0000
0000
0000
;

//---------------dance-single - ----------------
#NOTES:
     dance-single:
     Riakodoadm:
     Easy:
     5:
     0.307196,0.413926,0.253466,0.167614,0.000000,526.000000,464.000000,62.000000,41.000000,0.000000,0.000000,0.307196,0.413926,0.253466,0.167614,0.000000,526.000000,464.000000,62.000000,41.000000,0.000000,0.000000:
0000
0000
0000
0000
,
0000
0000
0000
0000
,
2000
3000
0200
0300
,
0020
0030
0002
0003
,
1000
1000
0001
0001
,
0100
0100
0001
0001
,
1000
1000
0100
1000
,
0010
0001
1000
0010
,
0001
0001
1000
1000
,
0100
0100
1000
1000
,
0001
0001
0100
0100
,
0010
1000
0001
0010
,
0001
0010
0001
0000
,
1000
1000
0001
0001
,
1000
0010
1000
0000
,
0001
0001
1000
1000
,
0001
0010
0100
0000
,
1000
0100
0010
0000
,
0001
0010
1000
0000
,
0001
0100
1000
0010
,
1000
0010
1000
0000
,
0001
0001
1000
1000
,
0001
0010
0001
0000
,
1000
1000
0001
0001
,
1000
0010
0100
0000
,
0001
0100
0010
0000
,
1000
0010
0001
0000
,
1000
0100
0001
0010
,
1001
0010
0001
0010
,
0001
0100
0001
1000
,
1001
1000
0010
1000
,
0100
1000
0001
0010
,
0110
1000
0100
1000
,
0001
0100
0001
0100
,
0110
0010
1000
0010
,
0001
0100
1000
0010
,
1001
0010
1000
0010
,
1000
0100
1000
0001
,
1001
0001
0010
0001
,
0100
0001
1000
0010
,
0110
0001
0100
0001
,
1000
0100
1000
0100
,
0110
0010
0001
0010
,
1000
0100
0001
0010
,
1001
0001
1000
0000
,
1100
0100
1000
0000
,
1001
1000
0001
1000
,
0010
0010
0010
0000
,
0100
0001
0100
0001
,
1000
0100
1000
0100
,
0010
0001
1000
0010
,
0100
0001
1000
0001
,
1001
1000
0001
0000
,
0101
0100
0001
0000
,
1001
0001
1000
0001
,
0010
0010
0010
0000
,
0100
1000
0100
1000
,
0001
0100
0001
0100
,
0010
1000
0001
0010
,
0100
1000
0001
1000
,
2002
0000
0000
0000
3003
0000
0020
0030
,
0200
0000
0000
0000
0300
0000
2000
3000
,
0002
0000
0000
0003
,
2000
0000
0000
3001
,
2000
0000
0000
0000
3000
0000
0020
0030
,
0200
0000
0000
0000
0300
0000
0002
0003
,
2000
0000
0000
3000
,
0002
0000
0000
0003
,
2001
0001
0001
3001
,
1002
1000
1000
1003
,
2100
0100
0100
3100
,
0210
0010
0010
0310
,
0021
0001
0001
0031
,
0102
0100
0100
0103
,
0210
0010
0010
0310
,
1020
0000
1000
0000
1000
0000
1030
0010
,
0000
0000
0000
0000
,
0000
0000
0000
0000
,
0000
0100
1000
0100
,
0010
0001
0010
0100
,
1000
0010
0100
0001
,
1001
0010
1001
0010
,
0001
0100
0010
0100
,
0001
1000
0100
0001
,
1000
0010
0001
0100
,
0101
0010
0101
1000
,
0001
0100
0001
0100
,
0010
1000
0010
0100
,
0001
0010
0100
1000
,
1001
0010
1001
0010
,
1000
0100
0010
0100
,
1000
0001
0100
1000
,
0001
0010
1000
0100
,
1100
0010
1100
0001
,
1001
0010
1000
0001
,
0010
0001
0100
0010
,
1000
0100
0010
0001
,
0011
0100
0011
0100
,
0001
0100
0001
1000
,
0100
1000
0010
0100
,
0001
0010
0100
1000
,
1010
0100
1010
0001
,
1001
1000
1100
1001
,
0001
0100
0010
1000
,
1001
0001
0101
1001
,
1000
0100
0010
0001
,
0011
0010
0100
0110
,
1100
1000
0010
0110
,
0101
0001
0010
0100
,
0110
0110
1001
1001
,
1000
0010
1000
0000
,
0001
1000
0001
1000
,
0001
0010
0001
0000
,
1000
0100
1000
0100
,
1000
0010
1000
0000
,
0010
0100
0001
0100
,
0010
1000
0100
0000
,
0100
0001
0010
1000
,
0001
0010
0001
0000
,
1000
0001
1000
0001
,
1000
0010
1000
0000
,
0001
0100
0001
0100
,
0001
0010
0001
0000
,
0010
0100
1000
0100
,
0010
0001
0100
0000
,
0001
0010
1000
0100
,
2001
0000
0010
3010
,
1002
0000
0010
0013
,
2001
0000
0100
3100
,
2200
3300
0220
0330
,
1002
0000
0010
0013
,
2001
0000
0010
3010
,
1002
0000
0100
0103
,
0202
0303
0220
0330
,
2020
0000
0000
0000
,
3030
0000
0000
0000
;

//---------------dance-single - Now with extra stamina drain----------------
#NOTES:
     dance-single:
     Riakodoadm:
     Medium:
     9:
     0.435097,0.551901,0.498755,0.932100,0.177835,745.000000,623.000000,122.000000,228.000000,0.000000,0.000000,0.435097,0.551901,0.498755,0.932100,0.177835,745.000000,623.000000,122.000000,228.000000,0.000000,0.000000:
0000
0000
0000
0000
,
0000
0000
0000
0000
,
2200
0000
3300
1001
2020
0000
0000
3030
,
0202
0000
0303
1001
0022
0000
0033
0000
,
0000
0001
0000
0010
0000
0100
0000
0010
0000
0001
0000
0100
0000
0001
0100
0010
,
0000
1000
0000
0100
0000
0010
0000
0100
0000
1000
0000
0010
0000
0001
0010
1000
,
0000
0100
0000
1000
0000
0100
0000
0010
0000
0100
0000
0001
0000
0010
0000
1000
,
0000
0001
0000
0010
0000
1000
0000
0001
0000
0100
0000
1000
0000
0001
0000
0100
,
0001
1000
0000
0010
0000
0100
0000
0010
0000
1000
0000
0100
0000
1000
0100
0010
,
0000
0001
0000
0100
0000
0010
0000
0100
0000
0001
0000
0010
0000
1000
0010
0001
,
0000
0100
0000
0001
0000
0100
0000
0010
0000
0100
0000
1000
0000
0010
0000
0001
,
0000
1000
0000
0010
0000
0001
0000
1000
0000
0100
0000
0001
0000
1000
0000
0100
,
1000
0100
0010
0001
,
0010
0000
0001
0000
1000
0010
1000
0010
,
0100
1000
0100
0001
,
0100
0000
0010
0000
1000
0001
1000
0001
,
0010
0100
0010
0001
,
1000
0010
0100
0001
,
0010
0001
0000
1000
0010
0000
0110
0000
,
0101
0000
1100
0000
0100
1000
0001
1000
,
0001
0100
0010
1000
,
0010
0000
1000
0000
0001
0010
0001
0010
,
0100
0001
0100
1000
,
0100
0000
0010
0000
0001
1000
0001
1000
,
0010
0100
0010
1000
,
0001
0010
0100
1000
,
0010
1000
0000
0001
0010
0000
0110
0000
,
1100
0000
0101
0000
0100
0001
1000
0001
,
1000
0010
1000
0010
0000
1000
0100
0000
,
1000
1010
0001
0011
,
0010
0100
0010
0100
0000
1000
0001
0000
,
0100
1001
0010
1001
,
0001
0010
0100
0010
0000
0001
0010
0000
,
0001
0101
1000
1100
,
0100
0010
0000
0011
0000
0010
0100
1000
,
0010
1000
0001
1000
0100
0010
0001
1000
,
0001
0010
0001
0010
0000
0001
0100
0000
,
0001
0011
1000
1010
,
0010
0100
0010
0100
0000
0001
1000
0000
,
0100
1001
0010
1001
,
1000
0010
0100
0010
0000
1000
0010
0000
,
1000
1100
0001
0101
,
0100
0010
0000
1010
0000
0010
0100
0001
,
0010
0001
1000
0001
0100
0010
1000
0010
,
2010
0000
0000
0100
0000
0000
3001
0000
,
0012
0000
0000
0100
0000
0000
1003
0000
,
2100
0000
0000
0001
0000
0000
3010
0000
,
1000
0100
0001
0010
,
1000
0010
0100
0001
0000
0001
0100
0000
,
0101
0101
1100
1100
,
1000
0100
0001
0100
0000
0100
1000
0000
,
1010
1010
0011
0011
,
0102
0000
0000
0010
0000
0000
1003
0000
,
2100
0000
0000
0010
0000
0000
3001
0000
,
0012
0000
0000
1000
0000
0000
0103
0000
,
0001
0010
1000
0100
,
0001
0100
0010
1000
0000
1000
0010
0000
,
1010
1010
0011
0011
,
0001
0010
1000
0010
0000
0010
0001
0000
,
0101
0101
1010
1010
,
2100
0000
0000
3002
0000
0000
2003
0000
3020
0000
0000
0230
0000
0000
0302
0000
,
0023
0000
0000
2030
0000
0000
3020
0000
0032
0000
0000
0000
0000
0000
0000
0000
,
0203
0000
0000
0320
0000
0000
2030
0000
3020
0000
0000
0230
0000
0000
0302
0000
,
0023
0000
0000
2030
0000
0000
3020
0000
0032
0000
0000
0000
0000
0000
0000
0000
,
0203
0000
0000
0302
0000
0000
0023
0000
0032
0000
0000
2003
0000
0000
3200
0000
,
2300
0000
0000
3020
0000
0000
0230
0000
0302
0000
0000
0000
0000
0000
0000
0000
,
0203
0000
0000
0302
0000
0000
0023
0000
0230
0000
0000
2300
0000
0000
3020
0000
,
0032
0000
0000
0023
0000
0000
2030
0000
3002
0000
0000
0000
0000
0000
0003
0000
,
0102
0000
0000
2003
0000
0000
3002
0000
0023
0000
0000
0230
0000
0000
2300
0000
,
3020
0000
0000
0032
0000
0000
0023
0000
2030
0000
0000
0000
0000
0000
0000
0000
,
3200
0000
0000
0320
0000
0000
0032
0000
0023
0000
0000
0230
0000
0000
2300
0000
,
3020
0000
0000
0032
0000
0000
0023
0000
2030
0000
0000
0000
3002
0000
0000
0000
,
2003
0000
0000
3200
0000
0000
0320
0000
0032
0000
0000
0000
0000
0000
0000
0000
,
2003
0000
0000
3020
0000
0000
0230
0000
0302
0000
0000
0000
0000
0000
0000
0000
,
2003
0000
0000
3200
0000
0000
0302
0000
0203
0000
0000
2300
0000
0000
3020
0000
,
0032
0000
0000
2003
0000
0000
3200
0000
0302
0000
0000
0000
0000
0000
0000
0003
,
0000
0000
0000
0000
,
0000
0000
0000
0000
,
2200
0000
3300
2002
0000
3003
0202
0303
,
2020
0000
3030
2002
0000
3003
0022
0033
,
0220
0000
0330
2200
0000
3300
2002
3003
,
0102
0010
0100
0013
,
0202
0000
0303
0220
0000
0330
2200
3300
,
0220
0000
0330
2020
0000
3030
2002
3003
,
0022
0000
0033
0220
0000
0330
0022
0033
,
0201
1000
0001
1300
,
0202
0000
0303
2002
0000
3003
2200
3300
,
0022
0000
0033
2002
0000
3003
2020
3030
,
0220
0000
0330
0202
0000
0303
2002
3003
,
2100
0001
0010
3100
,
2200
0000
3300
0220
0000
0330
2200
3300
,
0202
0000
0303
0220
0000
0330
0202
0303
,
0022
0000
0033
2020
0000
3030
0220
0330
,
0001
0010
0100
1000
0001
0100
0010
1000
,
2100
0000
3010
1000
0000
0010
0100
0000
,
0201
0000
0301
0010
0000
0001
0100
0000
,
0210
0000
0310
1000
0000
0001
0010
0000
,
1200
0001
0010
1300
,
2001
0000
3010
0100
0000
0001
0100
0000
,
0201
0000
0301
0010
0000
0100
1000
0000
,
2010
0000
3010
0001
0000
0010
1000
0000
,
1200
0310
1020
0031
,
2200
0000
3300
0220
0000
0330
2020
3030
,
1200
0000
0010
0000
0001
0000
0001
0300
,
0202
0000
0303
0220
0000
0330
0022
0033
,
0201
0000
0010
0000
1000
0000
1000
0300
,
0120
0000
0130
0001
0000
1000
0100
0000
,
0210
0000
0310
0001
0000
1000
0010
0000
,
1020
0000
0031
0010
0000
1000
0100
0000
,
1000
0100
0010
0001
1000
0010
0100
0001
,
1000
0010
1000
0100
,
1000
0000
0010
0000
0100
0010
0100
0000
,
0001
0010
0001
0100
,
0001
0000
0010
0000
0100
0010
0100
0000
,
1000
0100
0001
0100
,
1000
0000
0100
0000
0001
0100
1000
0000
,
0001
0100
1000
0100
,
0001
0000
0100
0000
1000
0100
0001
0000
,
1000
0010
1000
0010
0000
1000
0001
0000
,
0010
0100
1000
1010
,
0001
0100
0001
0100
0000
0001
1000
0000
,
0100
0010
0001
0101
,
0100
0010
1000
0001
0000
0010
0100
0000
,
1000
0100
1000
0000
0001
0100
0001
0000
,
0010
0100
1000
0001
0000
0010
0100
1000
,
0001
0100
0010
1000
0001
0010
0100
1000
,
2020
0000
0000
0030
0200
0300
0002
3003
,
0022
0000
0000
0030
0200
0300
2000
3003
,
2200
0000
0000
0300
0020
0030
0002
3003
,
0202
0000
0000
0303
2002
0000
0000
3003
,
0202
0000
0000
0300
0020
0030
2000
3003
,
2200
0000
0000
0300
0020
0030
0002
3003
,
0022
0000
0000
0030
0200
0300
2000
3003
,
2020
0000
0000
3030
2002
0000
0000
3003
,
0220
0000
0000
0000
,
0330
0000
0000
0000
;
