#VERSION:0.83;
#TITLE:VORTEX;
#SUBTITLE:;
#ARTIST:DJ FADE;
#TITLETRANSLIT:;
#SUBTITLETRANSLIT:;
#ARTISTTRANSLIT:;
#GENRE:SPEED TRANCE;
#ORIGIN:;
#CREDIT:Single (2000) / Dancemania SPEED 7 (2001);
#BANNER:VORTEX.PNG;
#BACKGROUND:VORTEX-bg.png;
#PREVIEWVID:;
#JACKET:VORTEX-jacket.PNG;
#CDIMAGE:;
#DISCIMAGE:;
#LYRICSPATH:;
#CDTITLE:;
#MUSIC:VORTEX.ogg;
#OFFSET:-2.818999;
#SAMPLESTART:22.584999;
#SAMPLELENGTH:15.000000;
#SELECTABLE:YES;
#BPMS:0.000=169.990;
#STOPS:;
#DELAYS:;
#WARPS:;
#TIMESIGNATURES:0.000=4=4;
#TICKCOUNTS:0.000=4;
#COMBOS:0.000=1;
#SPEEDS:0.000=1.000=0.000=0;
#SCROLLS:0.000=1.000;
#FAKES:;
#LABELS:0.000=Intro,
56.000=Main riff,
120.000=Bridge 1/2,
184.000=Bridge 2/2,
248.000=Main riff repeat,
312.000=Outro,
344.000=Song End;
#LASTSECONDHINT:124.598862;
#BGCHANGES:;
#KEYSOUNDS:;
#ATTACKS:
;

//---------------dance-single - ----------------
#NOTEDATA:;
#CHARTNAME:Basic;
#STEPSTYPE:dance-single;
#DESCRIPTION:;
#CHARTSTYLE:;
#DIFFICULTY:Easy;
#METER:5;
#RADARVALUES:0.285328,0.411793,0.183019,0.262592,0.000000,251.000000,228.000000,23.000000,33.000000,0.000000,0.000000,0.000000,0.000000,0.000000,0.285328,0.411793,0.183019,0.262592,0.000000,251.000000,228.000000,23.000000,33.000000,0.000000,0.000000,0.000000,0.000000,0.000000;
#CREDIT:Riakodoadm;
#NOTES:
// measure 0
0000
0000
0000
0000
,  // measure 1
0000
0000
0000
0000
,  // measure 2
1000
0000
0100
0000
,  // measure 3
1000
0000
0100
0000
,  // measure 4
0001
0000
0100
0000
,  // measure 5
0001
0000
0100
0000
,  // measure 6
0100
1000
0000
0001
,  // measure 7
0000
1000
0000
0001
,  // measure 8
0000
1000
0000
0100
,  // measure 9
0000
0001
0000
0100
,  // measure 10
0010
0100
0000
0001
,  // measure 11
1000
0001
0000
1000
,  // measure 12
0020
0000
0000
0030
,  // measure 13
0000
0000
0000
0000
,  // measure 14
0010
1000
0010
1000
,  // measure 15
0100
0000
0100
0000
,  // measure 16
0010
0001
0010
0001
,  // measure 17
0100
0000
0100
0000
,  // measure 18
0010
1000
0001
0010
,  // measure 19
0100
0000
0100
0000
,  // measure 20
0010
0001
1000
0010
,  // measure 21
0100
0000
0100
0000
,  // measure 22
1001
1000
1001
0000
,  // measure 23
0100
1000
0100
1000
,  // measure 24
1001
0001
1001
0000
,  // measure 25
0100
0001
0100
0001
,  // measure 26
1001
0000
0010
0100
,  // measure 27
1001
0000
0100
0010
,  // measure 28
2000
3000
0002
0003
,  // measure 29
2002
0000
3003
0010
,  // measure 30
2000
0000
0000
3000
,  // measure 31
0002
0000
0000
0003
,  // measure 32
0220
0000
0000
0000
,  // measure 33
0330
0000
0000
0000
,  // measure 34
0020
0000
0000
0030
,  // measure 35
0200
0000
0000
0310
,  // measure 36
2002
0000
0000
0000
,  // measure 37
3003
0000
0000
0000
,  // measure 38
2000
0001
0000
3001
,  // measure 39
0002
1000
0000
1003
,  // measure 40
0220
0000
0000
0330
,  // measure 41
0200
0000
0000
0300
,  // measure 42
0002
1000
0000
1003
,  // measure 43
2000
0001
0000
3001
,  // measure 44
0220
0000
0000
0330
,  // measure 45
0020
0000
0000
0030
,  // measure 46
1000
0001
1000
0001
,  // measure 47
0100
0001
0100
0001
,  // measure 48
0010
0100
0010
0100
,  // measure 49
1000
0100
1000
0100
,  // measure 50
1000
0001
1000
0001
,  // measure 51
1000
0010
1000
0010
,  // measure 52
0100
0010
0100
0010
,  // measure 53
0100
0001
0100
0001
,  // measure 54
2000
0100
3100
0000
,  // measure 55
0002
0100
0103
0000
,  // measure 56
2000
0100
3001
0000
,  // measure 57
0002
0100
1003
0000
,  // measure 58
2000
0010
3010
0100
,  // measure 59
0002
0010
0013
0100
,  // measure 60
2000
0010
3001
0100
,  // measure 61
0002
0010
1003
0100
,  // measure 62
0010
1000
0010
1000
,  // measure 63
0100
0010
0110
0000
,  // measure 64
0010
0001
0010
0001
,  // measure 65
0100
0010
0110
0000
,  // measure 66
0100
0001
0010
1000
,  // measure 67
0100
0001
1001
0000
,  // measure 68
0100
1000
0010
0001
,  // measure 69
0100
1000
1001
0000
,  // measure 70
1001
1000
1001
1000
,  // measure 71
0100
0010
0001
0100
,  // measure 72
1001
0001
1001
0001
,  // measure 73
0100
0010
1000
0100
,  // measure 74
0010
0100
1001
1000
,  // measure 75
0100
0001
0010
1000
,  // measure 76
0100
0010
1001
0001
,  // measure 77
0100
1000
0010
0001
,  // measure 78
1001
0000
1000
0000
,  // measure 79
0001
0000
1000
0000
,  // measure 80
0100
0000
0100
0000
,  // measure 81
0010
0000
0010
0000
,  // measure 82
1000
0000
0001
0000
,  // measure 83
1000
0000
0001
0000
,  // measure 84
2002
0000
0000
0000
,  // measure 85
0000
0000
0000
0000
,  // measure 86
0000
3003
0000
0000
;

//---------------dance-single - ----------------
#NOTEDATA:;
#CHARTNAME:Difficult;
#STEPSTYPE:dance-single;
#DESCRIPTION:;
#CHARTSTYLE:;
#DIFFICULTY:Medium;
#METER:9;
#RADARVALUES:0.439928,0.549057,0.198934,0.413782,0.111403,387.000000,362.000000,25.000000,52.000000,0.000000,0.000000,0.000000,0.000000,0.000000,0.439928,0.549057,0.198934,0.413782,0.111403,387.000000,362.000000,25.000000,52.000000,0.000000,0.000000,0.000000,0.000000,0.000000;
#CREDIT:Riakodoadm;
#NOTES:
0000
0000
0000
0000
,
0000
0000
0000
0000
,
1000
0100
2000
0000
3000
0000
0000
0000
,
0001
0100
0002
0000
0003
0000
0000
0000
,
1000
0010
2000
0000
3000
0000
0000
0000
,
0001
0010
0002
0000
0003
0000
0000
0000
,
1000
0100
0001
0100
,
1000
0010
0001
0100
,
1000
0100
0001
0010
,
1000
0100
0001
0010
,
1000
0100
0020
0000
0000
0000
0000
0000
,
0031
0100
0020
0000
0000
0000
0030
0000
,
2002
0000
0000
3000
,
1003
0100
0000
0001
0100
0000
0110
0000
,
1000
0100
0010
0001
,
0101
0000
0000
0000
0011
0000
0000
0000
1000
0000
0000
1000
0000
0000
1000
0000
,
0001
0000
0100
0000
0001
1000
0001
0000
,
1000
0000
0100
0000
0010
0100
0010
0000
,
0001
0010
0100
1000
,
1010
0000
0000
0000
1100
0000
0000
0000
0001
0000
0000
0001
0000
0000
0001
0000
,
1000
0000
0010
0000
1000
0001
1000
0000
,
0001
0000
0010
0000
0100
0010
0100
0000
,
1000
0010
0100
0000
0100
0010
1000
0000
,
0001
0000
0000
0000
0100
0000
0000
0000
0001
0000
0000
0010
0000
0000
0010
0000
,
0010
0000
0100
0000
1000
0001
1000
0000
,
0010
0000
0100
0000
0001
1000
0001
0000
,
2000
0000
0100
0000
0010
0010
3010
0000
,
0002
0000
0100
0000
0010
0010
0013
0000
,
2001
3100
1002
0103
,
0220
0000
0030
0310
,
2002
0000
0000
3003
,
0220
0000
0000
0330
,
2002
0000
0000
0000
,
0000
0000
0000
3003
,
2200
0000
0000
3300
,
2020
0000
3030
0101
,
0022
0000
0000
0000
,
0000
0000
0000
0033
,
2000
0001
0000
0001
0000
0001
3000
0001
,
0200
0010
0000
0010
0000
0010
0300
0100
,
0002
1000
0000
1000
0000
1000
0000
1000
,
0000
0100
0000
0010
0000
0100
0003
1000
,
0200
0001
0000
0001
0000
0010
0000
1300
,
0020
0100
0000
0100
0030
0100
0020
1030
,
0002
0010
0000
0100
0000
1000
0000
0103
,
0001
0100
0010
1000
0100
0010
0001
0000
,
0001
0000
0000
1000
0100
0000
0000
0100
1000
0000
0000
0000
0010
0000
0000
0000
,
1000
0000
0000
0001
0100
0000
0000
0100
0001
0000
0000
0000
0010
0000
0000
0000
,
0100
1000
0010
0100
0002
0000
0003
0000
,
0100
0001
0010
0100
2000
0000
3000
0000
,
0001
0000
0000
1000
0100
0000
0000
0010
0001
0000
0000
0000
1000
0000
0000
0000
,
1000
0000
0000
0001
0100
0000
0000
0010
1000
0000
0000
0000
0001
0000
0000
0000
,
0001
0100
1000
0100
0002
0000
0003
0000
,
1000
0100
0001
0100
2000
0000
3000
0000
,
1000
0000
0100
0000
1000
0000
0000
1000
0100
0000
0000
0000
0010
0000
0000
0000
,
0001
0000
0100
0000
0001
0000
0000
0001
0100
0000
0000
0000
0010
0000
0000
0000
,
1000
0100
0010
0001
0200
0000
0010
0000
,
0301
0100
0010
1000
0200
0000
0310
0000
,
0101
0000
0100
0001
0010
0100
1000
0000
,
1100
0000
1000
0010
0100
0001
0010
0000
,
0021
0130
1020
0130
,
0220
0000
0030
0310
,
1000
0000
0100
0000
1000
0000
0000
0000
0100
0000
0000
0010
0000
0000
0001
0000
,
0001
0000
0100
0000
0001
0000
0000
0000
0010
0000
0000
0100
0000
0000
1000
0000
,
0100
0000
0011
0000
0010
0001
0100
0000
,
0100
0000
1010
0000
0010
1000
0100
0000
,
1000
0000
0010
0000
1000
0000
0000
0000
0010
0000
0000
0100
0000
0000
0001
0000
,
0010
0000
0001
0000
0010
0000
0000
0000
0100
0000
0000
1000
0000
0000
0010
0000
,
0100
0000
0101
0000
0100
0010
1000
0000
,
0100
0000
1100
0000
0100
0010
0001
1000
,
0000
0000
0010
0000
0000
1000
0000
0000
0001
0000
0000
0100
0000
0000
0001
0000
,
0000
0000
0010
0000
0000
0001
0000
0000
1000
0000
0000
0100
0000
0000
0010
0000
,
0000
0000
0001
0000
0000
1000
0000
0000
0020
0000
0000
0000
0130
0000
0010
0000
,
0000
0000
1000
0000
0000
0100
0000
0000
0020
0000
0000
0000
0031
0000
0100
0000
,
0000
0000
0010
0000
0000
1000
0000
0000
0100
0000
0000
0001
0000
0000
0100
0000
,
0000
0000
1000
0000
0000
0010
0000
0000
0001
0000
0000
0010
0000
0000
0100
0000
,
0000
0000
0010
0000
0000
1000
0000
0000
0002
0000
0000
0000
0103
0000
0001
0000
,
0010
0000
0100
0000
1000
0001
1000
0001
,
1000
0100
0001
0100
,
1000
0100
0001
0010
,
0001
0100
1000
0100
,
0001
0100
1000
0010
,
2000
3001
0002
1003
,
0020
0130
0200
0310
,
2000
0000
0000
0000
,
0000
0000
0000
0002
,
0000
3003
0000
0000
;

//---------------dance-single - ----------------
#NOTEDATA:;
#CHARTNAME:Expert;
#STEPSTYPE:dance-single;
#DESCRIPTION:;
#CHARTSTYLE:;
#DIFFICULTY:Hard;
#METER:13;
#RADARVALUES:0.645682,0.686321,0.493356,0.278507,0.549057,568.000000,506.000000,62.000000,35.000000,0.000000,0.000000,0.000000,0.000000,0.000000,0.645682,0.686321,0.493356,0.278507,0.549057,568.000000,506.000000,62.000000,35.000000,0.000000,0.000000,0.000000,0.000000,0.000000;
#CREDIT:Riakodoadm;
#NOTES:
0000
0000
0000
0000
,
0000
0000
0000
0000
,
0000
1000
0200
0000
0000
0010
0000
0000
0001
0000
0000
0010
0000
0000
1300
0000
,
0000
1000
0020
0000
0000
0100
0000
0000
0001
0000
0000
0100
0000
0000
1030
0000
,
0000
0001
0200
0000
0000
0010
0000
0000
1000
0000
0000
0010
0000
0000
0301
0000
,
0000
0001
0020
0000
0000
0100
0000
0000
1000
0000
0000
0100
0000
0030
0001
0000
,
0000
0000
0102
0000
0000
0103
0000
0000
2100
0000
0000
3100
0000
0000
0010
0000
,
0000
0000
0012
0000
0000
0013
0000
0000
2010
0000
0000
3010
0000
0000
0100
0000
,
0000
0000
2001
0000
0000
3010
0000
0000
1002
0000
0000
0013
0000
0000
0110
0000
,
0000
0000
2001
0000
0000
3100
0000
0000
1002
0000
0000
0103
0000
0000
0001
0000
,
1000
0100
0010
0001
1000
0100
0010
0001
,
1000
0010
0100
0001
1000
0010
0100
0001
,
0100
0010
1000
0001
0010
0100
1000
0010
,
0100
0000
0001
0100
0001
0000
0010
0000
0100
1000
0100
0000
1000
0000
0010
0000
,
0100
0000
0001
0000
0000
0100
0000
0000
0101
0000
0000
0001
0000
0000
1001
0000
,
1000
0000
0100
0000
0000
1000
0000
0000
1100
0000
0000
1000
0000
0000
1001
0000
,
0001
0000
0100
0000
0000
0010
0000
0000
1000
0000
0100
0000
0001
0000
0100
0000
,
1000
0000
0100
0000
0000
0010
0000
0000
0001
0000
0100
0000
1000
0000
0100
0000
,
0001
0000
0010
0000
0000
0001
0000
0000
0011
0000
0000
0001
0000
0000
1001
0000
,
1000
0000
0010
0000
0000
1000
0000
0000
1010
0000
0000
1000
0000
0000
1001
0000
,
0001
0000
0010
0000
0000
0100
0000
0000
1000
0000
0010
0000
0001
0000
0010
0000
,
1000
0000
0010
0000
0000
0100
0000
0000
0001
0000
0010
0000
1000
0000
0010
0000
,
0001
0000
0100
0000
0000
0110
0000
0000
1010
0000
0000
1100
0000
0000
0100
0000
,
1000
0000
0100
0000
0000
0110
0000
0000
0011
0000
0000
0101
0000
0000
0100
0000
,
0001
0000
1000
0000
0000
0001
0000
0000
0010
0000
1000
0000
0010
0000
0001
0000
,
1000
0000
0001
0000
0000
1000
0000
0000
0010
0000
0001
0000
0010
0000
1000
0000
,
0000
0000
2100
0000
0000
0010
3000
0000
2010
0000
0000
0001
3000
0000
1001
0000
,
0000
0000
0102
0000
0000
0010
0003
0000
0012
0000
0000
1000
0003
0000
1001
0000
,
0000
0000
1001
0000
0000
0010
0000
0000
0110
0000
0000
0100
0000
0000
1001
0000
,
1000
0000
0100
1000
0100
0000
0010
0000
0001
0000
0100
0000
0010
1000
0010
0000
,
2000
0200
0000
0000
0000
0000
0000
0000
0000
0000
0000
0000
3000
0300
0000
0000
,
0020
0002
0000
0000
0000
0000
0000
0000
0000
0000
0000
0000
0030
0003
0000
0000
,
0002
2000
0000
0000
0000
0000
0000
0000
0000
0000
0000
0000
0000
0000
0000
0000
,
0000
0000
0000
0000
0000
0000
0000
0000
0000
0000
0000
0000
0003
3000
0000
0000
,
0002
0200
0000
0000
0000
0000
0000
0000
0000
0000
0000
0000
0003
0300
0000
0000
,
0020
2000
0000
0000
0000
0000
0000
0000
0030
3000
0000
0000
0010
0100
0000
0000
,
0002
2000
0000
0000
0000
0000
0000
0000
0000
0000
0000
0000
0000
0000
0000
0000
,
0000
0000
0000
3003
,
1000
0200
0000
0000
0010
0000
0000
0000
0000
0000
0000
0000
0310
0000
0000
0000
,
0010
0002
0000
0000
0100
0000
0000
0000
0000
0000
0000
0000
0103
0000
0000
0000
,
0100
0020
0000
0000
1000
0000
0000
0000
0000
0000
0000
0000
1000
0000
0000
0000
,
0000
0001
0000
0130
,
0100
0002
0000
0000
0010
0000
0000
0000
1000
0000
0000
0000
0103
0000
0000
0000
,
1000
0200
0000
0000
0010
0000
0000
0000
1300
0000
0000
0000
1000
0010
0000
0000
,
0100
0001
0000
0000
1000
0000
0000
0000
0100
0000
1000
0000
0001
0000
0000
0000
,
0010
0000
0100
1000
0100
0000
0010
0000
0001
0100
0001
0000
0010
0000
0001
0000
,
1000
0000
0100
0000
0010
0000
0001
1000
0000
0000
1100
0000
0000
0000
0011
0000
,
0001
0000
0100
0000
0010
0000
1000
0001
0000
0000
0101
0000
0000
0000
1010
0000
,
1000
0000
0010
0000
0100
0000
0001
0010
0000
0000
1100
0000
0000
0000
1001
0000
,
0001
0000
0010
0000
0100
0000
1000
0010
0000
0000
0101
0000
0000
0000
1001
0000
,
0000
0000
0001
0000
0100
0000
1000
0100
0000
0000
0010
0000
0000
0000
1000
0000
,
0000
0000
1000
0000
0100
0000
0001
0100
0000
0000
1000
0000
0000
0000
0010
0000
,
0000
0000
1000
0000
0010
0000
0001
0010
0000
0000
0100
0000
0000
0000
0001
0000
,
0000
0000
0001
0000
0010
0000
1000
0010
0000
0000
0001
0000
0000
0000
1001
0000
,
1000
0000
0001
0000
0100
0000
0001
0010
0000
0000
1010
0000
0000
0000
0011
0000
,
0001
0000
1000
0000
0100
0000
1000
0010
0000
0000
0011
0000
0000
0000
1010
0000
,
0010
0000
0100
0000
0001
0000
1000
0100
0000
0000
0101
0000
0000
0000
1100
0000
,
1000
0000
0010
0000
0100
0000
0001
0100
0000
0000
1100
0000
0000
0000
0101
0000
,
0100
0001
0000
0000
0100
0000
0001
0000
0010
0000
0100
0000
1000
0000
0010
0000
,
1000
0100
0000
0000
1000
0000
0010
0000
0100
0000
0001
0000
0010
0100
0000
0000
,
1000
0001
0000
0000
0100
0000
1000
0000
0100
0000
0001
0000
0010
0000
1000
0000
,
0010
0000
0001
1000
0001
0000
0100
0000
0001
1000
0001
0000
1000
0000
0010
0000
,
0000
1000
0100
0000
0100
1000
0000
0001
0010
0001
0000
1000
0000
0000
0100
0000
,
0000
0010
0001
0000
0001
0010
0000
0100
1000
0100
0000
1000
0000
0000
0010
0000
,
0100
0000
0001
0000
0000
0011
0000
0000
0001
0000
0100
0000
1000
0000
0100
0000
,
0010
0000
1000
0000
0000
1010
0000
0000
1000
0000
0100
0000
0001
0000
0100
0000
,
0000
1000
0100
0000
0100
1000
0000
0001
0010
0001
0000
1000
0000
0000
0100
0000
,
0000
0010
0001
0000
0001
0100
0000
0010
1000
0010
0000
0100
0000
0000
0001
0000
,
0000
0000
0010
0000
0000
1100
0000
0000
0100
0000
0010
0000
1000
0000
0010
0000
,
0000
0000
0001
0000
0000
0101
0000
0000
0100
0000
0010
0000
0001
0000
0010
0000
,
0000
1000
0100
0000
0100
0010
0000
0001
0100
0001
0000
0100
0000
0000
0010
0000
,
0000
0100
0001
0000
0001
0010
0000
0100
1000
0001
0000
0100
0000
0000
0001
0000
,
0000
0000
1001
0000
0000
1001
0000
0000
1000
0000
0100
0000
0010
0000
0001
0000
,
0000
0000
1001
0000
0000
1001
0000
0000
0001
0000
0100
0000
0010
0000
1000
0000
,
0000
1000
0100
0000
1000
0001
0000
0001
0100
0010
0000
0100
0000
0000
0001
0000
,
0000
0010
0100
0000
1000
0010
0000
0100
0001
0100
0000
0010
0000
0000
1000
0000
,
0000
0000
1100
0000
0000
1001
0000
0000
0001
0000
0100
0000
1000
0000
0100
0000
,
0000
0000
0101
0000
0000
1001
0000
0000
1000
0000
0100
0000
0001
0000
0100
0000
,
0110
0010
0001
1000
,
0100
0010
0001
0100
,
0010
1000
0100
0001
,
0100
0010
0001
0100
,
0010
0000
0000
0010
1000
0000
0000
1000
0001
0000
0000
0001
0100
0000
0000
0100
,
0001
0000
0000
0001
0010
0000
0000
0010
0100
0000
0000
0100
1000
0000
0000
0001
,
2000
0000
0000
0000
,
0000
0000
0000
0002
,
0000
3003
0000
0000
;

//---------------dance-single - ----------------
#NOTEDATA:;
#CHARTNAME:Beginner;
#STEPSTYPE:dance-single;
#DESCRIPTION:;
#CHARTSTYLE:;
#DIFFICULTY:Beginner;
#METER:3;
#RADARVALUES:0.193250,0.240212,0.095488,0.127318,0.000000,170.000000,158.000000,12.000000,16.000000,0.000000,0.000000,0.000000,0.000000,0.000000,0.193250,0.240212,0.095488,0.127318,0.000000,170.000000,158.000000,12.000000,16.000000,0.000000,0.000000,0.000000,0.000000,0.000000;
#CREDIT:Riakodoadm;
#NOTES:
// measure 0
0000
0000
0000
0000
,  // measure 1
0000
0000
0000
0000
,  // measure 2
0100
0000
0000
0000
,  // measure 3
0100
0000
0000
0000
,  // measure 4
0010
0000
0000
0000
,  // measure 5
0010
0000
0000
0000
,  // measure 6
1000
0000
1000
0000
,  // measure 7
1000
0000
0000
0000
,  // measure 8
0001
0000
0001
0000
,  // measure 9
0001
0000
0000
0000
,  // measure 10
2000
0000
3000
0000
,  // measure 11
0002
0000
0003
0000
,  // measure 12
1001
0000
0000
0000
,  // measure 13
0000
0000
0000
0000
,  // measure 14
1000
0000
1000
0000
,  // measure 15
0001
0000
0001
0000
,  // measure 16
1000
0000
0001
0000
,  // measure 17
1000
0000
0000
0000
,  // measure 18
0100
0000
0100
0000
,  // measure 19
0010
0000
0010
0000
,  // measure 20
0100
0000
0010
0000
,  // measure 21
0100
0000
0000
0000
,  // measure 22
0001
0000
0001
0000
,  // measure 23
1000
0000
1000
0000
,  // measure 24
0001
0000
1000
0000
,  // measure 25
0001
0000
0000
0000
,  // measure 26
0010
0000
0010
0000
,  // measure 27
0100
0000
0100
0000
,  // measure 28
0010
0000
0100
0000
,  // measure 29
0010
0000
0000
0000
,  // measure 30
1001
0000
0000
0000
,  // measure 31
1001
0000
0000
0000
,  // measure 32
0220
0000
0000
0330
,  // measure 33
0000
0000
0000
0000
,  // measure 34
1001
0000
0000
0000
,  // measure 35
0110
0000
0000
0000
,  // measure 36
2002
0000
0000
3003
,  // measure 37
0000
0000
0000
0000
,  // measure 38
0000
1000
0000
1000
,  // measure 39
0000
0001
0000
0001
,  // measure 40
2002
0000
0000
3003
,  // measure 41
0000
0000
0000
0000
,  // measure 42
0000
0001
0000
0001
,  // measure 43
0000
1000
0000
1000
,  // measure 44
2002
0000
0000
3003
,  // measure 45
0000
0000
0000
0000
,  // measure 46
0000
0100
0100
0100
,  // measure 47
0000
0100
0010
0100
,  // measure 48
0000
0100
0100
0100
,  // measure 49
0000
0010
0100
0010
,  // measure 50
0000
1000
0000
0001
,  // measure 51
0000
1000
0000
0001
,  // measure 52
0000
1000
1000
1000
,  // measure 53
0000
0001
0001
0001
,  // measure 54
0000
0010
0010
0010
,  // measure 55
0000
0010
0100
0010
,  // measure 56
0000
0010
0010
0010
,  // measure 57
0000
0100
0010
0100
,  // measure 58
0000
0001
0000
1000
,  // measure 59
0000
0001
0000
1000
,  // measure 60
2002
0000
3003
0000
,  // measure 61
0220
0000
0330
0000
,  // measure 62
1000
1000
1000
0000
,  // measure 63
0001
1000
0001
0000
,  // measure 64
0001
0001
0001
0000
,  // measure 65
1000
0001
1000
0000
,  // measure 66
0010
0010
0010
0000
,  // measure 67
0100
0010
0100
0000
,  // measure 68
0100
0100
0100
0000
,  // measure 69
0010
0100
0010
0000
,  // measure 70
1000
0001
1000
0000
,  // measure 71
0010
0100
0010
0000
,  // measure 72
0001
1000
0001
0000
,  // measure 73
0010
0100
0010
0000
,  // measure 74
1000
0001
1000
0000
,  // measure 75
0100
0010
0100
0000
,  // measure 76
0001
1000
0001
0000
,  // measure 77
0100
0010
0100
0000
,  // measure 78
1000
0000
0001
0000
,  // measure 79
1000
0000
0001
0000
,  // measure 80
0100
0000
0010
0000
,  // measure 81
0100
0000
0010
0000
,  // measure 82
1000
0000
1000
0000
,  // measure 83
0001
0000
0001
0000
,  // measure 84
2002
0000
0000
0000
,  // measure 85
0000
0000
0000
0000
,  // measure 86
0000
3003
0000
0000
;

//---------------dance-couple - ----------------
#NOTEDATA:;
#CHARTNAME:Expert;
#STEPSTYPE:dance-couple;
#DESCRIPTION:;
#CHARTSTYLE:;
#DIFFICULTY:Hard;
#METER:13;
#RADARVALUES:0.570656,0.686321,0.437654,0.206891,0.381953,502.000000,447.000000,55.000000,26.000000,0.000000,0.000000,0.000000,0.000000,0.000000,0.571792,0.686321,0.437654,0.206891,0.381953,503.000000,448.000000,55.000000,26.000000,0.000000,0.000000,0.000000,0.000000,0.000000;
#CREDIT:Riakodoadm;
#NOTES:
00000000
00000000
00000000
00000000
,
00000000
00000000
00000000
00000000
,
00000000
10000000
02000000
00000000
00000000
00100000
00000000
00000000
00010000
00000000
00000000
00100000
00000000
00000000
13000000
00000000
,
00000000
00000001
00000200
00000000
00000000
00000010
00000000
00000000
00001000
00000000
00000000
00000010
00000000
00000000
00000301
00000000
,
00000000
00010000
00200000
00000000
00000000
01000000
00000000
00000000
10000000
00000000
00000000
01000000
00000000
00000000
00310000
00000000
,
00000000
00001000
00000020
00000000
00000000
00000100
00000000
00000000
00000001
00000000
00000000
00000100
00000000
00000000
00001030
00000000
,
00000000
00000000
01020102
00000000
00000000
01030103
00000000
00000000
21002100
00000000
00000000
31003100
00000000
00000000
00100010
00000000
,
00000000
00000000
00120012
00000000
00000000
00130013
00000000
00000000
20102010
00000000
00000000
30103010
00000000
00000000
01000100
00000000
,
00000000
00000000
20012001
00000000
00000000
30103010
00000000
00000000
10021002
00000000
00000000
00130013
00000000
00000000
01100110
00000000
,
00000000
00000000
20012001
00000000
00000000
31003100
00000000
00000000
10021002
00000000
00000000
01030103
00000000
00000000
00010001
00000000
,
10001000
01000100
00100010
00010001
10001000
01000100
00100010
00010001
,
10001000
00100010
01000100
00010001
10001000
00100010
01000100
00010001
,
01000100
00100010
10001000
00010001
00100010
01000100
10001000
00100010
,
01000100
00000000
00010001
01000100
00010001
00000000
00100010
00000000
01000100
10001000
01000100
00000000
10001000
00000000
00100010
00000000
,
01000000
00000000
00010000
00000000
00000010
01000000
00000000
00000000
01010000
00000000
00000000
00010000
00000010
00000000
10010000
00000000
,
00001000
00000000
00000100
00000000
00100000
00001000
00000000
00000000
00001100
00000000
00000000
00001000
00100000
00000000
00001001
00000000
,
00010001
00000000
01000100
00000000
00000000
00100010
00000000
00000000
10001000
00000000
01000100
00000000
00010001
00000000
01000100
00000000
,
10001000
00000000
01000100
00000000
00000000
00100010
00000000
00000000
00010001
00000000
01000100
00000000
10001000
00000000
01000100
00000000
,
00010000
00000000
00100000
00000000
00000010
00010000
00000000
00000000
00110000
00000000
00000000
00010000
00000010
00000000
10010000
00000000
,
00001000
00000000
00000010
00000000
00100000
00001000
00000000
00000000
00001010
00000000
00000000
00001000
00100000
00000000
00001001
00000000
,
00010001
00000000
00100010
00000000
00000000
01000100
00000000
00000000
10001000
00000000
00100010
00000000
00010001
00000000
00100010
00000000
,
10001000
00000000
00100010
00000000
00000000
01000100
00000000
00000000
00010001
00000000
00100010
00000000
10001000
00000000
00100010
00000000
,
00010000
00000000
01000000
00000000
00000010
01100000
00000000
00000000
10100000
00000000
00000000
11000000
00000010
00000000
01000000
00000000
,
00001000
00000000
00000100
00000000
00100000
00000110
00000000
00000000
00000011
00000000
00000000
00000101
00100000
00000000
00000100
00000000
,
00010001
00000000
10001000
00000000
00000000
00010001
00000000
00000000
00100010
00000000
10001000
00000000
00100010
00000000
00010001
00000000
,
10001000
00000000
00010001
00000000
00000000
10001000
00000000
00000000
00100010
00000000
00010001
00000000
00100010
00000000
10001000
00000000
,
00000000
00000000
11001100
00000000
00000000
00100010
00000000
00000000
10101010
00000000
00000000
00010001
00000000
00000000
10011001
00000000
,
00000000
00000000
01010101
00000000
00000000
00100010
00000000
00000000
00110011
00000000
00000000
10001000
00000000
00000000
10011001
00000000
,
00000000
00000000
10011001
00000000
00000000
00100010
00000000
00000000
01100110
00000000
00000000
01000100
00000000
00000000
10011001
00000000
,
10001000
00000000
01000100
10001000
01000100
00000000
00100010
00000000
00010001
00000000
01000100
00000000
00100010
10001000
00100010
00000000
,
20000000
02000000
00001000
00000000
00000000
00000000
00001000
00000000
00000000
00000000
00001000
00000000
30000000
03000000
00001000
00000000
,
00200000
00020000
00000010
00000000
00000000
00000000
00000010
00000000
00000000
00000000
00000010
00000000
00300000
00030000
00000010
00000000
,
00022000
20000002
00000000
00000000
00000000
00000000
00000000
00000000
00000000
00000000
00000000
00000000
00000000
00000000
00000000
00000000
,
00000000
00000000
00000000
00000000
00000000
00000000
00000000
00000000
00000000
00000000
00000000
00000000
00033003
30000000
00000000
00000000
,
00000002
00000200
00010000
00000000
00000000
00000000
00010000
00000000
00000000
00000000
00010000
00000000
00000003
00000300
00010000
00000000
,
00000020
00002000
00100000
00000000
00000000
00000000
00100000
00000000
00000030
00003000
00100000
00000000
00100010
01000100
00000000
00000000
,
20000002
00022000
00000000
00000000
00000000
00000000
00000000
00000000
00000000
00000000
00000000
00000000
00000000
00000000
00000000
00000000
,
00000000
00000000
00000000
30033003
,
10001000
02000200
00000000
00000000
00100010
00000000
00000000
00000000
00000000
00000000
00000000
00000000
03100310
00000000
00000000
00000000
,
00100010
00020002
00000000
00000000
01000100
00000000
00000000
00000000
00000000
00000000
00000000
00000000
01030103
00000000
00000000
00000000
,
01000100
00200020
00000000
00000000
10001000
00000000
00000000
00000000
00000000
00000000
00000000
00000000
10001000
00000000
00000000
00000000
,
00000000
00010001
00000000
01300130
,
01000100
00020002
00000000
00000000
00100010
00000000
00000000
00000000
10001000
00000000
00000000
00000000
01030103
00000000
00000000
00000000
,
10001000
02000200
00000000
00000000
00100010
00000000
00000000
00000000
13001300
00000000
00000000
00000000
10001000
00100010
00000000
00000000
,
01000100
00010001
00000000
00000000
10001000
00000000
00000000
00000000
01000100
00000000
10001000
00000000
00010001
00000000
00000000
00000000
,
00100010
01000100
10001000
00100010
01000100
00010001
10001000
00010001
,
10000000
00000000
01001000
00000000
00100000
00000000
00010001
10000000
00000000
00000000
11001000
00000000
00000000
00000000
00110001
00000000
,
00010000
00000000
01000100
00000000
00100000
00000000
10000010
00010000
00000000
00000000
01010100
00000000
00000000
00000000
10100010
00000000
,
10000000
00000000
00101000
00000000
01000000
00000000
00011000
00100000
00000000
00000000
11000100
00000000
00000000
00000000
10010100
00000000
,
00010000
00000000
00100010
00000000
01000000
00000000
10000010
00100000
00000000
00000000
01010001
00000000
00000000
00000000
10010001
00000000
,
00001000
00000000
10000100
00000000
00000010
00000000
00010001
00001000
00000000
00000000
10001100
00000000
00000000
00000000
00010011
00000000
,
00000001
00000000
01000100
00000000
00000010
00000000
00101000
00000001
00000000
00000000
01000101
00000000
00000000
00000000
00101010
00000000
,
00001000
00000000
10000010
00000000
00000100
00000000
10000001
00000010
00000000
00000000
01001100
00000000
00000000
00000000
01001001
00000000
,
00000001
00000000
00100010
00000000
00000100
00000000
00101000
00000010
00000000
00000000
00010101
00000000
00000000
00000000
00011001
00000000
,
10001000
00000000
00010001
00000000
01000100
00000000
00010001
00100010
00000000
00000000
10101010
00000000
00000000
00000000
00110011
00000000
,
00010001
00000000
10001000
00000000
01000100
00000000
10001000
00100010
00000000
00000000
00110011
00000000
00000000
00000000
10101010
00000000
,
00100010
00000000
01000100
00000000
00010001
00000000
10001000
01000100
00000000
00000000
01010101
00000000
00000000
00000000
11001100
00000000
,
10001000
00000000
00100010
00000000
01000100
00000000
00010001
01000100
00000000
00000000
11001100
00000000
00000000
00000000
01010101
00000000
,
00010001
01000100
00000000
00000000
01000100
00000000
00010001
00000000
00100010
00000000
01000100
00000000
10001000
00000000
00100010
00000000
,
10001000
01000100
00000000
00000000
10001000
00000000
00100010
00000000
01000100
00000000
00010001
00000000
00100010
01000100
00000000
00000000
,
10001000
00010001
00000000
00000000
01000100
00000000
10001000
00000000
01000100
00000000
00010001
00000000
00100010
00000000
10001000
00000000
,
00200020
00000000
00300030
10011001
,
00001000
10000000
01000000
00000000
01000010
10000000
00000000
00010000
00100001
00010000
00000000
10000000
00000010
00000000
01000000
00000000
,
10000000
00001000
00000100
00000000
00100100
00001000
00000000
00000001
00010010
00000001
00000000
00001000
00100000
00000000
00000010
00000000
,
01000100
00000000
00010001
00000000
00000000
00110011
00000000
00000000
00010001
00000000
01000100
00000000
10001000
00000000
01000100
00000000
,
00100010
00000000
10001000
00000000
00000000
10101010
00000000
00000000
10001000
00000000
01000100
00000000
00010001
00000000
01000100
00000000
,
10000000
00000010
00000001
00000000
00100001
00000100
00000000
00000010
00011000
00000010
00000000
00000100
00100000
00000000
00000001
00000000
,
00001000
00100000
00010000
00000000
00010010
01000000
00000000
00100000
10000001
00100000
00000000
01000000
00000010
00000000
00010000
00000000
,
00000000
00000000
00100010
00000000
00000000
11001100
00000000
00000000
01000100
00000000
00100010
00000000
10001000
00000000
00100010
00000000
,
00000000
00000000
00010001
00000000
00000000
01010101
00000000
00000000
01000100
00000000
00100010
00000000
00010001
00000000
00100010
00000000
,
00001000
10000000
01000000
00000000
01000010
00100000
00000000
00010000
01000001
00010000
00000000
01000000
00000010
00000000
00100000
00000000
,
10000000
00000001
00000100
00000000
00100100
00000010
00000000
00001000
00010100
00001000
00000000
00000100
00100000
00000000
00000010
00000000
,
00000000
00000000
10011001
00000000
00000000
10011001
00000000
00000000
10001000
00000000
01000100
00000000
00100010
00000000
00010001
00000000
,
00000000
00000000
10011001
00000000
00000000
10011001
00000000
00000000
00010001
00000000
01000100
00000000
00100010
00000000
10001000
00000000
,
00000001
10000000
01000000
00000000
10000010
00010000
00000000
00010000
01001000
00100000
00000000
01000000
00000010
00000000
00010000
00000000
,
10000000
00000001
00000100
00000000
00100001
00001000
00000000
00001000
00010100
00000010
00000000
00000100
00100000
00000000
00001000
00000000
,
00000000
00000000
11001100
00000000
00000000
10011001
00000000
00000000
00010001
00000000
01000100
00000000
10001000
00000000
01000100
00000000
,
00000000
00000000
01010101
00000000
00000000
10011001
00000000
00000000
10001000
00000000
01000100
00000000
00010001
00000000
01000100
00000000
,
01100110
00100010
00010001
10001000
,
01000100
00100010
00010001
01000100
,
00100010
10001000
01000100
00010001
,
01000100
00100010
00010001
01000100
,
00100010
00000000
00000000
00100010
10001000
00000000
00000000
10001000
00010001
00000000
00000000
00010001
01000100
00000000
00000000
01000100
,
00010001
00000000
00000000
00010001
00100010
00000000
00000000
00100010
01000100
00000000
00000000
01000100
10001000
00000000
00000000
00010001
,
20002000
00000000
00000000
00000000
,
00000000
00000000
00000000
00020002
,
00000000
30033003
00000000
00000000
;

//---------------dance-double - ----------------
#NOTEDATA:;
#CHARTNAME:Expert;
#STEPSTYPE:dance-double;
#DESCRIPTION:;
#CHARTSTYLE:;
#DIFFICULTY:Hard;
#METER:13;
#RADARVALUES:0.670691,0.989397,0.429697,0.135275,0.616695,590.000000,536.000000,54.000000,17.000000,0.000000,0.000000,0.000000,0.000000,0.000000,0.670691,0.989397,0.429697,0.135275,0.616695,590.000000,536.000000,54.000000,17.000000,0.000000,0.000000,0.000000,0.000000,0.000000;
#CREDIT:Riakodoadm;
#NOTES:
00000000
00000000
00000000
00000000
,
00000000
00000000
00000000
00000000
,
00000000
00000000
20010000
00000000
00000000
00100000
00000000
00000000
01000000
00000000
00000000
00010000
00000000
00000000
31000000
00000000
,
00000000
00000000
01200000
00000000
00000000
01000000
00000000
00000000
00010000
00000000
00000000
01000000
00000000
00000000
00301000
00000000
,
00000000
00000000
00012000
00000000
00000000
00100000
00000000
00000000
00010000
00000000
00000000
01000000
00000000
00000000
00013000
00000000
,
00000000
00000000
00021000
00000000
00000000
00000010
00000000
00000000
00001000
00000000
00000000
00000100
00000000
00000000
00031000
00000000
,
00000000
00000000
00010000
00000000
00000000
01000000
00000000
00000000
10000000
00000000
00000000
00100000
00000000
00000000
00010000
00000000
,
00000000
00000000
00001000
00000000
00000000
00000100
00000000
00000000
00000001
00000000
00000000
00000010
00000000
00000000
00001000
00000000
,
00000000
00000000
00010000
00000000
00000000
00100000
00000000
00000000
10000000
00000000
00000000
01000000
00000000
00000000
00010000
00000000
,
00000000
00000000
00001000
00000000
00000000
00000010
00000000
00000000
00000001
00000000
00000000
00000100
00000000
00000000
00001000
00000000
,
00010000
01000000
00100000
01000000
00010000
01000000
00100000
00001000
,
00010000
00000010
00000100
00000010
00001000
00000100
00001000
00000010
,
00010000
00001000
00010000
00001000
01000000
00100000
01000000
00100000
00010000
00001000
00010000
00001000
00000100
00000010
00000100
00000010
,
00000100
00000000
00000001
00000010
00000001
00000000
00000010
00000000
00001000
00000010
00001000
00000000
00000010
00000000
00000100
00000000
,
00000000
00010000
00001000
00000000
00010000
00001000
00000000
00000000
00000100
00000000
00000000
00001000
00000000
00000000
00010000
00000000
,
00000000
00001000
00010000
00000000
00001000
00010000
00000000
00000000
01000000
00000000
00000000
10000000
00000000
00000000
00100000
00000000
,
00000000
00000000
10100000
00000000
00000000
10010000
00000000
00000000
00010000
00000000
00100000
00000000
01000000
00000000
10000000
00000000
,
00000000
00000000
01010000
00000000
00000000
01001000
00000000
00000000
00001000
00000000
00000100
00000000
00000001
00000000
00000010
00000000
,
00000000
00001000
00010000
00000000
00001000
00010000
00000000
00000000
01000000
00000000
00000000
00010000
00000000
00000000
00001000
00000000
,
00000000
00010000
00001000
00000000
00010000
00001000
00000000
00000000
00000100
00000000
00000000
00000001
00000000
00000000
00000010
00000000
,
00000000
00000000
00000011
00000000
00000000
00001001
00000000
00000000
00001000
00000000
00000100
00000000
00000010
00000000
00001000
00000000
,
00000000
00000000
00011000
00000000
00000000
01001000
00000000
00000000
01000000
00000000
00010000
00000000
00100000
00000000
01000000
00000000
,
00000000
10000000
00100000
00000000
10000000
01000000
00000000
00000000
00010000
00000000
00000000
00001000
00000000
00000000
00000100
00000000
,
00000000
00000001
00000010
00000000
00000001
00001000
00000000
00000000
00000100
00000000
00000000
00010000
00000000
00000000
00001000
00000000
,
00000000
00000000
00101000
00000000
00000000
01010000
00000000
00000000
01000000
00000000
00100000
00000000
10000000
00000000
01000000
00000000
,
00000000
00000000
01010000
00000000
00000000
00011000
00000000
00000000
00001000
00000000
00000100
00000000
00000001
00000000
00001000
00000000
,
00001010
00000000
00000010
00000000
00000000
00000100
00000000
00000000
00000001
00000000
00000000
00000010
00000000
00000000
00000100
00000000
,
00000000
00000000
00010000
00000000
00000000
00001000
00000000
00000000
01000000
00000000
00000000
00100000
00000000
00000000
10000000
00000000
,
00100000
10000000
00100000
10000000
00010000
00100000
00010000
00100000
00001000
00010000
00001000
00010000
00000010
00010000
00000010
00010000
,
00000010
00000000
00000100
00000001
00000100
00000000
00001000
00010000
00001000
00000000
01000000
00010000
01000000
00000000
00001000
00010000
,
00002000
00020000
00000000
00000000
00000000
00000000
00000000
00000000
00000000
00000000
00000000
00000000
00000000
00000000
00033000
00000000
,
00020000
02000000
00000000
00000000
00000000
00000000
00000000
00000000
00000000
00000000
00000000
00000000
00000000
00000000
03030000
00000000
,
02000000
00200000
00000000
00000000
00000000
00000000
00000000
00000000
00000000
00000000
00000000
00000000
00000000
00000000
00000000
00000000
,
00300000
00000000
00000000
00000000
,
03020000
00002000
00000000
00000000
00000000
00000000
00000000
00000000
00000000
00000000
00000000
00000000
00000000
00000000
00033000
00000000
,
00002000
00000200
00000000
00000000
00000000
00000000
00000000
00000000
00000000
00000000
00003300
00000000
00000100
00000010
00000000
00000000
,
00002000
00000002
00000000
00000000
00000000
00000000
00000000
00000000
00000000
00000000
00000000
00000000
00000000
00000000
00000000
00000000
,
00000003
00000000
00000000
00000000
00000000
00000000
00000000
00003000
,
00001000
00000001
00000000
00000000
00001001
00000000
00000000
00000000
00000000
00000000
00000000
00000000
00000110
00000000
00000000
00000000
,
00000100
00000010
00000000
00000000
00010010
00000000
00000000
00000000
00000000
00000000
00000000
00000000
00101000
00000000
00000000
00000000
,
00100000
01000000
00000000
00000000
10010000
00000000
00000000
00000000
00000000
00000000
00000000
00000000
01100000
00000000
00000000
00000000
,
00000000
11000000
00000000
00110000
,
00010000
10000000
00000000
00000000
01000000
00000000
00000000
00000000
00010000
00000000
00000000
00000000
00001000
00000000
00000000
00000000
,
00000100
00000010
00000000
00000000
00001000
00000000
00000000
00000000
00000001
00000000
00000000
00000000
00000010
00000100
00000000
00000000
,
00010000
01000000
10000000
00100000
00010000
00001000
00000010
00000001
,
00001000
00000000
00000010
00010000
00000010
00000000
00010000
00000000
00001000
00100000
00001000
00000000
01000000
00000000
00010000
00000000
,
00100000
00000000
00001000
00000000
00010000
00000000
00000100
00001000
00000000
00000000
00001010
00000000
00000000
00000000
00000101
00000000
,
00000001
00000000
00000100
00000000
00000010
00000000
00001000
00000001
00000000
00000000
00000011
00000000
00000000
00000000
00001100
00000000
,
00001000
00000000
00000010
00000000
00010000
00000000
00001000
00010000
00000000
00000000
00010100
00000000
00000000
00000000
01001000
00000000
,
01000000
00000000
00010000
00000000
00100000
00000000
01000000
10000000
00000000
00000000
11000000
00000000
00000000
00000000
00110000
00000000
,
00000000
00000000
00010000
00000000
00100000
00000000
00010000
10000000
00000000
00000000
01000000
00000000
00000000
00000000
00010000
00000000
,
00000000
00000000
00001000
00000000
01000000
00000000
00001000
00010000
00000000
00000000
00001000
00000000
00000000
00000000
00000100
00000000
,
00000000
00000000
00000010
00000000
00001000
00000000
00000010
00000100
00000000
00000000
00000001
00000000
00000000
00000000
00000100
00000000
,
00000000
00000000
00000010
00000000
00001000
00000000
00000010
00010000
00000000
00000000
00001000
00000000
00000000
00000000
00010000
00000000
,
00100000
00000000
00010000
00000000
00001000
00000000
00000100
00000001
00000000
00000000
00000101
00000000
00000000
00000000
00000011
00000000
,
00000010
00000000
00001000
00000000
00010000
00000000
01000000
10000000
00000000
00000000
11000000
00000000
00000000
00000000
00110000
00000000
,
00100000
00000000
01000000
00000000
00010000
00000000
00001000
00000100
00000000
00000000
00000110
00000000
00000000
00000000
00001010
00000000
,
00001000
00000000
00000100
00000000
00000010
00000000
00001000
00010000
00000000
00000000
00011000
00000000
00000000
00000000
00101000
00000000
,
00001000
01000000
00000000
00000000
00001000
00000000
00010000
00000000
00000100
00000000
00010000
00000000
00001000
00000000
00010000
00000000
,
00000010
00000100
00000000
00000000
00000001
00000000
00000100
00000000
00001000
00000000
00000100
00000000
00000010
00010000
00000000
00000000
,
00001000
00100000
00000000
00000000
00010000
00000000
01000000
00000000
00100000
00000000
10000000
00000000
01000000
00000000
00010000
00000000
,
00001000
00000000
00100000
00001000
00100000
00000000
00001000
00000000
00010000
00000010
00010000
00000000
00000010
00000000
00000100
00000000
,
00000000
00000001
00000100
00000000
00000001
00000010
00000000
00000001
00001000
00000001
00000000
00000100
00000000
00000000
00001000
00000000
,
00000000
00000100
00000010
00000000
00010000
00001000
00000000
00000010
00000100
00001000
00000000
00000100
00000000
00000000
00000010
00000000
,
00000001
00000000
00000100
00000000
00000000
00000110
00000000
00000000
00000010
00000000
00000100
00000000
00001000
00000000
00010000
00000000
,
00000100
00000000
00001000
00000000
00000000
00001010
00000000
00000000
00000010
00000000
00000100
00000000
00001000
00000000
00010000
00000000
,
00000000
01000000
00100000
00000000
01000000
10000000
00000000
00010000
10000000
00010000
00000000
01000000
00000000
00000000
00100000
00000000
,
00000000
00010000
00001000
00000000
00010000
00100000
00000000
10000000
00100000
10000000
00000000
01000000
00000000
00000000
00010000
00000000
,
01000000
00000000
10000000
00000000
00000000
10100000
00000000
00000000
00100000
00000000
00010000
00000000
00001000
00000000
00010000
00000000
,
00100000
00000000
10000000
00000000
00000000
11000000
00000000
00000000
01000000
00000000
00010000
00000000
00001000
00000000
00000100
00000000
,
00000001
00000010
00000100
00000000
00000100
00001000
00000000
00001000
00000010
00000100
00000000
00000001
00000000
00000000
00000101
00000000
,
00000100
00000001
00000010
00000000
00000100
00010000
00000000
00010000
00001000
00000100
00000000
00000010
00000000
00000000
00000110
00000000
,
00000100
00000000
00001000
00000000
00000000
00011000
00000000
00000000
00010000
00000000
01000000
00000000
00100000
00000000
10000000
00000000
,
00100000
00000000
00010000
00000000
00000000
10010000
00000000
00000000
10000000
00000000
00100000
00000000
00010000
00000000
00001000
00000000
,
01000000
00010000
00100000
00000000
00100000
00001000
00000000
00001000
01000000
00100000
00000000
00010000
00000000
00000000
00110000
00000000
,
00100000
10000000
01000000
00000000
00010000
00001000
00000000
00001000
01000000
00100000
00000000
10000000
00000000
00000000
11000000
00000000
,
01000000
00000000
00010000
00000000
00000000
00011000
00000000
00000000
00001000
00000000
00000100
00000000
00000010
00000000
00000100
00000000
,
00000001
00000000
00000010
00000000
00000000
00000110
00000000
00000000
00000100
00000000
00000010
00000000
00001000
00000000
00010000
00000000
,
00011000
00001000
00000100
00000010
,
00001000
00000010
00000100
00000001
,
00000010
00000100
00001000
00010000
,
00100000
01000000
10000000
00010000
,
10000000
00000000
00000000
10000000
01000000
00000000
00000000
01000000
00100000
00000000
00000000
00100000
00010000
00000000
00000000
00010000
,
00001000
00000000
00000000
00001000
00000100
00000000
00000000
00000100
00000010
00000000
00000000
00000010
00000001
00000000
00000000
00000001
,
00000200
00000000
00000000
00000000
,
00000000
00000000
00000000
00010300
;

//---------------dance-double - ----------------
#NOTEDATA:;
#CHARTNAME:Basic;
#STEPSTYPE:dance-double;
#DESCRIPTION:;
#CHARTSTYLE:;
#DIFFICULTY:Easy;
#METER:5;
#RADARVALUES:0.305790,0.375288,0.214848,0.342166,0.000000,269.000000,242.000000,27.000000,43.000000,0.000000,0.000000,0.000000,0.000000,0.000000,0.305790,0.375288,0.214848,0.342166,0.000000,269.000000,242.000000,27.000000,43.000000,0.000000,0.000000,0.000000,0.000000,0.000000;
#CREDIT:Riakodoadm;
#NOTES:
00000000
00000000
00000000
00000000
,
00000000
00000000
00000000
00000000
,
02000000
00000000
03000000
00000000
,
00020000
00000000
00030000
00000000
,
00200000
00000000
00000000
00000000
,
00000000
00000000
00300000
00000000
,
00002000
00100000
00000000
00100000
,
00023000
00000010
00000000
00000010
,
00032000
01000000
00000000
01000000
,
00023000
00000100
00000000
00030100
,
00000020
00000000
00000031
00000100
,
00000200
00000000
00000310
00010000
,
00022000
00000000
00000000
00033000
,
00200000
00000000
00000000
01300000
,
00000000
01100000
00010000
10000000
,
00000000
01100000
00010000
00001000
,
00000100
00000001
00000020
00000100
,
00000031
00000100
00000020
00000100
,
00001030
00001010
00000100
00001000
,
00000000
00000011
00001000
00010000
,
00001000
00100000
02000000
10000000
,
03100000
00010000
02000000
00100000
,
03001000
00011000
00010000
00000010
,
00000000
00000110
00001000
00010000
,
01000000
10000000
00200000
01000000
,
10300000
01000000
00200000
01000000
,
00310000
00100000
00000000
10010000
,
00000000
01000000
00000000
00011000
,
00000000
00000010
00000000
00001001
,
00000020
00000000
00000000
00000130
,
00000002
00000000
00000000
00000000
,
00000203
00000000
00000000
00000000
,
00000320
00000000
00000000
00000000
,
00001030
00000000
00001000
00000000
,
00000200
00000000
00000000
00000000
,
00020300
00000000
00000000
00032000
,
02003000
00000000
00000000
00000000
,
03100000
00000000
00100000
00000000
,
20000000
00000000
00000000
00000000
,
32000000
00000000
00000000
00000000
,
03200000
00000000
00000000
00000000
,
00310000
00000000
00010000
00000000
,
02000000
00000000
00000000
00000000
,
03002000
00000000
00000000
00023000
,
00030200
00000000
00000000
00000000
,
00000310
00000100
00000010
00000100
,
00000010
00000001
00000010
00001001
,
00000100
00001000
00000100
00011000
,
00100000
00001000
01000000
00010000
,
01000000
00100000
10000000
00010000
,
00100000
10000000
00100000
10010000
,
01000000
00010000
01000000
00011000
,
00000010
00010000
00000100
00001000
,
00000100
00000010
00000001
00001000
,
00000010
00010000
00000010
00001100
,
00010000
00001000
00010000
00101000
,
00010000
00100000
10000000
00010000
,
00100000
01000000
00100000
00010000
,
00100000
00001000
00100000
01010000
,
00001000
00010000
00001000
00010010
,
00001000
00000010
00000001
00001000
,
00000020
00000000
00000000
00000130
,
00000001
00000110
00001000
00000001
,
00000010
00001100
00000010
00000100
,
00001000
00010000
02000000
00100000
,
13000000
00010000
02000000
00100000
,
03010000
00110000
01000000
00001000
,
01000000
00110000
01000000
00010000
,
00001000
00000010
00000200
00001000
,
00000310
00001000
00020000
00100000
,
00031000
00101000
00010000
10000000
,
00100000
01010000
00100000
01000000
,
00010000
00001000
00000200
00000010
,
00000301
00001000
00000200
00000010
,
00001300
00001010
00000100
00010000
,
00000100
00001010
00000100
00001000
,
00010000
00100000
02000000
00010000
,
03100000
00000000
10000000
00000000
02000000
00000000
00100000
03000000
,
01100000
00010000
00000000
00010000
,
00000000
00001000
00000000
00001000
,
00000000
00000010
00000000
00000010
,
00000000
00000001
00000000
00000001
,
00000000
00000100
00000000
00000100
,
00000000
00001000
00000000
00001000
,
00020000
00000000
00000000
00000000
,
00000000
00000000
00000000
01030000
;

//---------------dance-double - ----------------
#NOTEDATA:;
#CHARTNAME:Difficult;
#STEPSTYPE:dance-double;
#DESCRIPTION:;
#CHARTSTYLE:;
#DIFFICULTY:Medium;
#METER:9;
#RADARVALUES:0.463800,0.511757,0.397867,0.175062,0.087531,408.000000,358.000000,50.000000,22.000000,0.000000,0.000000,0.000000,0.000000,0.000000,0.463800,0.511757,0.397867,0.175062,0.087531,408.000000,358.000000,50.000000,22.000000,0.000000,0.000000,0.000000,0.000000,0.000000;
#CREDIT:Riakodoadm;
#NOTES:
00000000
00000000
00000000
00000000
,
00000000
00000000
00000000
00000000
,
00010000
00100000
02000000
00000000
00000000
00000000
00000000
00000000
,
03010000
00001000
00000200
00000000
00000000
00000000
00000000
00000000
,
00000301
00000100
00000020
00000000
00000000
00000000
00000000
00000000
,
00000130
00001000
00020000
00000000
00000000
00000000
00000000
00000000
,
00031000
00001100
00000000
00000101
,
00000000
00000011
00000000
00001010
,
00000000
00011000
00000000
00110000
,
00000000
10100000
00000000
11000000
,
10020000
00100000
01000000
00130000
,
00021000
00000010
00000100
00030010
,
00001002
00000010
00000100
00000013
,
00000001
00000100
00000000
00001000
00000100
00000000
00000110
00000000
,
00000010
00000000
00010000
00000000
00000100
00001000
00000100
00000000
,
00010000
00000000
00000000
00000000
00001000
00000000
00000000
00000000
01000000
00000000
00000000
00100000
00000000
00000000
10000000
00000000
,
00010000
00000000
00110000
00000000
00100000
01000000
10000000
00000000
,
01000000
00000000
00110000
00000000
00100000
00001000
00010000
00000000
,
00001000
00000000
00001100
00000000
00000100
00000001
00000010
00000000
,
00000100
00000000
00000000
00000000
00001100
00000000
00000000
00000000
00001000
00000000
00000000
00000010
00000000
00000000
00000100
00000000
,
00001000
00000000
00011000
00000000
00010000
00100000
01000000
00000000
,
00100000
00000000
10100000
00000000
10000000
01000000
00100000
00010000
,
00100000
00000000
00001000
00000000
01000000
00010000
01000000
00000000
,
00001000
00000000
00000000
00000000
00010000
00000000
00000000
00000000
00000100
00000000
00000000
00000010
00000000
00000000
00000001
00000000
,
00001000
00000000
00001010
00000000
00000010
00000100
00000001
00000000
,
00000100
00000000
00001010
00000000
00000010
00010000
00001000
01000000
,
00000000
00000000
00000000
00000000
01010000
00000000
00000000
00000000
00100000
00000000
00000000
00100000
00000000
00000000
00100000
00000000
,
00000000
00000000
00000000
00000000
00011000
00000000
00000000
00000000
00000010
00000000
00000000
00000010
00000000
00000000
00000010
00000000
,
00000000
00000000
00000000
00000000
00000101
00000000
00000000
00000000
00001000
00000000
00000000
00001000
00000000
00000000
00001000
00000000
,
00000001
00000010
00000000
00001000
00000010
00000000
00000110
00000000
,
00000200
00000000
00000000
00000000
,
00002300
00000000
00000000
00000000
,
00203000
00000000
00000000
00000000
,
00000000
00000000
00000000
00000000
,
02300000
00000000
00000000
00000000
,
03020000
00000000
00000000
00000000
00000000
00000000
00002000
00030000
,
00003020
00000000
00000000
00000000
,
00000000
00000000
00000000
00000000
,
00000230
00000001
00000000
00000001
00000000
00000010
00000300
00000100
,
00000002
00000010
00000000
00000010
00000000
00001000
00000003
00000001
,
00000020
00000100
00000000
00000100
00000000
00001000
00000000
00001000
,
00000000
00000001
00000000
00000001
00000000
00001000
00000030
00000010
,
00002000
00000010
00000000
00000010
00000000
00010000
00003000
00001000
,
00020000
00100000
00000000
00100000
00000000
00031000
00200000
01300000
,
20000000
00100000
00000000
00100000
00000000
00010000
00000000
30010000
,
10000000
00100000
00000000
00010000
00100000
00000000
01100000
00000000
,
00000000
10000000
00010000
01000000
00000000
00010000
00000000
01010000
,
00000000
00100000
00001000
00010000
00000000
00000010
00000000
00001010
,
00000000
00001000
00000100
00000010
00000000
00000100
00000000
00001001
,
00000000
00000001
00000010
00000100
00000000
00010000
00000000
00011000
,
00000000
00000100
00001000
00000100
00000000
00000001
00000000
00001001
,
00000000
00001000
00000010
00001000
00000000
00000100
00000000
00011000
,
00000000
00000010
00001000
00010000
00000000
00100000
00000000
01010000
,
00000000
01000000
00100000
00010000
00000000
00001000
00000000
00011000
,
00000000
00000010
00001000
00000100
00000000
00001000
00000000
00001100
,
00000000
00000010
00010000
00001000
00000000
00100000
00000000
00110000
,
00000000
00010000
01000000
00100000
00000000
01000000
00000000
10010000
,
00000000
10000000
00100000
01000000
00000000
00001000
00000000
00011000
,
00000000
01000000
00010000
01000000
00000000
10000000
00000000
10010000
,
00000000
00010000
00100000
00010000
00000000
01000000
00000000
00011000
,
00000000
00100000
00010000
00001000
00000000
00000010
00000000
00001100
,
00001000
00000100
00000000
00000001
00000100
00000000
00000110
00000000
,
00000010
00000000
00001000
00000000
00000000
00000100
00000000
00000000
00001000
00000000
00000000
00000010
00000000
00000000
00000100
00000000
,
00000000
00000000
00001000
00000000
00000000
00010000
00000000
00000000
00100000
00000000
00000000
00010000
00000000
00000000
00001000
00000000
,
00100000
00000000
00110000
00000000
00010000
00100000
01000000
10000000
,
00000000
00000000
10100000
00000000
00100000
00010000
00100000
10000000
,
00010000
00000000
00100000
00000000
00000000
01000000
00000000
00000000
00010000
00000000
00000000
00001000
00000000
00000000
00000100
00000000
,
00000000
00000000
00001000
00000000
00000000
00010000
00000000
00000000
00000010
00000000
00000000
00010000
00000000
00000000
00001000
00000000
,
00100000
00000000
01100000
00000000
01000000
00100000
00001000
00010000
,
00000000
00000000
00001010
00000000
00001000
00000100
00010000
00001000
,
00100000
00000000
00010000
00000000
00000000
01000000
00000000
00000000
00010000
00000000
00000000
00100000
00000000
00000000
01000000
00000000
,
00000000
00000000
00010000
00000000
00000000
00001000
00000000
00000000
00000010
00000000
00000000
00001000
00000000
00000000
00010000
00000000
,
00000010
00000000
00001010
00000000
00001000
00000010
00000100
00000001
,
00000000
00000000
00000011
00000000
00000010
00001000
00000010
00000001
,
00001000
00000000
00000010
00000000
00000000
00000100
00000000
00000000
00001000
00000000
00000000
00010000
00000000
00000000
01000000
00000000
,
00000000
00000000
00010000
00000000
00000000
00001000
00000000
00000000
00100000
00000000
00000000
00001000
00000000
00000000
00010000
00000000
,
00000010
00000000
00000110
00000000
00000100
00000010
00010000
00001000
,
00000000
00000000
00110000
00000000
00100000
01000000
00010000
00001000
,
00011000
00010000
01000000
00100000
,
00010000
00100000
01000000
10000000
,
00100000
01000000
00010000
00001000
,
00000010
00000100
00000001
00001000
,
00000001
00000100
00000010
00001000
,
00010000
01000000
00100000
10000000
,
02000000
00000000
00000000
00000000
,
00000000
00000000
00000000
03001000
;
