#VERSION:0.83;
#TITLE:Trinity Void;
#SUBTITLE:;
#ARTIST:Shaman X;
#TITLETRANSLIT:;
#SUBTITLETRANSLIT:;
#ARTISTTRANSLIT:;
#GENRE:DRUMSTEP;
#ORIGIN:;
#CREDIT:(2013?);
#BANNER:Trinity Void.png;
#BACKGROUND:Trinity Void-bg.png;
#PREVIEWVID:;
#JACKET:Trinity Void-jacket.png;
#CDIMAGE:;
#DISCIMAGE:;
#LYRICSPATH:;
#CDTITLE:Trinity Void-cdtitle (doubleres).png;
#MUSIC:Trinity Void.ogg;
#OFFSET:0.000000;
#SAMPLESTART:34.904999;
#SAMPLELENGTH:15.000000;
#SELECTABLE:YES;
#BPMS:0.000=41.250,
6.000=165.000,
27.000=330.000,
123.000=165.000,
126.000=330.000,
222.000=165.000,
270.000=330.000,
372.000=165.000,
375.000=330.000;
#STOPS:;
#DELAYS:;
#WARPS:;
#TIMESIGNATURES:0.000=3=4,
27.000=6=4,
123.000=3=4,
126.000=6=4,
222.000=3=4,
270.000=6=4,
372.000=3=4,
375.000=6=4;
#TICKCOUNTS:0.000=4;
#COMBOS:0.000=1;
#SPEEDS:0.000=1.000=0.000=0;
#SCROLLS:0.000=1.000;
#FAKES:;
#LABELS:0.000=Song Start;
#BGCHANGES:;
#KEYSOUNDS:;
#ATTACKS:
;

//---------------dance-single - ----------------
#NOTEDATA:;
#CHARTNAME:Expert;
#STEPSTYPE:dance-single;
#DESCRIPTION:;
#CHARTSTYLE:;
#DIFFICULTY:Hard;
#METER:17;
#RADARVALUES:0.916673,1.585642,0.233662,0.979582,0.157272,714.000000,688.000000,26.000000,109.000000,0.000000,0.000000,0.000000,0.000000,0.000000,0.916673,1.585642,0.233662,0.979582,0.157272,714.000000,688.000000,26.000000,109.000000,0.000000,0.000000,0.000000,0.000000,0.000000;
#CREDIT:xRGTMx;
#NOTES:
// measure 0
0000
0000
0000
0000
,  // measure 1
0000
0000
0000
0000
0000
0000
0000
0000
1000
0000
0010
0100
0010
0000
1000
0000
,  // measure 2
0200
0000
0310
0000
0001
0000
0010
0100
0010
0000
0001
0000
2000
0000
3010
0000
,  // measure 3
1000
0000
0100
0010
0100
0000
1000
0000
0020
0000
0130
0000
0001
0000
0100
0010
,  // measure 4
0100
0010
0100
0000
0002
0000
2003
0000
3001
0000
0010
0100
1000
0000
0010
0000
,  // measure 5
0200
0301
0100
0000
0010
0000
1000
0100
0010
0000
0001
0000
0200
0301
0100
0000
,  // measure 6
0001
0000
0010
0100
1000
0100
1000
0000
0200
0300
0020
0030
2002
0000
0000
0000
,  // measure 7
0000
0000
0000
0000
,  // measure 8
3003
1020
0000
0130
,  // measure 9
0001
0000
2000
3100
1000
0100
0010
0000
,  // measure 10
0010
0000
0000
0100
0000
1000
0000
0001
0000
2000
0000
0000
,  // measure 11
3010
0100
0020
0000
0230
0000
0302
0000
,  // measure 12
0023
2030
3020
0031
,  // measure 13
0010
0001
0100
0000
0010
0000
1100
0000
,  // measure 14
0110
0000
0021
0000
0000
0000
0130
1000
,  // measure 15
0001
0000
0200
0300
0100
0000
0010
0000
,  // measure 16
0100
0001
1000
0000
0100
0000
0020
0031
,  // measure 17
0010
0100
2000
0000
3020
0000
0032
0000
,  // measure 18
2003
3200
0302
1003
,  // measure 19
0100
0010
0001
0000
1000
0000
0011
0000
,  // measure 20
0110
0000
2001
0000
0000
0000
3010
0100
,  // measure 21
0010
0100
0002
0103
0001
0000
1000
0000
,  // measure 22
0100
0000
0000
0010
0000
0000
0001
0000
0000
0000
0000
0000
0100
0000
0000
0000
0000
0000
0002
0000
0000
0000
1003
0000
,  // measure 23
0000
0001
0000
2000
0000
0000
3020
0000
0000
0032
0000
0000
,  // measure 24
0203
0302
0023
1030
,  // measure 25
0100
0010
0100
1000
0100
0000
0011
0000
,  // measure 26
0101
1001
1000
0010
,  // measure 27
1000
0100
2000
3100
1000
0100
0010
0000
,  // measure 28
0001
0000
0000
0010
0000
0000
0001
0000
0000
0000
0000
0000
0100
0000
0000
0001
0000
0000
2000
0000
3010
0000
1000
0000
,  // measure 29
0010
1000
0002
0000
0023
0000
2030
0000
,  // measure 30
3200
2300
3020
0032
,  // measure 31
0000
0000
0000
0003
1010
0000
0100
0001
,  // measure 32
0100
0000
0010
0000
0200
1300
0100
0000
,  // measure 33
0001
0000
0010
0001
0010
0000
0100
0000
,  // measure 34
0020
1030
0010
0000
0001
0000
0010
0100
,  // measure 35
1000
0000
0010
0100
2000
3100
0001
0000
,  // measure 36
1000
0000
0100
0010
0001
0010
0100
0000
,  // measure 37
1100
0000
1001
0000
0011
0000
0100
1000
,  // measure 38
0100
0000
0010
0000
0200
0301
0100
0000
,  // measure 39
1000
0000
0010
1000
0010
0000
0100
0000
,  // measure 40
0020
0031
0010
0000
1000
0000
0100
0001
,  // measure 41
1000
0000
0001
0000
0200
1300
0001
0000
,  // measure 42
1010
0000
0000
0010
0100
0000
0100
0001
,  // measure 43
2000
3001
2000
3001
1000
0100
0010
0000
,  // measure 44
0100
0010
0001
0000
2000
3010
0100
0000
,  // measure 45
0010
0100
0001
0000
1000
0100
0010
0000
,  // measure 46
0002
0013
0100
1000
0001
0100
0010
0000
,  // measure 47
0100
0010
1000
0000
0002
0013
0100
0000
,  // measure 48
0010
0100
1000
0000
0001
0100
0010
0000
,  // measure 49
2000
3010
0200
0301
1000
0100
1000
0100
,  // measure 50
0010
0001
0010
0001
2000
3100
1000
0000
,  // measure 51
0001
0100
0001
0100
0010
1000
0010
1000
,  // measure 52
0002
0103
0001
0000
1000
0100
0010
0001
,  // measure 53
1000
0010
0100
0001
0020
0130
1000
0001
,  // measure 54
0100
0010
0100
0010
0100
0001
0100
0001
,  // measure 55
2000
3001
0020
0031
2000
0000
3100
1000
,  // measure 56
0010
1000
0002
0000
0103
0001
0010
0001
,  // measure 57
2000
0000
3010
1000
0100
1000
0002
0000
,  // measure 58
0013
0200
1000
0301
2000
0000
3010
0100
,  // measure 59
1000
0100
0002
0000
0013
0100
0001
0100
,  // measure 60
2000
0000
3100
0010
1000
0010
0002
0000
,  // measure 61
0103
0020
0001
0130
0001
0010
0100
1000
,  // measure 62
0010
1000
0001
0010
0100
1000
0010
1000
,  // measure 63
0001
0100
0010
1000
0100
1000
0001
0100
,  // measure 64
0010
1000
0100
1000
1001
0001
0100
0101
,  // measure 65
0001
1000
1100
1000
0001
0101
0100
0010
,  // measure 66
1000
0100
0010
0001
0100
0001
1000
0010
0100
0001
0010
0001
1000
0010
0100
0001
,  // measure 67
0010
1000
0010
0001
0100
0010
0100
0001
2000
0000
0000
0000
0000
0000
0000
0000
,  // measure 68
0000
0000
0000
0000
,  // measure 69
0010
0010
0010
0010
,  // measure 70
0010
0000
3010
0000
1001
0000
0010
1000
,  // measure 71
0100
0000
1000
0000
0002
0103
0001
0100
,  // measure 72
0010
0000
0000
0010
0000
0000
0100
0000
0001
0000
1000
0000
,  // measure 73
0002
0000
0013
0100
1000
0000
0010
0000
,  // measure 74
0001
0000
0010
1000
0002
0013
0100
0000
,  // measure 75
1000
0100
1000
0001
0200
0301
0010
0000
,  // measure 76
0200
1300
1020
0000
,  // measure 77
0130
0001
1000
0000
0200
0310
0100
0000
,  // measure 78
0010
0000
0100
1000
0001
0000
0100
0000
,  // measure 79
0020
1030
0010
0100
0001
0000
0001
0000
,  // measure 80
1001
0000
1000
0010
0200
0301
0100
0000
,  // measure 81
0010
1000
0010
1000
0100
2000
3002
0000
,  // measure 82
0023
0130
1002
0000
,  // measure 83
0013
0100
0010
0100
2000
3100
1000
0000
,  // measure 84
0001
0000
0100
0010
1000
0000
0100
0000
,  // measure 85
2000
0000
3001
0000
1000
0000
0001
0000
0000
0010
0000
0000
,  // measure 86
1000
0000
0010
0001
2000
3010
0100
0000
,  // measure 87
0001
0100
0001
1000
0200
1300
0010
0000
,  // measure 88
0200
0301
1001
1000
,  // measure 89
0100
0000
1000
0010
2000
3010
1000
0010
,  // measure 90
0100
0000
0001
0100
0001
0000
0010
0001
,  // measure 91
2000
0000
3100
0000
1000
0000
0100
0000
0000
1000
0000
0000
0001
0000
0000
0000
0000
0000
0001
0000
0000
0000
0000
0000
,  // measure 92
0100
0000
0010
0001
0010
0100
0001
0000
,  // measure 93
2002
0000
0000
0000
0000
3003
1000
0100
,  // measure 94
0010
0001
1000
0100
0010
0001
2000
0000
,  // measure 95
0010
0000
3001
0100
0010
1000
0001
0100
,  // measure 96
0010
1000
0002
0000
0010
0000
1003
0010
,  // measure 97
0100
0001
1000
0010
0100
0001
2000
0000
,  // measure 98
0010
0000
3001
0010
0100
1000
0002
0000
,  // measure 99
0010
0000
2003
0000
0100
0000
3001
0100
,  // measure 100
0010
0100
0001
0010
0100
1000
0020
0000
,  // measure 101
0100
0000
1030
0100
0010
0100
1000
0010
,  // measure 102
0100
0001
0020
0000
0100
0000
0031
0100
,  // measure 103
1000
0100
0001
0010
0100
1000
0020
0000
,  // measure 104
0100
0000
1030
0100
0001
0100
2000
3010
,  // measure 105
0100
0001
0020
0130
1000
0001
0200
0000
,  // measure 106
0000
0000
0000
0000
,  // measure 107
0010
0000
0000
0000
,  // measure 108
1000
0000
0000
0001
,  // measure 109
0000
0000
0000
0000
,  // measure 110
0010
0000
0000
0000
,  // measure 111
1000
0000
0301
0000
0000
0000
1000
0010
,  // measure 112
0100
0001
1000
0100
0010
0001
1000
0010
,  // measure 113
0100
0001
0010
0100
1000
0001
0100
0010
,  // measure 114
1000
0001
0010
0100
1000
0001
0100
0001
,  // measure 115
1000
0100
0010
0100
1000
0001
0010
0100
,  // measure 116
0010
0001
1000
0010
0100
0010
1000
0001
,  // measure 117
0010
0100
1000
0001
0100
0001
0000
0000
;

//---------------dance-single - ----------------
#NOTEDATA:;
#CHARTNAME:Difficult;
#STEPSTYPE:dance-single;
#DESCRIPTION:;
#CHARTSTYLE:;
#DIFFICULTY:Medium;
#METER:14;
#RADARVALUES:0.681727,0.898530,0.341505,0.548206,0.053922,531.000000,493.000000,38.000000,61.000000,0.000000,0.000000,0.000000,0.000000,0.000000,0.681727,0.898530,0.341505,0.548206,0.053922,531.000000,493.000000,38.000000,61.000000,0.000000,0.000000,0.000000,0.000000,0.000000;
#CREDIT:Riakodoadm;
#NOTES:
0000
0000
0000
0000
,
0000
0000
0000
0000
1100
0000
1000
0010
,
0100
0000
0000
0000
0101
0000
0000
0100
0001
0000
0010
0000
0100
0000
0000
0000
,
1010
0000
0000
0000
1000
0000
0001
0000
0100
0000
0000
0000
0011
0000
0000
0010
,
0001
1000
0100
0000
0101
0000
0001
0010
,
1000
0000
0000
0000
0011
0000
0000
0010
0001
0000
0100
0000
1000
0000
0000
0000
,
1010
0000
0000
0010
1000
0000
0100
0000
0001
0000
0000
0000
0220
0000
0000
0000
,
0000
0000
0000
0000
,
0330
1001
0000
1000
,
0100
0010
0001
0100
,
0010
0000
0000
1000
0000
0001
0000
1000
0000
0020
0000
0000
,
0000
2030
3200
0320
,
0032
0000
2003
0000
3200
0300
0110
0000
,
0000
0000
1001
0000
,
0000
0021
0000
0130
,
1000
2100
0000
3010
,
0000
0100
0001
0000
0001
0000
0020
0000
,
0000
0032
0203
0320
,
2030
0000
3002
0000
0203
0300
0110
0000
,
0000
0000
1001
0000
,
0000
1020
0000
0130
,
0100
0001
0010
0001
,
1000
0000
0000
0010
0000
0000
0000
0000
0000
0100
0000
0001
,
0000
0100
0000
0002
0000
0000
0023
0000
0000
0230
0000
0000
,
2300
0000
3002
0000
0023
0030
0110
0000
,
0000
0000
1100
0000
,
0000
1000
0001
0100
,
0010
0010
1000
0001
,
0100
0010
1000
0001
,
0001
2000
3020
0230
,
0302
0000
2003
0000
3020
0030
2002
0000
,
0000
3003
1001
0000
,
1000
1100
0000
1000
,
1010
0000
0001
0011
,
0000
0001
0101
0000
,
0010
0110
0000
1000
,
2100
0000
3010
1000
,
0001
0001
0101
0000
,
1000
1100
0000
0010
,
0110
0000
0001
0011
,
0000
1000
1001
0000
,
1000
1100
0000
0100
,
0120
0000
0031
0100
,
0010
0000
0010
0000
1000
0000
0000
1000
,
0100
0000
0000
0100
0010
0000
0000
0100
,
1000
0000
0000
1000
0010
0000
0000
0010
,
0100
0000
0000
0100
0001
0000
0000
0001
,
0010
0000
0000
0010
0100
0000
0000
0010
,
0001
0000
0000
0001
0100
0000
0000
0100
,
0010
0000
1000
0000
0100
0000
0010
0001
,
0010
0100
1000
0010
,
1000
0000
0001
0010
0001
0000
0100
0000
,
1000
0000
0100
0000
0010
0000
1000
0001
,
0010
0001
0100
0010
,
1000
0100
1000
0000
0001
0100
0001
0000
,
1000
0001
1000
0001
2000
0000
3100
0001
,
0100
1000
0002
0000
0103
1000
0100
0001
,
2000
0000
3010
0100
0001
1000
2001
0000
,
3100
0002
0000
0103
2000
0000
3001
0100
,
0001
0100
0020
0000
1030
0100
1000
0100
,
0020
0000
0031
0100
1000
0100
0002
0000
,
0013
2000
0000
3010
0001
0000
1000
0100
,
1000
0000
0010
0000
0100
0001
1000
0000
,
0100
0000
0010
0001
0100
0000
0001
0000
,
1000
0100
0001
0000
0100
1000
0010
0001
,
0010
1000
0100
0010
0001
0100
0010
1000
,
0100
0100
0010
0010
0001
0001
0100
0100
,
0010
0010
1000
1000
0002
0000
0000
0000
,
0000
0000
0000
0000
,
1003
0001
1000
0001
,
1000
0001
2000
0000
,
3100
0010
0001
0100
,
0010
0000
0000
0100
0000
0000
0001
0000
1000
0000
0001
0000
,
2000
0000
3100
0001
,
0100
1000
0010
0010
,
0100
0000
0100
0001
0100
0000
0001
0000
,
0020
0030
0110
0000
,
0100
0010
0100
0000
2000
0000
0000
0000
,
3001
0000
1000
0100
1000
0000
0001
0000
,
0202
0300
0013
0100
,
0100
0000
1000
0001
1000
0000
0001
0000
,
0010
0100
1000
0001
,
0010
0100
0020
0000
,
0031
0001
0100
0100
,
0010
1000
0020
0000
,
1030
0000
0100
0000
1000
0000
0010
0000
0000
1000
0000
0000
,
0001
0000
0010
0001
0010
0000
0001
0000
,
0100
0000
0001
0010
0001
0000
1000
0000
,
0020
0000
0130
0101
,
0100
0000
0001
0010
0001
0000
0100
0000
,
0010
0000
1000
0010
1000
0000
0001
0100
,
0001
0001
1000
1010
,
1000
0000
0100
0010
0100
0000
0010
0000
,
0002
0203
0320
2030
3200
0320
0031
0000
,
1000
0100
0010
0001
,
0010
0100
0010
0001
,
1000
0010
0001
0010
,
1000
0001
0100
0001
,
1000
0100
0010
0100
,
1000
0001
0100
0001
,
1000
0010
0001
0010
,
1000
0001
0010
0100
,
1000
0100
0001
0100
,
0010
0001
0100
1000
,
0100
0010
1000
0001
,
0010
0000
0100
1000
0100
1000
0100
0000
,
0000
0100
1000
0000
0000
1000
0010
0000
,
0000
0010
0100
0000
0000
0100
0001
0000
,
0000
0001
0010
0000
0000
0100
1000
0000
,
0000
0010
0100
0000
0000
0001
0010
0000
,
0000
0100
1000
0000
0000
0001
0010
0000
,
0000
0001
0100
0000
0000
0010
1000
0100
,
1000
0000
0001
0010
0001
0000
0100
0010
,
0100
0000
0001
0100
0001
0000
1000
0010
,
1000
0000
0001
1000
0100
0000
1000
0001
,
0010
0000
1000
0100
0010
0000
0001
0100
,
0010
0000
1000
0010
1000
0010
0100
0001
,
0100
0001
1000
0010
0100
0001
0000
0000
;

//---------------dance-single - ----------------
#NOTEDATA:;
#CHARTNAME:Beginner;
#STEPSTYPE:dance-single;
#DESCRIPTION:;
#CHARTSTYLE:;
#DIFFICULTY:Beginner;
#METER:5;
#RADARVALUES:0.215688,0.529109,0.080883,0.053922,0.000000,168.000000,159.000000,9.000000,6.000000,0.000000,0.000000,0.000000,0.000000,0.000000,0.215688,0.529109,0.080883,0.053922,0.000000,168.000000,159.000000,9.000000,6.000000,0.000000,0.000000,0.000000,0.000000,0.000000;
#CREDIT:Riakodoadm;
#NOTES:
0000
0000
0000
0000
,
0000
0000
0000
0000
,
0100
0000
0000
0100
,
0000
0000
0100
0000
,
0000
0000
0100
0100
0000
0000
0000
0000
,
0010
0000
0000
0010
,
0000
0000
0000
0000
0010
0010
0000
0000
,
0000
0000
0000
0000
,
0000
0000
0000
0100
,
0000
0000
0000
0100
,
0000
0000
0000
0100
,
0000
0100
0000
0010
,
0000
0100
0000
0000
,
0000
0000
0000
0000
,
0000
0000
0000
0010
,
0000
0000
0000
0010
,
0000
0000
0000
0010
,
0000
0010
0000
0100
,
0000
0010
0000
0000
,
0000
0000
0000
0000
,
0000
0000
0000
1000
,
0000
0000
0000
0010
,
0000
0000
0000
1000
,
0000
0001
0000
1000
,
0000
0001
0000
0000
,
0000
0000
0000
0000
,
0000
0000
0000
0001
,
0000
0000
0000
0010
,
0000
0000
0000
0001
,
0000
1000
0000
0001
,
0000
1000
0000
0000
,
0000
0000
1000
0000
,
0000
1000
0000
0000
,
1001
0000
0000
0000
,
0000
0000
0001
0000
,
0000
0001
0000
0000
,
0010
0000
0100
0000
,
0010
0000
0001
0000
,
0000
0001
0000
0000
,
1001
0000
0000
0000
,
0000
0000
1000
0000
,
0000
1000
0000
0000
,
0010
0000
0100
0000
,
0010
0000
1000
0000
,
0000
0000
1000
0000
,
0100
0000
0000
0000
,
0100
0000
0010
0000
,
0000
0000
0010
0000
,
0001
0000
0000
0000
,
0100
0100
0001
0000
,
0000
0000
0001
0000
,
0100
0000
0000
0000
,
0100
0000
0010
0000
,
0000
0000
0010
0000
,
1000
0000
0000
0000
,
0100
0100
0100
0000
,
0000
0100
0000
0000
,
0100
0000
0000
1001
,
0000
0000
0010
0000
,
0000
0010
0000
0000
,
0010
0000
0000
1001
,
0000
0000
1000
0000
,
1000
0001
0000
0001
,
1000
0000
1000
0001
,
0000
0001
1000
1000
,
1000
0001
0001
0001
,
0010
0010
0100
0100
,
0010
0010
2002
0000
,
0000
0000
3003
0000
,
0000
0000
0000
0000
,
0000
0000
0000
0000
,
1000
0000
0001
0000
,
1000
0000
0010
0000
,
0000
0000
0000
0000
,
0001
0000
1000
0000
,
0001
0000
0010
0000
,
0010
0000
0000
0000
,
0001
0000
0100
0000
,
0010
0000
1000
0000
,
0000
0000
0000
0000
,
1000
0000
0100
0000
,
0010
0000
0001
0000
,
0001
0000
0000
0000
,
0001
0000
0010
0000
,
0100
0000
1000
0000
,
0000
0000
0000
0000
,
1000
0000
0010
0000
,
0100
0000
0001
0000
,
0001
0000
0000
0000
,
0010
0000
1000
0000
,
0100
0000
0001
0000
,
0000
0000
0000
0000
,
0010
0000
0001
0000
,
0100
0000
0000
1000
,
0000
1000
0000
0001
,
0000
0100
0000
0100
,
0000
0001
0000
0010
,
0000
0010
0000
0001
,
0000
0100
0000
1001
,
0000
1001
0000
0001
,
0000
0001
0000
1000
,
0000
0100
0000
0100
,
0000
1000
0000
0010
,
0000
0010
0000
1000
,
0000
0100
0000
0110
,
0000
0110
0000
2000
,
0000
0000
0000
0000
,
0000
0000
0000
0000
,
0000
0000
3000
0020
,
0000
0000
0000
0000
,
0000
0000
0000
0000
,
0030
0010
0000
0200
,
0000
0000
0000
0000
,
0000
0000
0000
0000
,
0000
0000
0300
0002
,
0000
0000
0000
0000
,
0000
0000
0000
0000
,
0000
0000
0000
0003
;

//---------------dance-single - ----------------
#NOTEDATA:;
#CHARTNAME:Basic;
#STEPSTYPE:dance-single;
#DESCRIPTION:;
#CHARTSTYLE:;
#DIFFICULTY:Easy;
#METER:10;
#RADARVALUES:0.439079,0.633583,0.359479,0.134805,0.000000,342.000000,302.000000,40.000000,15.000000,0.000000,0.000000,0.000000,0.000000,0.000000,0.439079,0.633583,0.359479,0.134805,0.000000,342.000000,302.000000,40.000000,15.000000,0.000000,0.000000,0.000000,0.000000,0.000000;
#CREDIT:Riakodoadm;
#NOTES:
0000
0000
0000
0000
,
0000
0000
1000
1000
,
1100
1000
1000
1001
,
1000
1000
1010
1000
,
1000
0000
1000
1000
0001
0000
0001
0000
,
0101
0001
0001
1001
,
0001
0001
0011
0002
,
0000
0000
0000
0000
,
0000
1003
0000
0010
,
0000
1000
0000
0001
,
0000
0010
0001
0010
,
0000
1000
0000
0100
,
0000
0001
0000
0110
,
0000
0000
1001
0000
,
0000
0001
0000
0010
,
0000
0001
0000
1000
,
0000
0100
1000
0100
,
0000
0001
0000
0100
,
0000
1000
0000
0110
,
0000
0000
1001
0000
,
0000
0001
0000
1000
,
0000
0100
0000
1000
,
0000
0001
0000
0100
,
0001
1000
0000
0010
,
0000
0001
0000
0101
,
0000
0000
1010
0000
,
0000
0010
0000
0100
,
0001
0100
0000
0010
,
0000
0100
1000
0100
,
0000
0001
0000
0010
,
0000
1000
0000
1001
,
0000
0000
2100
0000
,
0000
3001
0000
0001
,
0102
0000
0000
1003
,
0000
0000
2010
0000
,
0000
3001
0000
0001
,
1001
0000
1000
0100
,
0010
0001
0102
0000
,
0000
1003
0000
1000
,
2100
0000
0000
3001
,
0000
0000
0012
0000
,
0000
1003
0000
1000
,
1001
0000
0001
0100
,
0010
1000
1000
0000
,
0100
0000
0001
0000
,
0100
0000
1000
0000
,
0100
0000
0001
0000
,
0010
0000
1000
0000
,
0010
0000
0001
0000
,
0010
0000
1000
0000
,
0001
0100
0001
0000
,
0001
0000
1000
0100
,
1000
0000
0100
0000
,
0010
0000
0001
0000
,
0100
0010
0100
0010
,
0100
0010
2000
0100
,
3100
0002
0100
0103
,
2000
0100
3100
1001
,
0000
0110
0000
0000
1002
0000
0010
0000
,
0013
2000
0010
3010
,
0002
0010
0013
0110
,
0000
1001
0000
0000
1000
0000
0100
0000
,
0001
1000
0100
0001
,
0001
0100
1000
0001
,
0100
0000
1000
0000
1001
0000
0000
0110
,
0000
0000
1001
0000
0000
0110
0000
0000
,
1000
0100
0010
0001
,
1000
0001
1000
0001
2002
0000
0000
0000
,
0000
0000
3003
0000
,
0100
0000
0100
0000
,
0100
0000
0100
0000
,
1000
0000
0001
0100
,
0001
0000
1000
0100
,
1000
0000
0010
0000
,
0100
0000
0001
0000
,
0010
0010
0010
0000
,
0100
0000
1000
0000
,
0001
0010
0100
0000
,
1000
0000
0010
0010
,
0010
0000
0100
0001
,
0100
0001
0100
0000
,
0010
1000
0010
1000
,
0010
1000
0001
0000
,
0010
0100
1000
0000
,
0010
0000
0001
0000
,
0010
0000
0100
0100
,
0100
0000
0001
0000
,
0100
0000
0010
0000
,
1000
0000
1000
0100
,
1000
0000
1000
0000
,
0001
0100
0001
0000
,
0001
0001
0010
0100
,
0010
0000
0100
0100
,
1001
0000
0000
0001
,
0000
0100
0000
1100
,
0000
0100
0000
0001
,
0000
0101
0000
1000
,
0000
0010
0000
0011
,
0000
0010
0000
1010
,
0000
0110
0000
0001
,
0000
1000
0100
0110
,
0000
1000
0000
0001
,
0100
0110
0000
0100
,
0000
0010
0000
1001
,
0000
0100
0010
0100
,
0010
0100
0010
0100
,
0000
1000
0000
0010
,
0000
0001
0000
0100
,
0000
1000
0000
0100
,
0000
0001
0000
0010
,
0000
1000
0000
0100
,
0010
0001
0000
0100
,
0001
0100
0001
0100
,
0000
0010
1000
0010
,
1000
0010
0000
1000
,
0001
1000
0001
1000
,
0000
0010
0100
0010
,
0100
0010
0100
0000
;

//---------------dance-double - ----------------
#NOTEDATA:;
#CHARTNAME:Expert;
#STEPSTYPE:dance-double;
#DESCRIPTION:;
#CHARTSTYLE:;
#DIFFICULTY:Hard;
#METER:17;
#RADARVALUES:0.937214,1.585642,0.503271,0.638076,0.130311,730.000000,674.000000,56.000000,71.000000,0.000000,0.000000,0.000000,0.000000,0.000000,0.937214,1.585642,0.503271,0.638076,0.130311,730.000000,674.000000,56.000000,71.000000,0.000000,0.000000,0.000000,0.000000,0.000000;
#CREDIT:Riakodoadm;
#NOTES:
00000000
00000000
00000000
00000000
,
00000000
00000000
00000000
00000000
00000000
00000000
00000000
00000000
00010000
00000000
10000000
01000000
10000000
00000000
00010000
00000000
,
00110000
00000000
00010000
00000000
01000000
00000000
00100000
10000000
00010000
00000000
00100000
00000000
01100000
00000000
00100000
00000000
,
00001000
00000000
00010000
00000100
00001000
00000000
00000010
00000000
00001010
00000000
00000010
00000000
00000100
00000000
00000001
00000010
,
00000001
00000010
00000100
00000000
00000110
00000000
00000110
00000000
00000010
00000000
00000001
00000100
00000001
00000000
00001000
00000000
,
00001010
00000000
00001000
00000000
00000100
00000000
00000010
00000001
00001000
00000000
00000010
00000000
00010010
00000000
00010000
00000000
,
00000100
00000000
00010000
00000010
00010000
00001000
00100000
00000000
00101000
00000000
00101000
00000000
00021000
00000000
00000000
00000000
,
00000000
00000000
00000000
00000000
,
00000000
00030200
00000000
00000310
,
00000010
00000000
00000001
00000100
00000001
00001000
00000100
00000000
,
00000100
00000000
00000000
00001000
00000000
00000100
00000000
00000001
00000000
00000100
00000000
00000000
,
00000010
00000002
00000203
00002300
,
00023000
00230000
20300000
30010000
,
10000000
01000000
00100000
00010000
01000000
00000000
01010000
00000000
,
10010000
00000000
20000000
00000000
01000000
00000000
30010000
01000000
,
00100000
10000000
01000000
00010000
,
01000000
10000000
01000000
00000000
00100000
00000000
00120000
00000000
,
00000000
20030000
32000000
03020000
,
00032000
00003020
00000230
00001300
,
00000001
00000100
00000010
00001000
00000100
00000000
00001100
00000000
,
00001001
00000000
00000002
00000000
00000100
00000000
00000013
00000001
,
00000010
00000100
00001000
00000001
00000100
00000000
00000010
00000000
,
00000100
00000000
00000000
00000001
00000000
00000000
00000010
00000000
00000000
00000000
00000000
00000000
00000100
00000000
00000000
00000000
00000000
00000000
00001000
00000000
00000000
00000000
00000100
00000000
,
00000000
00000010
00000000
00000002
00000000
00000000
00000203
00000000
00000000
00002300
00000000
00000000
,
00023000
02030000
23000000
30100000
,
10000000
01000000
00100000
00010000
10000000
00000000
10100000
00000000
,
10010000
00010000
00010000
01000000
,
00100000
10000000
00100000
10000000
01000000
10000000
01000000
00000000
,
00100000
00010000
00100000
00000000
01000000
10000000
00100000
01000000
,
00010000
10000000
02000000
00000000
03020000
00000000
00032000
00000000
,
00003200
00000302
00000013
00000220
,
00000000
00000000
00000330
00000000
00001100
00000000
00000100
00000010
,
00000100
00001000
00002100
00003001
,
00000101
00000000
00000100
00000010
00000100
00000000
00000001
00000000
,
00000201
00000000
00000310
00000000
00001010
00000000
00000010
00010000
,
00000010
00010000
00012000
00103000
,
00102000
00000000
00103000
00000000
00001000
00000000
00100000
00010000
,
00100000
01000000
10000000
00010000
10000000
00000000
01000000
10000000
,
01000000
10000000
21000000
30100000
,
01100000
00000000
01000000
00010000
01000000
00000000
00100000
00000000
,
20100000
00000000
30010000
00000000
00110000
00000000
00100000
00001000
,
00100000
00010000
02010000
03001000
,
00012000
00000000
00013000
00000000
00001000
00000000
00000100
00001000
,
00000100
00000001
00000100
00000010
00001000
00000000
00000001
00000100
,
00000010
00000000
00001000
00000010
00000100
00000000
00001000
00000000
,
00010000
00000000
01000000
10000000
00100000
00000000
01000000
00010000
,
00100000
00000000
00010000
00000000
10000000
00000000
00100000
01000000
,
00010000
00000000
00100000
00001000
00010000
00000000
00000100
00000000
,
00000010
00000000
00000001
00000100
00000010
00000000
00010000
00001000
,
01000000
00000000
00010000
00000000
10000000
00100000
10000000
01000000
,
00100000
00010000
01000000
00001000
00010000
00000000
00000100
00000000
,
00000010
00000001
00000100
00000010
00001000
00000001
00000100
00000010
,
00000100
00000000
00001000
00000000
00010000
00000100
00001000
00000010
,
00000100
00000001
00000010
00000100
00010000
00001000
01000000
00010000
,
10000000
01000000
10000000
01000000
00010000
01000000
00010000
01000000
,
00010000
00001000
00010000
00001000
00020000
00000000
00030100
00001000
,
00000100
00001000
00000002
00000000
00000103
00001000
00000100
00001000
,
00020000
00000000
01030000
10000000
01000000
10000000
22000000
33000000
,
00010000
02020000
03030000
10000000
20000000
00000000
31000000
00010000
,
00001000
00010000
02000000
00000000
03010000
00001000
00000100
00001000
,
00020000
00000000
00031000
00000010
00000001
00000010
00000022
00000033
,
00001000
00002020
00003030
00000001
00000011
00000001
00000100
00001000
,
00000100
00000010
00001010
00001000
00000100
00000001
00000100
00010000
,
00011000
00010000
01000000
00010000
00001000
01000000
01010000
00010000
,
00100000
10000000
00100000
00010000
10010000
00010000
01000000
01001000
,
00001000
00010000
00011000
00010000
00000010
00010010
00000010
00000100
,
00000001
00000010
00000001
00000010
00000100
00010000
00000100
00010000
00001000
00100000
00001000
00100000
01000000
10000000
01000000
10000000
,
00100000
01000000
00001000
00010000
00001000
01000000
00010000
00100000
02000000
00000000
00000000
00000000
00000000
00000000
00000000
00000000
,
00000000
03000000
00000000
00000000
,
00100000
00100000
00100000
00100000
,
00100000
00100000
10100000
10000000
,
01000000
00000000
01000000
00000000
00100000
00010000
01000000
00010000
,
00100000
00000000
00000000
01000000
00000000
00000000
10000000
00000000
01000000
00000000
00010000
00000000
,
00002000
00003100
00001000
00010000
,
00001000
00000000
00000100
00000010
00001000
00000100
00000010
00000000
,
00000001
00000010
00000001
00001000
00000100
00001000
00000002
00000000
,
00000100
00000000
00001003
00000001
,
00000100
00000010
00000100
00000000
00000001
00000000
00000010
00000000
,
00000100
00000000
00010000
00000100
00001000
00000000
00000100
00000000
,
00020100
00000000
00031000
00010000
,
01000000
00000000
00010000
00001000
01000000
00010000
01000000
00000000
,
00200000
20300000
32000000
03020000
,
00032000
00013000
00010020
00000000
,
00000130
00000001
00000100
00000010
00001000
00000100
00000010
00000000
,
00000001
00000000
00000100
00001000
00010000
00000000
00001000
00000000
,
00010000
00000000
01000000
00000000
10000000
00000000
00100000
00000000
00000000
00100000
00000000
00000000
,
00100000
00000000
10000000
00010000
01000000
00010000
10000000
00000000
,
00100000
10000000
00100000
01000000
00010000
01000000
00010000
00000000
,
00200000
00000000
00301000
00101000
,
00001000
00000000
00010000
00000100
00010000
00001000
00010000
00000100
,
00001000
00000000
00000010
00010000
00000010
00000000
00010000
00001000
,
01000000
00010000
00100000
00001000
00010000
00000000
00010010
00000000
,
00010000
00000000
00010000
00001000
00000100
00001000
00010000
00000000
,
02000000
23000000
30200000
00320000
00032000
00003200
00000301
00000100
,
00000010
00001000
00000001
00000100
00000010
00000000
00001010
00000000
,
00001000
00000000
00000100
00010000
00001000
00100000
00001000
00010000
,
00000100
00000000
00010100
00000000
00010000
00000000
00001000
01000000
,
00100000
10000000
00010000
01000000
00100000
00000000
10100000
00000000
,
10000000
00000000
01000000
00100000
00010000
00000000
01020000
00000000
,
00130000
00000000
21000000
00000000
30100000
00000000
10000000
01000000
,
00100000
00010000
10000000
01000000
00100000
00000000
00110000
00000000
,
00010000
00000000
00100000
00001000
00010000
00000100
00010000
00001000
,
00100000
00000000
00101000
00000000
00001000
00000000
00010000
00000100
,
00000010
00000001
00001000
00000100
00000010
00000000
00000011
00000000
,
00000001
00000000
00000100
00000001
00000100
00000001
00000100
00001000
,
00000100
00001000
00010000
00001000
00010000
00001000
00010000
00000000
,
00000000
00010000
00000100
00000000
00000000
00000100
00000010
00000000
,
00000000
00000010
00000001
00000000
00000000
00000001
00000100
00000000
,
00000000
00000100
00001000
00000000
00000000
00001000
00010000
00000000
,
00000000
00010000
00100000
00000000
00000000
00100000
10000000
00000000
,
00000000
10000000
01000000
00000000
00000000
01000000
00100000
00000000
,
00000000
00100000
00010000
00000000
00100000
00010000
10000000
01000000
,
00100000
00010000
00100000
00001000
00010000
00000100
00001000
00000100
,
00000010
00000001
00000100
00000010
00010000
00001000
01000000
00100000
,
01000000
00010000
00100000
01000000
10000000
00010000
01000000
10000000
,
01000000
00001000
00010000
00000100
00000010
00000100
00001000
00000001
,
00000100
00001000
00010000
00001000
00000100
00001000
00010000
01000000
,
10000000
00100000
01000000
00001000
00010000
00001000
00000000
00000000
;

//---------------techno-single8 - ----------------
#NOTEDATA:;
#CHARTNAME:;
#STEPSTYPE:techno-single8;
#DESCRIPTION:;
#CHARTSTYLE:;
#DIFFICULTY:Hard;
#METER:1;
#RADARVALUES:0.102708,0.400146,0.134805,0.143792,0.022467,80.000000,65.000000,15.000000,16.000000,0.000000,7.000000,0.000000,0.000000,0.000000,0.102708,0.400146,0.134805,0.143792,0.022467,80.000000,65.000000,15.000000,16.000000,0.000000,7.000000,0.000000,0.000000,0.000000;
#CREDIT:;
#NOTES:
00000000
00000000
00000000
00000000
,
00000000
00000000
00000000
00000000
00000000
00000000
00000000
00000000
02000010
00000000
00000100
00000010
03000100
00000000
01000000
00000000
,
01010000
00000000
00010000
00000000
00002010
00000000
00000001
00000010
00003001
00000000
00001000
00000000
00001010
00000000
00000010
00000000
,
10000020
00000000
01000000
10000000
01000030
00000000
10000000
00000000
10001000
00000000
00001000
00000000
00000000
00000000
00000000
00000000
,
00000000
00000000
00000000
00000000
,
00000000
00000000
00000000
00000000
,
00000000
00000000
00000000
02000020
,
00000000
00000000
00000000
00000000
,
00000000
23000031
00000000
30001000
,
00001000
00000000
00010000
00000010
00010000
00001000
00100000
00000000
,
00100000
00000000
00000000
00000001
00000000
00001000
00000000
00010000
00000000
00100000
00000000
00000000
,
10000000
02000000
03002000
00003020
,
02000030
03020000
00030020
00001030
,
00000100
00001000
00010000
00100000
00000010
00000000
01100000
00000000
,
00000110
00000101
00000000
00000000
,
00000000
00000000
00000000
00000000
,
00000000
00000000
00000000
00000000
,
00000000
00000000
00000000
00000000
,
00000000
00000000
00000000
00000000
,
00000000
00000000
00000000
00000000
,
00000000
00000000
00000000
00000000
,
00000000
00000000
00000000
00000000
,
00000000
00000000
00000000
00000000
,
00000000
00000000
00000000
00000000
,
00000000
00000000
00000000
00000000
,
00000000
00000000
00000000
00000000
,
00000000
00000000
00000000
00000000
,
00000000
00000000
00000000
00000000
,
00000000
00000000
00000000
00000000
,
00000000
00000000
00000000
00000000
,
00000000
00000000
00000000
00000000
,
00000000
00000000
00000000
00000000
22000000
00000000
00000010
00000100
,
33000010
01000000
01001000
00001000
,
20020000
00000000
00000100
00001000
30030100
00000000
00010000
00000000
,
00010010
00000010
00000000
00000000
;

//---------------dance-double - ----------------
#NOTEDATA:;
#CHARTNAME:Difficult;
#STEPSTYPE:dance-double;
#DESCRIPTION:;
#CHARTSTYLE:;
#DIFFICULTY:Medium;
#METER:13;
#RADARVALUES:0.697133,0.951385,0.602128,0.691998,0.035948,543.000000,476.000000,67.000000,77.000000,0.000000,0.000000,0.000000,0.000000,0.000000,0.697133,0.951385,0.602128,0.691998,0.035948,543.000000,476.000000,67.000000,77.000000,0.000000,0.000000,0.000000,0.000000,0.000000;
#CREDIT:Riakodoadm;
#NOTES:
00000000
00000000
00000000
00000000
,
00000000
00000000
00000000
00000000
10000000
00100000
01000000
00000000
,
01100000
00000000
00100000
01000000
00010000
00000000
00110000
00000000
,
00100000
00001000
00010000
00000000
00010010
00000000
00000010
00000100
,
00000001
00000000
00001001
00001001
00001000
00000010
00000100
00000000
,
00000101
00000000
00000001
00000010
00000100
00000000
00010100
00000000
,
00010000
00001000
01000000
00000000
01100000
00100000
20020000
00000000
,
00000000
00000000
00000000
00000000
,
30030000
00101000
00000000
00100000
,
01000000
10000000
01000000
00010000
,
01000000
00000000
00000000
00100000
00000000
00001000
00000000
00010000
00000000
00002000
00000000
00000000
,
00000000
00003200
00000302
00000023
,
00002030
00023000
02030000
13000000
,
01000000
00100000
00001000
00011000
,
00011000
00010000
00000000
00001000
,
00000100
00000010
00000000
00000110
,
00000000
00000100
00000001
00000000
00001000
00000000
00000200
00000000
,
00000000
00020300
02030000
23000000
,
30200000
00320000
00032000
00003100
,
00000001
00000010
00000100
00010100
,
00010100
00020000
00000000
00130000
,
00010000
00001000
00000100
00001000
,
00010000
00000000
00000000
00001000
00000000
00000000
00020000
00000000
00000000
00000000
00000000
00000000
00000000
00000000
00000000
00000000
00000000
00000000
01030000
00000000
00000000
00000000
00100000
00000000
,
00000000
01000000
00000000
20000000
00000000
00000000
30200000
00000000
00000000
00320000
00000000
00000000
,
00032000
00003020
00000032
00000103
,
00001000
00010000
00001000
00101000
,
00101000
00100000
00100000
01000000
,
00010000
00001000
00000100
00000010
,
00000010
00000100
00001000
00010000
,
01000000
00020000
02030000
23000000
,
30200000
00000000
00320000
00000000
00032000
00003000
00022000
00000000
,
00000000
00033000
01010000
00000000
,
01000000
11000000
00000000
10000000
,
10100000
00000000
00100000
00110000
,
00000000
00010000
00011000
00000000
,
00001000
00001100
00000000
00000100
,
00000202
00000303
00000001
00000010
,
00000001
00000100
00001100
00000000
,
00000100
00000101
00000000
00000001
,
00000011
00000000
00000010
00001010
,
00000000
00001000
00011000
00000000
,
00010000
01010000
00000000
01000000
,
22000000
33000000
01000000
01000000
,
00100000
00010000
10000000
01000000
,
10000000
01000000
01100000
00000000
,
00100000
00001000
00010000
00001000
,
01001000
00000000
01000000
00100000
,
00010000
00001000
00011000
00000000
,
00010000
00001000
00000010
00000001
,
00001001
00001001
00001000
00000010
,
00010000
00001000
00011000
00010000
,
01000000
00100000
00010000
10000000
,
10100000
00100000
01000000
00100000
,
00010000
00001000
00011000
00010000
,
00001000
00100000
00001000
00000000
00010000
00000010
00010000
00000000
,
00000010
00000100
00000001
00001000
00000002
00000003
00000001
00000100
,
00001000
00010000
00022000
00033000
00001000
00010000
01000000
10000000
,
20020000
30030000
00010000
00100000
01000000
00010000
02020000
03030000
,
00010000
00022000
00033000
00010000
00020020
00030030
00000010
00000001
,
00001000
00000100
00000202
00000303
00000001
00000010
00001000
00010000
,
00022000
00033000
00001000
00010000
00100000
10000000
22000000
33000000
,
01000000
02200000
03300000
01000000
01010000
00000000
00010000
00001000
,
00000100
00000000
00001100
00000000
00001000
00000100
00000001
00000000
,
00000011
00000000
00000010
00000100
00010000
00000000
00011000
00000000
,
00001000
00000100
00000010
00000000
00000100
00000100
00000100
00001000
,
00001000
00001000
00010000
00010000
00010000
00100000
00100000
00100000
,
10000000
00100000
01000000
00010000
00100000
00001000
00010000
00000010
,
00000100
00001000
00000100
00000001
00000020
00000000
00000000
00000000
,
00000000
00000000
00000000
00000000
,
00000130
00000010
00000100
00000010
,
00000100
00000010
00000001
00000010
,
00001000
00010000
00000010
00000100
,
00001000
00000000
00000000
00010000
00000000
00000000
00001000
00000000
00010000
00000000
01000000
00000000
,
00100000
00010000
01000000
00100000
,
00010000
00000000
00001000
00000000
01000000
00010000
01000000
00000000
,
00100000
10000000
11000000
01000000
,
01100000
00100000
01000000
00010000
,
00001000
00010000
00000010
00010000
,
00000100
00000000
00000000
00000010
00000001
00000000
00000100
00000000
,
00000220
00000330
00000010
00000001
,
00000010
00000000
00001000
00000000
00000100
00000010
00000100
00000000
,
00000020
00002030
00023000
00230000
,
20300000
30010000
00220000
00330000
,
00100000
10000000
00010000
01000000
,
00100000
00001000
00010000
00001000
,
00000100
00000000
00000010
00000000
00000100
00000000
00000001
00000000
00000000
00000100
00000000
00000000
,
00001000
00000001
00000010
00000100
,
00001000
00010000
00011000
00001000
,
01001000
01000000
00100000
00010000
,
00001000
00010000
01000000
00010000
,
00001000
00000010
00001000
00010000
,
00001000
00000100
00001000
00010000
,
00100000
10000000
01000000
10000000
,
00100000
00010000
00001000
00000100
00000001
00000010
00000100
00000000
,
00001000
00000010
00000100
00000101
,
00000001
00000010
00000100
00010000
,
00001000
00001100
00000100
00000010
,
00010000
00001000
00100000
00110000
,
00010000
01000000
00100000
10100000
,
10000000
00110000
00010000
10000000
,
00100000
01000000
00100000
10100000
,
10000000
01000000
00100000
00001000
,
00010000
00010100
00000100
00001000
,
00000010
00000100
00001000
00011000
,
00010000
00000000
00001000
01000000
00001000
00000000
00010000
00000100
,
00010000
00000000
00000010
00000100
00000010
00000100
00000002
00000000
,
00000000
00000203
00000000
00002300
,
00000000
00023000
00000000
00030020
,
00000000
00002030
00000000
00023000
,
00000000
00230000
00000000
20300000
,
00000000
30020000
00000000
00032000
,
00000000
00003200
00000000
00000310
,
00000100
00001000
00010000
00100000
,
00010000
00001000
00000100
00001000
,
00010000
00001000
00000010
00000001
,
00000010
00001000
00010000
01000000
,
10000000
00000000
00100000
01000000
00100000
00000000
00010000
00001000
,
00010000
00000000
00000010
00000100
00000010
00000100
00000000
00000000
;

//---------------dance-double - ----------------
#NOTEDATA:;
#CHARTNAME:Basic;
#STEPSTYPE:dance-double;
#DESCRIPTION:;
#CHARTSTYLE:;
#DIFFICULTY:Easy;
#METER:9;
#RADARVALUES:0.445498,0.687111,0.314545,0.260623,0.000000,347.000000,312.000000,35.000000,29.000000,0.000000,0.000000,0.000000,0.000000,0.000000,0.445498,0.687111,0.314545,0.260623,0.000000,347.000000,312.000000,35.000000,29.000000,0.000000,0.000000,0.000000,0.000000,0.000000;
#CREDIT:Riakodoadm;
#NOTES:
00000000
00000000
00000000
00000000
,
00000000
00000000
00100000
00100000
,
11000000
00100000
00100000
01010000
,
00100000
00100000
00011000
00010000
,
00010000
00000000
00000010
00001000
00000010
00000000
00000010
00000000
,
00000101
00000010
00000010
00001100
,
00001000
00000000
00001000
00000000
00000100
00010000
00022000
00000000
,
00000000
00000000
00000000
00000000
,
00033000
00001000
00000000
00100000
,
00000000
00010000
00000000
01000000
,
00000000
00001000
00010000
00001000
,
00000000
00000200
00000000
00000302
,
00000000
00000000
00000023
00000000
00000000
00000030
00000110
00000000
,
00000000
00000000
00011000
00000000
,
00000000
00010000
00000000
00000010
,
00000000
00001000
00000000
00000100
,
00000000
00010000
00001000
00010000
,
00000000
02000000
00000000
23000000
,
00000000
00000000
30200000
00000000
00000000
00300000
01100000
00000000
,
00000000
00000000
10010000
00000000
,
00000000
10000000
00000000
00100000
,
00000000
01000000
00000000
00001000
,
00000000
00010000
00000000
00000100
,
00001000
00000002
00000000
00000203
,
00000000
00000000
00000320
00000000
00000000
00000030
00000110
00000000
,
00000000
00000000
00001001
00000000
,
00000000
00000001
00000000
00000100
,
00000010
00000100
00000000
00001000
,
00000000
00010000
00000100
00010000
,
00000000
02000000
00000000
23000000
,
00000000
00000000
30200000
00000000
00000000
00300000
02200000
00000000
,
00000000
00000000
00000000
03300000
00100000
00000000
00000000
00000000
,
00000000
11000000
00000000
00000000
,
00100000
00000000
00000000
00011000
,
00000000
00000000
00000010
00000000
,
00000000
00001100
00000000
00000000
,
00001010
00000000
00000010
00000100
,
00000001
00000000
00000010
00000000
,
00000000
00001100
00000000
00000000
,
00000010
00000000
00000000
00011000
,
00000000
00000000
00100000
00000000
,
00000000
11000000
00000000
00000000
,
00110000
00000000
00100000
01000000
,
10000000
00000000
01000000
00100000
,
01000000
00100000
01000000
00000000
,
00010000
00001000
00010000
00001000
,
00010000
00000000
00000010
00010000
,
00000010
00010000
00000010
00000000
,
00001000
00000100
00001000
00000100
,
00001000
00000010
00000100
00000001
,
00000100
00000001
00000100
00000000
,
00000010
00010000
00000010
00010000
,
00000010
00000000
00010000
00000100
,
00010000
00000100
00010000
00000000
,
00001000
00100000
00001000
00100000
,
00010000
00100000
00020000
01030000
,
01000000
20000000
31000000
01000000
,
00020000
01030000
01000000
01100000
,
00000000
00011000
00000000
00000000
00002000
00000000
00003100
00000000
,
00000100
00000002
00000103
00000100
,
00002000
00003100
00000100
00000110
,
00000000
00011000
00000000
00000000
00010000
00000000
00000010
00000000
,
00010000
00001000
00100000
00001000
,
00010000
00100000
00010000
00001000
,
00000010
00001000
00010000
00100000
,
01000000
00100000
10000000
01000000
,
00010000
00001000
00010000
00001000
,
00000100
00000001
00000020
00000000
,
00000000
00000000
00000000
00000000
,
00000230
00000000
00000000
00000000
,
00000000
00000000
00010300
00000000
,
00001000
00000000
00000100
00000000
,
00001000
00000000
00010000
00001000
,
00010000
00000000
00001000
00000000
,
00100000
00000000
00010000
00000000
,
01000000
00000000
00100000
10000000
,
00010000
00000000
00100000
00000000
,
01000000
00000000
00010000
00000000
,
00001000
00000000
01000000
00010000
,
01000000
00000000
00100000
00000000
,
00010000
00000000
00001000
00000000
,
00000200
00000000
00000302
00000000
,
00000023
00000000
00000000
00000030
00000110
00000000
00000000
00000000
,
00000010
00000001
00001000
00000001
,
00000010
00000000
00000100
00000000
,
00010000
00001000
00000100
00000000
,
00001000
00000000
00010000
00000000
,
00100000
00000000
01000000
00010000
,
00100000
00000000
01000000
00100000
,
01000000
00100000
01000000
00000000
,
00100000
00001000
00100000
00001000
,
00100000
00001000
00010000
00000010
,
00010000
00000010
00010000
00000000
,
00022000
00000000
00000000
00000000
00000000
00033000
00001000
00000000
,
00100000
00001000
00000000
00110000
,
00000000
00100000
01000000
00100000
,
00000000
11000000
00000000
01000000
,
10000000
01000000
00000000
10010000
,
00000000
00100000
00001000
00011000
,
00000000
00010100
00000000
00010000
,
00000010
00010000
00000000
00001010
,
00000000
00000010
00000100
00000010
,
00000000
00000101
00000000
00000100
,
00000001
00000100
00000000
00001001
,
00000000
00000010
00010000
00001000
,
00100000
00001000
00010000
00001000
,
00010000
00000000
00000000
00000000
,
00000100
00001000
00000000
00000000
,
00000001
00000100
00000000
00000010
,
00010000
00000000
00000000
00000000
,
00001000
00100000
00000000
00000000
,
01000000
10000000
00010000
10000000
,
00100000
01000000
00100000
10000000
,
00000000
00010000
00100000
01000000
,
00100000
00001000
00000000
00010000
,
00000100
00001000
00000010
00000100
,
00000001
00000100
00000010
00000100
,
00000010
00000000
00010000
00000000
00001000
00010000
00000000
00000000
;
