#TITLE:THIS MUST BE A DREAM;
#SUBTITLE:;
#ARTIST:BASIC ELEMENT;
#TITLETRANSLIT:;
#SUBTITLETRANSLIT:;
#ARTISTTRANSLIT:;
#GENRE:EURODANCE;
#CREDIT:Dancemania 1;
#BANNER:THIS MUST BE A DREAM.png;
#BACKGROUND:THIS MUST BE A DREAM-bg.png;
#LYRICSPATH:THIS MUST BE A DREAM.lrc;
#CDTITLE:THIS MUST BE A DREAM-cdtitle.png;
#MUSIC:THIS MUST BE A DREAM.ogg;
#OFFSET:-7.136001;
#SAMPLESTART:54.905998;
#SAMPLELENGTH:15.000000;
#SELECTABLE:YES;
#BPMS:0.000000=137.990005
;
#STOPS:
;
#BGCHANGES:;
#KEYSOUNDS:;
#ATTACKS:;

//---------------dance-single - ----------------
#NOTES:
     dance-single:
     Riakodoadm:
     Hard:
     10:
     0.392053,0.425422,0.062170,0.000000,0.106578,309.000000,302.000000,7.000000,0.000000,0.000000,0.000000,0.392053,0.425422,0.062170,0.000000,0.106578,309.000000,302.000000,7.000000,0.000000,0.000000,0.000000:
0000
0000
0000
0000
,
0000
0000
0000
0000
,
1000
0001
1000
0001
,
0100
0100
0010
1000
,
0001
1000
0001
1000
,
0100
0100
0010
0010
,
0001
0000
0010
0000
,
1000
0000
0100
0000
,
0001
0000
0010
0000
,
1000
0000
0000
1000
0000
0000
0001
0000
0000
0001
0000
0000
0010
0100
0010
0100
,
1000
0000
0100
0000
0010
0001
0100
0001
,
0010
0100
1000
0010
,
0100
0000
0001
0000
0010
0100
1000
0010
,
0100
0001
0100
0001
,
1000
0000
0100
0000
0010
0001
0100
0010
,
0100
0000
0010
0000
1000
0001
0100
0001
,
1000
0000
0010
0000
0100
0010
1000
0100
,
0010
0000
0001
0000
1000
0010
1000
0001
,
0100
0010
0100
1000
,
0100
0000
0000
0000
0001
0000
0000
0000
1000
0001
0000
0001
1000
0000
0000
0000
,
0010
1100
0010
0101
,
0001
0001
1000
1000
0100
0100
0100
0000
,
0010
0001
0010
0001
1000
0100
1000
0100
,
1000
0010
0100
0001
1000
0010
1000
1000
,
0000
0001
0100
0000
0010
0000
1000
0000
,
0001
0010
0001
0000
0100
0000
1000
0000
,
0010
0001
0010
0000
0100
1000
0100
0000
,
0010
0010
0010
0000
0000
0000
0000
0000
,
1001
0000
0001
0100
1000
0100
0001
0010
,
0000
0100
0000
1000
0000
0100
0010
0001
,
0100
0100
0010
0010
1000
0001
1000
0000
,
0100
0000
0010
0000
0001
0001
0100
0000
,
0110
0000
0100
0001
0100
1000
0100
0010
,
0000
1000
0000
0100
0000
0010
0100
1000
,
0010
0010
0100
0100
0001
1000
0001
0000
,
0100
0010
1010
0101
,
1001
0000
1000
0000
0001
0000
1000
0010
,
0000
1000
0100
1000
0000
0001
0010
0000
,
0100
0000
1000
0000
0001
0000
0100
0001
,
0000
0010
0000
1000
0000
0001
0000
0100
,
1000
0010
0100
0001
,
0010
0010
0100
0100
,
1000
0100
0001
0100
,
1000
0010
0001
0100
,
1000
0000
0000
1000
0000
0000
0001
0000
0000
0001
0000
0000
0010
0000
0000
0000
,
0001
0000
0000
0001
0000
0000
1000
0000
0000
1000
0000
0000
0100
0000
0000
0000
,
0010
0000
0000
0010
0000
0000
0100
0000
0000
0100
0000
0000
1000
0000
0000
0000
,
0001
0000
0000
0100
0000
0000
0010
0000
0000
1000
0000
0000
0100
0010
0100
0010
,
0001
0000
0100
0000
0010
1000
0100
1000
,
0010
0001
1000
0100
,
0001
0000
0010
0000
0100
1000
0001
1000
,
0010
0100
1000
0100
,
0001
0000
0010
0000
0100
0010
0001
0100
,
0010
0000
0100
0000
0001
0010
0100
1000
,
0010
0000
1000
0000
0001
0100
1000
0100
,
0001
0000
0010
0000
0100
1000
0010
0100
,
0001
0000
0000
0001
0000
0000
1000
0000
0000
1000
0000
0000
0010
0000
0010
0000
,
1000
0000
0000
0100
0000
0000
0010
0000
0000
0001
0000
0000
0100
0000
0100
0000
,
0001
0000
0000
0100
0000
0000
0010
0000
0000
1000
0000
0000
0010
0000
0010
0000
,
1000
0000
0000
1000
0000
0000
0001
0000
0000
0001
0000
0000
0100
0000
0100
0000
;

//---------------dance-single - ----------------
#NOTES:
     dance-single:
     Riakodoadm:
     Easy:
     4:
     0.199199,0.235803,0.044407,0.000000,0.000000,157.000000,152.000000,5.000000,0.000000,0.000000,0.000000,0.199199,0.235803,0.044407,0.000000,0.000000,157.000000,152.000000,5.000000,0.000000,0.000000,0.000000:
0000
0000
0000
0000
,
0000
0000
0000
0000
,
1000
0000
0001
0000
,
0100
0000
0001
0000
,
1000
0000
0100
0000
,
1000
0000
0001
0000
,
1000
0000
0000
0000
,
0001
0000
0000
0000
,
1000
0000
0000
0000
,
0100
0000
0000
0100
0000
0000
0100
0000
,
1000
0000
0001
0000
,
1000
0000
1000
0000
,
0001
1000
0001
0000
,
1000
1000
0001
0000
,
0100
0000
0010
0000
,
0100
0100
0001
0000
,
0010
0000
0010
0000
,
1000
0100
0001
0000
,
1000
0000
1000
0000
,
0001
0000
0001
0001
,
1000
1000
0001
0001
,
1000
0001
1000
0001
,
1000
0100
1000
1000
,
0001
0100
0001
0100
,
0001
0001
1000
1000
,
0001
0001
0010
0010
,
0100
0100
1000
1000
,
0010
0100
0000
0000
,
1001
0000
1000
0000
,
0010
0010
0010
0000
,
0100
0000
0001
1000
,
0100
0000
0000
0000
,
1001
0000
0001
0000
,
0010
0010
0010
0000
,
0100
0000
1000
0001
,
0100
0000
0000
0000
,
0010
0000
0000
1000
,
1000
0001
0001
1000
,
0001
0000
0000
0100
,
0100
0010
0010
0100
,
0010
0000
0000
0001
,
0001
1000
1000
0001
,
1000
0000
0100
0000
,
0010
0000
0001
0000
,
0110
0000
0000
0000
,
1000
0000
0001
0000
,
0110
0110
0100
0000
,
0100
0000
0000
0100
0000
0000
0100
0000
,
1000
0001
1000
0001
,
1000
1000
0010
0010
,
1000
0001
1000
0001
,
0100
0100
0010
0000
,
0001
1000
0001
1000
,
0001
0001
0010
0010
,
0001
1000
0001
1000
,
0100
0010
0001
0000
,
0001
0000
0000
0000
,
0010
0000
0000
0000
,
1000
0000
0000
0000
,
0100
0000
0000
0000
;

//---------------dance-single - ----------------
#NOTES:
     dance-single:
     Riakodoadm:
     Medium:
     6:
     0.303239,0.345656,0.071052,0.000000,0.017763,239.000000,231.000000,8.000000,0.000000,0.000000,0.000000,0.303239,0.345656,0.071052,0.000000,0.017763,239.000000,231.000000,8.000000,0.000000,0.000000,0.000000:
0000
0000
0000
0000
,
0000
0000
0000
0000
,
1000
0001
1000
0001
,
0100
0100
0010
1000
,
0001
1000
0001
1000
,
0100
0100
0010
0010
,
0001
0000
0100
0000
,
0010
0000
1000
0000
,
0001
0000
0010
0000
,
0100
0000
0000
0100
0000
0000
0100
1000
,
0001
0100
0010
0100
,
1000
0100
0010
0100
,
0001
0010
0001
0100
,
0010
0100
0001
1000
,
1000
0100
0010
0001
,
0100
0010
1000
0100
,
1000
0010
0100
1000
,
0010
0001
0100
0010
,
1000
0100
0001
0100
,
1000
0000
0000
0000
0100
0000
0000
0001
1000
0000
0000
0000
0000
0000
0000
0000
,
0010
0101
0010
1100
,
0010
0000
1000
0000
0001
0100
0001
0000
,
1000
0010
0001
0010
,
1000
0000
0010
0000
1000
0100
1000
0000
,
0000
0010
0001
1000
,
0100
0000
0010
0000
0001
0100
0001
0000
,
0010
0000
0100
0000
1000
0001
1000
0000
,
0010
0100
0010
0000
0000
0000
0000
0000
,
1001
0100
0001
1000
,
1001
0100
1000
0001
,
0010
0001
0010
0000
0100
1000
0100
0000
,
0001
1000
0010
0001
,
0110
0001
0010
0100
,
0110
1000
0010
0100
,
0010
1000
0010
0000
0100
0001
0100
0000
,
1000
0100
0110
1001
,
1000
1000
0100
0100
,
0010
0000
0010
0000
0001
1000
0001
0000
,
0100
0100
0010
0010
,
1000
0000
1000
0000
0100
0010
0100
0000
,
1000
0000
0010
0000
0001
0000
0010
1000
,
0000
0100
0000
0001
0000
0100
0000
0000
,
1000
1000
0001
0001
,
0100
1000
0010
0001
,
1000
0000
0000
0001
0000
0000
1000
0000
0000
0000
0000
0000
0000
0000
0000
0000
,
0001
0000
0000
1000
0000
0000
0001
0000
0000
0000
0000
0000
0000
0000
0000
0000
,
0100
0000
0000
0100
0000
0000
0100
0000
0000
0000
0000
0000
0000
0000
0000
0000
,
0010
0000
0000
0010
0000
0000
0010
1000
,
0001
0010
0100
0010
,
1000
0010
0100
0010
,
0001
0100
1000
0001
,
0010
1000
0100
0100
,
1000
0100
0010
0100
,
0001
0100
1000
0010
,
0100
0001
0010
0100
,
1000
0010
0001
0010
,
1000
0000
0000
1000
0000
0000
1000
1000
,
0001
0000
0000
0001
0000
0000
0001
0001
,
0100
0000
0000
0100
0000
0000
0100
0100
,
0010
0000
0000
0010
0000
0000
0010
0010
;

//---------------dance-single - ----------------
#NOTES:
     dance-single:
     Riakodoadm:
     Beginner:
     1:
     0.110384,0.157202,0.017763,0.000000,0.000000,87.000000,85.000000,2.000000,0.000000,0.000000,0.000000,0.110384,0.157202,0.017763,0.000000,0.000000,87.000000,85.000000,2.000000,0.000000,0.000000,0.000000:
0000
0000
0000
0000
,
0000
0000
0000
0000
,
0001
0000
0000
0000
,
0001
0000
0000
0000
,
1000
0000
0000
0000
,
1000
0000
0000
0000
,
0100
0000
0000
0000
,
0000
0000
0000
0000
,
0000
0000
0000
0000
,
0100
0100
0100
0000
,
1000
0000
1000
0000
,
1000
0000
0000
0000
,
0001
0000
0001
0000
,
0100
0000
0000
0000
,
0001
0000
0001
0000
,
0001
0000
0000
0000
,
1000
0000
1000
0000
,
0100
0000
0000
0000
,
0010
0000
0100
0000
,
0010
0000
0000
0000
,
1000
0000
1000
0000
,
1000
0000
1000
0000
,
1000
0000
1000
0000
,
1000
1000
0000
0000
,
0001
0000
0001
0000
,
0001
0000
0001
0000
,
0001
0000
0001
0000
,
0001
0001
0000
0000
,
1000
0000
0001
0000
,
1000
0000
0000
0000
,
0010
0010
0010
0000
,
0000
0000
0000
0000
,
0001
0000
1000
0000
,
0001
0000
0000
0000
,
0010
0010
0010
0000
,
0000
0000
0000
0000
,
1000
0000
0000
0000
,
0001
0000
0000
0000
,
1001
0000
0000
0000
,
0001
0000
0000
0000
,
1000
0000
0000
0000
,
0001
0000
0000
0000
,
1001
0000
0000
0000
,
0000
0000
0000
0000
,
0100
0000
0000
1000
,
1000
0000
0000
0001
,
0001
0000
0000
0100
,
0100
0000
0000
0000
,
1000
0000
1000
0000
,
0001
0000
0001
0000
,
1000
0000
0001
0000
,
1000
0000
0001
0000
,
1000
0000
1000
0000
,
0100
0000
0100
0000
,
0001
0000
0001
0000
,
0100
0000
0100
0000
,
1000
0000
0000
0000
,
0001
0000
0000
0000
,
0100
0000
0000
0000
,
0010
0000
0000
0000
;

//---------------dance-single - ----------------
#NOTES:
     dance-single:
     Riakodoadm:
     Challenge:
     13:
     0.668648,0.771078,0.328614,0.000000,0.532888,527.000000,490.000000,37.000000,0.000000,0.000000,0.000000,0.668648,0.771078,0.328614,0.000000,0.532888,527.000000,490.000000,37.000000,0.000000,0.000000,0.000000:
0000
0000
0000
0000
,
0000
0000
0000
0000
,
0001
0000
0000
0001
0000
0000
1000
0000
0000
1000
0000
0000
0010
0000
0010
0000
,
1000
0000
0000
0100
0000
0000
0010
0000
0000
0001
0000
0000
0100
0000
0100
0000
,
0001
0000
0000
0100
0000
0000
0010
0000
0000
1000
0000
0000
0010
0000
0010
0000
,
1000
0000
0000
1000
0000
0000
0001
0000
0000
0001
0000
0000
0100
0000
0100
0000
,
0001
0100
0001
0100
0010
1000
0010
1000
,
0001
0010
0001
0010
0100
1000
0100
1000
,
0010
0100
0010
0100
0001
1000
0001
1000
,
0001
0000
0001
1000
0000
1000
0001
0000
0001
1000
0000
1000
0010
0100
0010
0100
,
0001
0010
0100
1000
0001
0010
0100
1000
,
0001
0100
0010
1000
0001
0100
0010
1000
,
0100
0001
0100
1000
0100
0001
0100
1000
,
0010
0100
0001
0100
0010
1000
0001
0001
,
1000
0100
0010
0001
1000
0100
0010
0001
,
1000
0010
0100
0001
1000
0010
0100
0001
,
0100
1000
0100
0001
0100
1000
0100
0001
,
0010
0100
1000
0010
0100
0001
1000
1000
,
0001
0000
0100
0010
0100
0000
0001
1000
0001
0000
0100
0010
0100
0000
0001
0010
,
0001
0000
1000
0100
1000
0000
0001
1000
0001
0000
0000
0001
1000
0000
0000
0000
,
1000
0010
0000
0000
1010
0000
1000
0000
0001
0000
0010
0000
0011
0000
0000
0010
,
0000
0001
0100
0001
1000
0100
1000
0100
0010
0100
0010
0000
0100
0000
0000
1000
,
0010
0100
0010
1000
0010
0000
0100
0001
0010
0100
0010
0001
0100
0000
0001
1000
,
0000
0100
0010
0001
1000
0001
1000
0001
0100
0010
1000
0001
0010
0000
0110
0000
,
0000
0000
0001
0000
0010
0000
0100
1000
0010
1000
0001
0000
0100
0010
0100
0001
,
0100
0000
0010
0000
1000
0000
0001
0010
0100
1000
0001
0000
0100
0000
0000
0000
,
0010
0000
1000
0000
0100
0000
0010
0001
0100
0010
1000
0000
0010
0000
0100
0001
,
0100
0010
1000
0001
1000
0000
0000
0000
1000
0000
0100
0000
0010
0000
0001
0000
,
1001
0000
0001
0010
0100
1000
0010
0101
,
0000
1010
0000
1000
0000
0010
0100
0001
,
0010
1000
0010
0001
0010
0100
1000
0001
,
0001
1000
1000
0000
0001
0100
0010
1000
,
1001
0000
1000
0010
0100
0001
0010
1100
,
0000
0011
0000
0010
0000
0001
0010
0100
,
1000
0010
0001
0010
1000
0100
0010
0001
,
0001
0000
1000
0000
1000
0000
0000
0010
1000
0000
0000
0001
0100
0000
0000
0001
,
1000
0100
0000
1000
0100
0000
0100
1000
0000
1000
0001
0000
0000
0100
0000
0100
,
0001
0010
0100
0000
0100
1000
0000
1000
0001
0000
0100
0010
0000
0010
1000
0000
,
0001
0100
0000
0001
0100
0000
0100
0001
0000
0001
1000
0000
0000
0100
0000
0100
,
1000
0010
0100
0000
0100
0001
0000
0001
1000
0000
0100
0010
0000
0010
0001
0000
,
1000
0100
0000
0010
0001
0000
1000
0010
0000
0100
0001
0000
0000
1000
0000
1000
,
0001
0010
0100
0000
1000
0100
0000
0001
0100
0000
1000
0100
0000
0100
0010
0000
,
0001
0100
0000
0010
1000
0000
0001
0010
0000
0100
1000
0000
0000
0001
0000
0001
,
1000
0010
0100
0000
0001
0100
0000
1000
0100
0000
0001
0100
0000
0100
0010
1000
,
1010
0000
0000
1010
0000
0000
1001
0000
0000
1001
0000
0000
0100
0000
0010
0000
,
0011
0000
0000
0011
0000
0000
1001
0000
0000
1001
0000
0000
0010
0000
0100
0000
,
1100
0000
0000
1100
0000
0000
1001
0000
0000
1001
0000
0000
0001
0000
0100
0000
,
0001
0000
0001
1000
0000
1000
0001
0000
0001
1000
0000
1000
0001
0010
0100
1000
,
0001
0010
0100
1000
0001
0100
0010
1000
,
1000
0100
0010
0001
1000
0010
0100
0001
,
1000
0100
0001
0100
1000
0010
0001
0010
,
1000
0010
0100
0010
1000
0001
0010
0100
,
1000
0100
0010
0001
1000
0010
0100
0001
,
0001
0100
0010
1000
0001
0010
0100
1000
,
0001
0010
1000
0010
0001
0100
1000
0100
,
0001
0010
0100
0010
0001
1000
0010
0100
,
0101
0000
0000
0110
0000
0000
0101
0000
0000
1001
0000
0000
0100
0000
0100
0000
,
1100
0000
0000
0110
0000
0000
0011
0000
0000
1001
0000
0000
0010
0000
0010
0000
,
1010
0000
0000
0110
0000
0000
1010
0000
0000
1001
0000
0000
0010
0000
0010
0000
,
0011
0000
0000
0110
0000
0000
1100
0000
0000
1001
0000
0000
0100
0000
0100
0000
;

//---------------dance-double - ----------------
#NOTES:
     dance-double:
     Riakodoadm:
     Medium:
     8:
     0.366678,0.372245,0.133222,0.000000,0.106578,289.000000,274.000000,15.000000,0.000000,0.000000,0.000000,0.366678,0.372245,0.133222,0.000000,0.106578,289.000000,274.000000,15.000000,0.000000,0.000000,0.000000:
00000000
00000000
00000000
00000000
,
00000000
00000000
00000000
00000000
,
01100000
00100000
00010000
00001000
,
00000110
00000010
00001000
00010000
,
01100000
00100000
00010000
00001000
,
00000110
00000010
00001000
00010000
,
10000000
00000000
00010000
00000000
,
00001000
00000000
00000001
00000000
,
00001000
00000000
00010000
00000000
,
00001000
00000000
00000000
00001000
00000000
00000000
00010000
00000000
00000000
00010000
00000000
00000000
00100000
01000000
00100000
01000000
,
00100000
00010000
01000000
00010000
,
00100000
00000000
01000000
00000000
10000000
00100000
10000000
00100000
,
10000000
01000000
00100000
01000000
,
10000000
00000000
01000000
00000000
00100000
00001000
00100000
00001000
,
00010000
00000010
00001000
00000010
,
00010000
00000000
00000010
00000000
00000100
00000001
00000100
00000001
,
00000010
00000001
00000100
00000001
,
00000010
00000000
00000001
00000000
00000100
00000010
00000100
00000010
,
00010000
00010000
00001000
00001000
,
00010000
00000000
00000000
00000000
00010000
00000000
00000000
01000000
00100000
00000000
00000000
00100000
01000000
00000000
00000000
00000000
,
10000000
11000000
00010000
01010000
,
00100000
01000000
00100000
00000000
10000000
01000000
00100000
00000000
,
00001000
00010000
00001000
00000000
00010000
00000100
00000010
00000000
,
00000001
00001000
00000001
00000000
00000100
00000010
00001000
00000000
,
00000001
00000100
00001000
00000010
,
00000001
00000100
00001000
00010000
,
00001000
01000000
00100000
00000000
00100000
01000000
00001000
00000000
,
00010000
00010000
00010000
00000000
00000000
00000000
00000000
00000000
,
00001100
00000100
00001000
00010000
,
01010000
01000000
00010000
00001000
,
00000010
00000010
00000010
00000000
00000100
00000100
00000100
00000000
,
00000001
00001000
00010000
10000000
,
01010000
01000000
00010000
00001000
,
00001100
00000100
00001000
00010000
,
00100000
00100000
00100000
00000000
01000000
01000000
01000000
00000000
,
10000000
00010000
00011000
00010100
,
00110000
00100000
10000000
01000000
,
00100000
00000000
00010000
00000000
00001000
00000100
00001000
00000000
,
00000010
00000000
00000100
00000000
00000001
00000000
00001000
00000010
,
00000000
00001000
00000000
00010000
00000000
00100000
00000000
10000000
,
00100000
00100000
01000000
01000000
,
10000000
00100000
01000000
00010000
,
00001000
00000010
00000100
00000001
,
00000100
00001000
00000010
00000001
,
00001000
00000000
00000000
00000001
00000000
00000000
00001000
00000000
00000000
00000001
00000000
00000000
00000100
00000000
00000000
00000000
,
00001000
00000000
00000000
00010000
00000000
00000000
00001000
00000000
00000000
00010000
00000000
00000000
01000000
00000000
00000000
00000000
,
10000000
00000000
00000000
00010000
00000000
00000000
10000000
00000000
00000000
00010000
00000000
00000000
01000000
00000000
00000000
00000000
,
00001000
00000000
00000000
00001000
00000000
00000000
00010000
00000000
00000000
00010000
00000000
00000000
00000100
00000010
00000100
00000010
,
00000100
00001000
00000010
00000100
,
00000001
00000000
00000010
00000000
00000100
00010000
00000100
00010000
,
00001000
00010000
00100000
00010000
,
00001000
00000000
00100000
00000000
01000000
10000000
01000000
10000000
,
01000000
10000000
00100000
01000000
,
00010000
00000000
00100000
00000000
00001000
00010000
00001000
00010000
,
00000100
00001000
00010000
00001000
,
00000100
00000000
00000010
00000000
00000001
00000100
00000001
00000100
,
00000010
00000000
00000000
00000010
00000000
00000000
00001000
00000000
00000000
00001000
00000000
00000000
00001100
00000000
00000000
00000000
,
00000001
00000000
00000000
00000001
00000000
00000000
00001000
00000000
00000000
00001000
00000000
00000000
00010000
00000000
00010000
00000000
,
01000000
00000000
00000000
01000000
00000000
00000000
00010000
00000000
00000000
00010000
00000000
00000000
10010000
00000000
00000000
00000000
,
01000000
00000000
00000000
01000000
00000000
00000000
00010000
00000000
00000000
00010000
00000000
00000000
00001000
00000000
00001000
00000000
;

//---------------dance-double - ----------------
#NOTES:
     dance-double:
     Riakodoadm:
     Hard:
     10:
     0.449149,0.478600,0.222037,0.000000,0.128781,354.000000,329.000000,25.000000,0.000000,0.000000,0.000000,0.449149,0.478600,0.222037,0.000000,0.128781,354.000000,329.000000,25.000000,0.000000,0.000000,0.000000:
00000000
00000000
00000000
00000000
,
00000000
00000000
00000000
00000000
,
01100000
00100000
00010000
00001000
,
00000110
00000010
00001000
00010000
,
01100000
00100000
00010000
00001000
,
00000110
00000010
00001000
00010000
,
10000000
01000000
00010000
00100000
,
10000000
01000000
00010000
00100000
,
10000000
01000000
00010000
00001000
,
00010000
00000000
00000000
00010000
00000000
00000000
00001000
00000000
00000000
00001000
00000000
00000000
00000100
00000010
00000100
00000010
,
00000100
00000000
00000001
00000000
00000010
00000100
00000010
00000001
,
00000010
00000100
00001000
00000010
,
00000100
00000000
00000001
00000000
00000100
00000010
00000100
00000001
,
00000010
00001000
00010000
01000000
,
10000000
00000000
00100000
00000000
01000000
00100000
01000000
00010000
,
01000000
00000000
00100000
00000000
10000000
01000000
10000000
00100000
,
01000000
00000000
00010000
00000000
00100000
00001000
00010000
00100000
,
00010000
00000000
00001000
00000000
00000100
00000001
00000100
00001000
,
00010000
00010100
00001000
01001000
,
00010000
00000000
00000000
00000000
00010100
00000000
00000000
00010000
00001000
00000000
00000000
00001000
00010000
00000000
00000000
00000000
,
00000100
00000000
00001100
00000000
00000001
00000001
00000101
00000000
,
00000001
00000000
00000100
00000000
00000010
00000000
00001000
00000000
00000001
00000000
00000100
00000000
00000010
00000000
00000000
00000010
,
00010000
00000100
00010000
00001000
01000000
00001000
01000000
00010000
,
00100000
01000000
10000000
00010000
01000000
10000000
01000000
01000000
,
00000000
00000000
00001000
00000000
00010000
00000000
00000100
00000000
00000010
00000100
00000010
00000000
00001000
00000000
00010000
00000000
,
00100000
10000000
01000000
00100000
00010000
00010000
00010000
00000000
,
00100000
01000000
10000000
01000000
00100000
00010000
00001000
00000000
,
00000010
00000000
00001000
00000100
00001000
00000000
00000000
00000000
00000001
00000000
00000100
00000000
00000010
00000000
00001000
00000000
,
00001001
00000110
00000011
00001100
,
00011000
00000000
00010010
00000000
00010100
00000000
00000100
00001000
,
00000010
00000001
00000010
00001000
00000100
00010000
00001000
00010000
,
01000000
00000000
00100000
00000000
00010000
01000000
00100000
10000000
,
10010000
01100000
00110000
10100000
,
00101000
00000000
00011000
00000000
01001000
00000000
01000000
00010000
,
00100000
10000000
00100000
00010000
01000000
00001000
00010000
00000100
,
00010000
00000000
00000000
00000000
00001000
00000000
00000000
00000010
00001000
00000000
00000000
00000010
00000001
00000000
00000000
00000000
,
00001000
00001000
00000001
00000101
,
00000001
00000100
00001000
00000000
00010000
01000000
10000000
00000000
,
00100000
00100000
10000000
11000000
,
10000000
01000000
00010000
00000000
00001000
00000100
00000001
00000000
,
00000010
00000010
00000001
00000001
,
00000100
00000100
00001000
00001000
,
00010000
00100000
10000000
01000000
,
00010000
00001000
00000010
00000001
,
00000100
00000000
00000000
00000100
00000000
00000000
00001000
00000000
00000000
00001000
00000000
00000000
00010000
00000000
00010000
00000000
,
01000000
00000000
00000000
01000000
00000000
00000000
00010000
00000000
00000000
00010000
00000000
00000000
00001000
00000000
00001000
00000000
,
00000010
00000000
00000000
00000010
00000000
00000000
00001000
00000000
00000000
00001000
00000000
00000000
00010000
00000000
00010000
00000000
,
00001000
00000000
00000000
00001000
00000000
00000000
00010000
00000000
00000000
00010000
00000000
00000000
01000000
00100000
01000000
00100000
,
00010000
00000000
01000000
00000000
00100000
10000000
01000000
00010000
,
00001000
00000000
00100000
00000000
00001000
00010000
00000100
00000001
,
00000100
00000000
00001000
00000000
00000010
00001000
00000100
00000001
,
00000100
00000000
00000010
00000000
00000001
00000100
00001000
00010000
,
00000100
00000000
00000010
00000000
00000001
00000010
00001000
00010000
,
01000000
00000000
00010000
00000000
00001000
00100000
00010000
01000000
,
00100000
00000000
01000000
00000000
10000000
01000000
00010000
00100000
,
10000000
00000000
00100000
00000000
01000000
00010000
00001000
00000100
,
00001000
00000000
00000000
00001000
00000000
00000000
00010000
00000000
00000000
00010000
00000000
00000000
01000000
00000000
10000000
00000000
,
00100000
00000000
00000000
00100000
00000000
00000000
00010000
00000000
00000000
00010000
00000000
00000000
00001000
00000000
00000100
00000000
,
00000001
00000000
00000000
00000001
00000000
00000000
00000010
00000000
00000000
00000010
00000000
00000000
00000100
00000000
00010000
00000000
,
00001000
00000000
00000000
00001000
00000000
00000000
00010000
00000000
00000000
00010000
00000000
00000000
01000000
00000000
00100000
00000000
;

//---------------dance-double - Impression of an oldschool crossover----------------
#NOTES:
     dance-double:
     Riakodoadm:
     Challenge:
     13:
     0.659766,0.744489,0.319733,0.000000,0.528447,520.000000,484.000000,36.000000,0.000000,0.000000,0.000000,0.659766,0.744489,0.319733,0.000000,0.528447,520.000000,484.000000,36.000000,0.000000,0.000000,0.000000:
00000000
00000000
00000000
00000000
,
00000000
00000000
00000000
00000000
,
10000000
00000000
00000000
10000000
00000000
00000000
00010000
00000000
00000000
00010000
00000000
00000000
00001000
00000000
00001000
00000000
,
00000001
00000000
00000000
00000001
00000000
00000000
00001000
00000000
00000000
00001000
00000000
00000000
00010000
00000000
00010000
00000000
,
10000000
00000000
00000000
10000000
00000000
00000000
00010000
00000000
00000000
00010000
00000000
00000000
00001000
00000000
00001000
00000000
,
00000001
00000000
00000000
00000001
00000000
00000000
00001000
00000000
00000000
00001000
00000000
00000000
00010000
00000000
00010000
00000000
,
10000000
01000000
10000000
01000000
00100000
00001000
00100000
00001000
,
00010000
00000100
00010000
00000100
00000010
00000001
00000010
00000001
,
00000100
00000001
00000100
00000001
00001000
00000010
00001000
00000010
,
00010000
00000000
00001000
00010000
00000000
00001000
00010000
00000000
00001000
00010000
00000000
00001000
00100000
01000000
00100000
01000000
,
10000000
00100000
00010000
00100000
10000000
00100000
00010000
00100000
,
00010000
00001000
00000100
00001000
00010000
00001000
00000100
00001000
,
00010000
00000010
00000001
00000010
00010000
00000010
00000001
00000010
,
00001000
00000100
00000001
00000100
00001000
00000100
00000001
00000100
,
00000010
00001000
00010000
00001000
00000010
00001000
00010000
00001000
,
01000000
10000000
01000000
00001000
01000000
10000000
01000000
00001000
,
00100000
00001000
00000010
00001000
00100000
00001000
00000010
00001000
,
00010000
01000000
00010000
00000100
00010000
01000000
00010000
00000100
,
00010000
00000000
00000010
00010000
00001000
00000000
00100000
00001000
00010000
00000000
00000100
00010000
00001000
00000000
01000000
00001000
,
00010000
00000000
00000010
00010000
00001000
00000000
00100000
00010000
01000000
00000000
00000000
10000000
01000000
00000000
00000000
00000000
,
00010000
00100000
00000000
00000000
01100000
00000000
01000000
00000000
10000000
00000000
00100000
00000000
01100000
00000000
00000000
00100000
,
00000000
01000000
00001000
01000000
00001000
00010000
00000100
00010000
00000100
00001000
00000100
00000000
00000010
00000000
00000000
00000010
,
00000001
00001000
00000010
00010000
00001000
00000000
00100000
00010000
10000000
00100000
01000000
00001000
00010000
00000000
01000000
00010000
,
00000000
00000100
00001000
00000010
00000100
00000001
00000100
00000010
00010000
00001000
00100000
01000000
10000000
00000000
01000000
00000000
,
00000000
00000000
01100000
00000000
10010000
00000000
00010000
00100000
00001000
00010000
00000010
00000000
00001000
00000100
00001000
00000010
,
00010000
00000000
00001000
00000000
00100000
00000000
00010000
01000000
00010000
00100000
00001000
00000000
00010000
00000000
00000000
00000000
,
00000100
00000000
00000010
00000000
00000001
00000000
00000010
00000001
00000100
00000010
00010000
00000000
00001000
00000000
00100000
00010000
,
01000000
00100000
00010000
00001000
00000100
00000000
00000000
00000000
00000001
00000000
00000100
00000000
00000010
00000000
00010000
00000000
,
00011000
10010000
00011000
00001001
,
00011000
00110000
00011000
00001010
,
00000001
00000010
00001000
00010000
01000000
00010000
00001000
00010000
,
00100000
10000000
00010000
00000000
10000000
01000000
00100000
00001000
,
00011000
00001001
00011000
10010000
,
00011000
00001010
00011000
00110000
,
10000000
00100000
00010000
00001000
00000010
00001000
00010000
00001000
,
00000100
00000000
00000000
00000000
00000001
00000000
00000000
00000000
00000010
00001000
00000000
00000000
00000010
00000001
00000000
00000000
,
00000100
00000010
00000000
00000010
00010000
00000000
00010000
00000100
00000000
00000100
00001000
00000000
00000010
00000100
00000000
00000100
,
00001000
00010000
00001000
00000000
00010000
00100000
00000000
00100000
10000000
00000000
10000000
01000000
00000000
01000000
00100000
00000000
,
01000000
10000000
00000000
10000000
00010000
00000000
00010000
01000000
00000000
01000000
00100000
00000000
00100000
10000000
00000000
10000000
,
00010000
00100000
00010000
00000000
01000000
00001000
00000000
00001000
00010000
00000000
00010000
00000100
00000000
00000100
00001000
00000000
,
00000100
00000001
00000000
00000100
00001000
00000000
00000100
00000001
00000000
00000100
00001000
00000000
00000010
00000100
00000000
00000100
,
00000010
00010000
00001000
00000000
00100000
00010000
00000000
01000000
00010000
00000000
00100000
00001000
00000000
00010000
01000000
00000000
,
00100000
10000000
00000000
00100000
00010000
00000000
00100000
10000000
00000000
00100000
00010000
00000000
01000000
00100000
00000000
00100000
,
01000000
00001000
00010000
00000000
00000010
00001000
00000000
00000100
00001000
00000000
00000010
00010000
00000000
00001000
00000100
00000001
,
00000010
00000000
00000000
00000010
00000000
00000000
00001000
00000000
00000000
00001000
00000000
00000000
00010000
00000000
00010000
00000000
,
00100000
00000000
00000000
00100000
00000000
00000000
00010000
00000000
00000000
00010000
00000000
00000000
00001000
00000000
00001000
00000000
,
00000010
00000000
00000000
00000010
00000000
00000000
00001000
00000000
00000000
00001000
00000000
00000000
00010000
00000000
00010000
00000000
,
00001000
00000000
00010000
00001000
00000000
00010000
00001000
00000000
00010000
00001000
00000000
00010000
00000010
00000100
00000010
00000100
,
00000001
00000010
00010000
00000010
00000001
00000010
00010000
00000010
,
00000100
00001000
00000010
00001000
00000100
00001000
00000010
00001000
,
00000100
00010000
00100000
00010000
00000100
00010000
00100000
00010000
,
00001000
00100000
01000000
00100000
00001000
00100000
01000000
00100000
,
00001000
01000000
10000000
01000000
00001000
01000000
10000000
01000000
,
00100000
00010000
00001000
00010000
00100000
00010000
00001000
00010000
,
00000100
00000010
00001000
00000010
00000100
00000010
00001000
00000010
,
00001000
00100000
00001000
00000100
00001000
00100000
00001000
00010000
,
00011000
00000000
00000000
00011000
00000000
00000000
01010000
00000000
00000000
01010000
00000000
00000000
01000000
00000000
10000000
00000000
,
11000000
00000000
00000000
11000000
00000000
00000000
10100000
00000000
00000000
10100000
00000000
00000000
00100000
00000000
00010000
00000000
,
00011000
00000000
00000000
00011000
00000000
00000000
00001100
00000000
00000000
00001100
00000000
00000000
00000100
00000000
00000001
00000000
,
00000101
00000000
00000000
00000101
00000000
00000000
00000011
00000000
00000000
00000011
00000000
00000000
00000010
00000000
00001000
00000000
;

//---------------dance-double - ----------------
#NOTES:
     dance-double:
     Riakodoadm:
     Easy:
     4:
     0.199199,0.237801,0.026644,0.000000,0.000000,157.000000,154.000000,3.000000,0.000000,0.000000,0.000000,0.199199,0.237801,0.026644,0.000000,0.000000,157.000000,154.000000,3.000000,0.000000,0.000000,0.000000:
// measure 0
00000000
00000000
00000000
00000000
,  // measure 1
00000000
00000000
00000000
00000000
,  // measure 2
00010000
00000000
00010000
00000000
,  // measure 3
00001000
00000000
00001000
00000000
,  // measure 4
00010000
00000000
00010000
00000000
,  // measure 5
00001000
00000000
00001000
00000000
,  // measure 6
00100000
00000000
00000000
00000000
,  // measure 7
00000000
00000000
00000000
00000000
,  // measure 8
00000010
00000000
00000000
00000000
,  // measure 9
00001000
00000000
00000000
00001000
00000000
00000000
00001000
00000000
,  // measure 10
00000001
00000000
00000001
00000000
,  // measure 11
00000010
00000100
00000010
00000000
,  // measure 12
00001000
00000000
00001000
00000000
,  // measure 13
00010000
00001000
00010000
00000000
,  // measure 14
01000000
00000000
01000000
00000000
,  // measure 15
00100000
01000000
00100000
00000000
,  // measure 16
00010000
00000000
00010000
00000000
,  // measure 17
10000000
00010000
10000000
00000000
,  // measure 18
01000000
00000000
00010000
00000000
,  // measure 19
00001000
00000000
00010000
00000000
,  // measure 20
00000010
00000000
00000010
00000000
,  // measure 21
00000100
00000100
00000100
00000000
,  // measure 22
00000001
00000001
00001000
00001000
,  // measure 23
00000100
00000010
00000100
00000000
,  // measure 24
00010000
00001000
00100000
00001000
,  // measure 25
00010000
00000010
00010000
00000000
,  // measure 26
00001000
00100000
00010000
01000000
,  // measure 27
00100000
00100000
00000000
00000000
,  // measure 28
00100000
00100000
10000000
10000000
,  // measure 29
01000000
01000000
00000000
01000000
,  // measure 30
00010000
00000000
00001000
00010000
,  // measure 31
00001000
00000000
00000100
00000001
,  // measure 32
00000010
00000010
00000001
00000001
,  // measure 33
00000100
00000100
00000000
00000100
,  // measure 34
00001000
00000000
00010000
00001000
,  // measure 35
00010000
00000000
01000000
10000000
,  // measure 36
00100000
00000000
00000000
10000000
,  // measure 37
01000000
00010000
00001000
00001000
,  // measure 38
00000010
00000000
00000000
00000001
,  // measure 39
00000100
00001000
00010000
00010000
,  // measure 40
00100000
00000000
00000000
10000000
,  // measure 41
01000000
00010000
00001000
00001000
,  // measure 42
00000010
00000000
00000001
00000000
,  // measure 43
00000100
00000000
00001000
00000000
,  // measure 44
00011000
00000000
00000000
00000000
,  // measure 45
00000010
00000000
00000000
00000000
,  // measure 46
00011000
00101000
00000000
00000000
,  // measure 47
00010000
00000000
00000000
00010000
00000000
00000000
00010000
00000000
,  // measure 48
10000000
10000000
00010000
00010000
,  // measure 49
00100000
01000000
00100000
01000000
,  // measure 50
00010000
00010000
00001000
00001000
,  // measure 51
00100000
00001000
00100000
00001000
,  // measure 52
00010000
00010000
00001000
00001000
,  // measure 53
00000100
00000010
00000100
00000010
,  // measure 54
00001000
00001000
00000001
00000001
,  // measure 55
00000010
00001000
00000010
00001000
,  // measure 56
00010000
00000000
00000000
00000000
,  // measure 57
10000000
00000000
00000000
00000000
,  // measure 58
00010000
00000000
00000000
00000000
,  // measure 59
00001000
00000000
00000001
00000000
;
