#TITLE:THE LEGEND;
#SUBTITLE:(Will Never Die);
#ARTIST:AVALANCHE;
#TITLETRANSLIT:;
#SUBTITLETRANSLIT:;
#ARTISTTRANSLIT:;
#GENRE:TRANCE;
#CREDIT:Dancemania X2;
#BANNER:THE LEGEND (Will Never Die).png;
#BACKGROUND:THE LEGEND (Will Never Die)-bg.png;
#LYRICSPATH:;
#CDTITLE:;
#MUSIC:THE LEGEND (Will Never Die).ogg;
#OFFSET:-3.456999;
#SAMPLESTART:36.194000;
#SAMPLELENGTH:15.000000;
#SELECTABLE:YES;
#BPMS:0.000000=139.289993
;
#STOPS:20.000000=1.292000,
37.000000=1.292000,
166.000000=1.292000
;
#BGCHANGES:;
#KEYSOUNDS:;
#ATTACKS:;

//---------------dance-single - ----------------
#NOTES:
     dance-single:
     Riakodoadm:
     Medium:
     8:
     0.452663,0.422486,0.388181,0.270824,0.243742,278.000000,43.000000,30.000000,0.000000,0.000000,0.000000,0.452663,0.422486,0.388181,0.270824,0.243742,278.000000,43.000000,30.000000,0.000000,0.000000,0.000000:
// measure 0
0000
0000
0000
0000
,  // measure 1
0000
0000
0000
0000
,  // measure 2
1000
0000
0000
0100
2000
0000
0000
0000
3010
0000
0000
0000
0000
0000
0000
0000
,  // measure 3
0001
0000
0000
0100
0002
0000
0000
0000
0013
0000
0000
0000
0000
0000
0000
0000
,  // measure 4
1000
0000
0000
0010
0200
0000
0000
0000
0301
0000
0000
0000
0000
0000
0000
0000
,  // measure 5
1001
2000
0100
3002
,  // measure 6
0100
2003
0001
0010
,  // measure 7
0100
3002
0010
2003
,  // measure 8
0010
3002
1000
0010
,  // measure 9
0103
0000
0000
0000
1001
0000
0000
0000
1000
0000
0000
0100
0010
0000
0000
0000
,  // measure 10
0001
0000
0000
0100
0010
0000
0000
0000
0100
0000
0000
0001
0010
0000
0000
0000
,  // measure 11
0100
0000
0000
1000
0010
0000
0000
0000
1000
0000
0100
0000
1000
0000
0000
0000
,  // measure 12
0010
0000
0000
0010
0100
0000
0000
0000
0001
0000
0100
0000
0001
0000
0000
0000
,  // measure 13
0010
0000
0000
0010
0100
0000
0000
0000
0010
0000
0000
0001
0100
0000
0000
0000
,  // measure 14
0010
0000
0000
1000
0100
0000
0000
0000
1000
0000
0000
0001
0100
0000
0000
0000
,  // measure 15
0001
0000
0000
1000
0100
0000
0000
0000
1000
0000
0100
0000
0001
0000
0000
0000
,  // measure 16
0100
0000
0000
1000
0010
0000
0000
0000
0120
0000
0000
0000
0000
0000
0000
0000
,  // measure 17
0100
0130
2001
0010
,  // measure 18
3001
0010
0000
0000
0000
0000
0000
0000
1002
0000
0000
0000
0010
0000
0000
0000
,  // measure 19
1003
0010
0000
0000
0000
0000
0000
0000
1000
0000
0010
0000
0100
0000
0000
0010
,  // measure 20
2000
0000
0000
0000
3100
0000
0000
0000
0001
0000
0010
0000
0100
0000
0000
0010
,  // measure 21
0002
0103
1020
1000
,  // measure 22
0130
0001
0000
0000
0000
0000
0000
0000
0021
0000
0000
0000
0001
0000
0000
0000
,  // measure 23
0130
1000
0000
0000
0000
0000
0000
0000
1000
0000
0100
0000
0001
0000
0000
0100
,  // measure 24
0020
0031
0120
0000
,  // measure 25
0100
0130
1000
1000
,  // measure 26
1000
0001
1000
0000
0001
0000
0001
0000
,  // measure 27
0001
1000
0001
0000
1000
0000
1000
0000
,  // measure 28
1000
0100
0010
0000
0001
0000
0001
0000
,  // measure 29
0001
0100
0010
0000
2000
0000
0100
0000
,  // measure 30
0001
0000
3010
1000
0002
0000
0100
0000
,  // measure 31
1000
0000
1003
0100
0020
0000
0100
0000
,  // measure 32
0001
0000
0130
1000
0200
0000
0010
0000
,  // measure 33
1000
0000
0000
0000
0310
0000
0001
0000
1000
0000
0000
1001
0000
0000
0000
0000
,  // measure 34
0001
0000
0000
0000
1001
0000
0000
0000
0010
0000
0000
0110
0000
0000
0000
0000
,  // measure 35
0100
0000
0000
0000
0110
0000
0000
0000
1000
0000
0000
1100
0000
0000
0000
0000
,  // measure 36
0100
0000
0000
0000
1100
0000
0000
0000
0001
0000
0000
0011
0000
0000
0000
0000
,  // measure 37
0010
0000
0000
0000
0011
0000
0000
0000
1000
0000
0000
1010
0000
0000
0000
0000
,  // measure 38
0010
0000
0000
0000
0110
0000
0000
0000
0100
0000
0000
0101
0000
0000
0000
0000
,  // measure 39
0001
0000
0000
0000
1001
0000
0000
0000
1000
0000
0000
1100
0000
0000
0000
0000
,  // measure 40
0001
0011
1001
0110
,  // measure 41
0101
0000
0000
0000
1100
0000
0000
0000
1001
0000
0000
0000
1000
0100
0000
0000
,  // measure 42
1100
0000
0000
0000
0010
0001
0000
0000
0011
0000
0000
0000
0001
0100
0000
0000
,  // measure 43
0101
0000
0000
0000
0010
1000
0000
0000
1010
0000
0000
0000
1000
0000
0100
0000
,  // measure 44
0001
0000
0000
0100
1000
0000
0000
1000
0001
0000
0000
0000
0001
0000
0100
0000
,  // measure 45
1000
0000
0000
0100
0001
0000
0000
0001
1000
0000
0000
0000
0001
0010
0000
0000
,  // measure 46
0011
0000
0000
0000
0100
1000
0000
0000
1100
0000
0000
0000
1000
0010
0000
0000
,  // measure 47
1010
0000
0000
0000
0100
0001
0000
0000
0101
0000
0000
0000
0001
0000
0100
0000
,  // measure 48
0010
0000
0000
0010
1000
0000
0000
1000
0001
0000
0000
0000
2002
0000
0000
0000
,  // measure 49
0000
0000
0000
0000
0000
0000
0000
0000
3003
0000
0000
0000
2100
0000
0000
0100
,  // measure 50
0000
0000
3100
0000
1000
0000
0010
0000
0010
0000
0000
0000
0102
0000
0000
0100
,  // measure 51
0000
0000
0103
0000
0001
0000
0010
0000
0010
0000
0000
0000
0001
0000
0000
1000
,  // measure 52
0000
0000
0001
0000
0100
0000
0000
0100
0000
0000
0000
0000
1000
0000
0000
0001
,  // measure 53
0000
0000
1000
0000
0100
0000
0000
0100
0000
0000
0000
0000
2010
0000
0000
0010
,  // measure 54
0000
0000
3010
0000
1000
0000
0100
0000
0100
0000
0000
0000
0012
0000
0000
0010
,  // measure 55
0000
0000
0013
0000
0001
0000
0100
0000
0100
0000
0000
0000
0010
0000
0000
0010
,  // measure 56
0000
0000
0010
0000
1000
0000
0000
1100
0000
0000
0001
0000
0010
0000
0000
0010
,  // measure 57
0000
0000
0010
0000
0001
0000
0000
0101
0000
0000
1000
0000
2002
0000
0000
0000
,  // measure 58
0000
0000
3003
0000
;

//---------------dance-single - ----------------
#NOTES:
     dance-single:
     Riakodoadm:
     Hard:
     12:
     0.631923,0.818566,0.117357,0.857610,0.501025,382.000000,13.000000,95.000000,0.000000,0.000000,0.000000,0.631923,0.818566,0.117357,0.857610,0.501025,382.000000,13.000000,95.000000,0.000000,0.000000,0.000000:
// measure 0
0000
0000
0000
0000
,  // measure 1
0000
0000
0000
0000
,  // measure 2
1000
0000
0100
0010
0000
0010
0100
0000
0000
0000
0000
0000
0000
0000
1000
0000
,  // measure 3
0001
0000
0100
0010
0000
0010
0100
0000
0000
0000
0000
0000
0000
0000
0001
0000
,  // measure 4
0100
0000
0001
1000
0000
1000
0001
0000
0000
0000
0000
0000
0000
0000
0100
0000
,  // measure 5
1001
2000
3200
0302
,  // measure 6
0203
2300
3020
0032
,  // measure 7
0023
0000
2030
3200
0302
0203
2300
3020
,  // measure 8
0230
0302
0023
2030
3020
0032
0203
0320
,  // measure 9
1030
0000
0000
0000
1001
0000
0000
0000
1000
0000
0000
1000
0100
0000
0000
0100
,  // measure 10
0010
0000
0000
0010
0001
0000
0000
0001
1000
0000
0000
1000
0100
0000
0000
0010
,  // measure 11
0001
0000
0000
0001
0100
0000
0000
0100
0010
0000
0000
1000
0000
0000
0100
0000
,  // measure 12
0010
0000
0000
0001
0000
0000
0100
0000
0001
0000
0000
0100
0000
0000
0010
0000
,  // measure 13
1000
0000
0000
0100
0000
0000
0010
0000
0001
0000
0000
0001
0100
0000
0000
0100
,  // measure 14
0010
0000
0000
0010
1000
0000
0000
0100
0010
0000
0000
0001
0100
0000
0000
0010
,  // measure 15
1000
0000
0000
0100
1000
0000
0000
0001
0100
0000
0000
0001
0000
0000
0010
0000
,  // measure 16
0100
0000
0000
1000
0000
0000
0010
0000
0200
0000
0000
0000
0000
0000
0000
0000
,  // measure 17
0020
0000
0000
0000
0000
0000
0330
0000
1000
0000
0000
0010
1000
0000
0000
0001
,  // measure 18
0100
0000
0000
0010
1000
0000
0100
0000
0010
0000
0000
0001
0010
0000
0000
0100
,  // measure 19
1000
0000
0000
0100
0010
0000
0001
0000
2000
0000
0000
3200
0000
0000
0310
0000
,  // measure 20
0002
0000
0000
0203
0000
0000
0310
0000
2000
0000
0000
3200
0000
0000
0301
0000
,  // measure 21
0200
0000
0000
2300
0000
0000
3001
0000
0001
0000
0000
0010
0001
0000
0000
1000
,  // measure 22
0100
0000
0000
0010
0001
0000
0100
0000
0010
0000
0000
1000
0010
0000
0000
0100
,  // measure 23
0001
0000
0000
0100
0010
0000
1000
0000
0002
0000
0000
0023
0000
0000
0130
0000
,  // measure 24
2000
0000
0000
3020
0000
0000
0130
0000
0002
0000
0000
0000
0000
0000
0000
0000
,  // measure 25
2000
0000
0000
3003
0001
0100
0001
0011
,  // measure 26
0000
0000
1010
0000
0000
0000
0010
0000
0001
0000
0000
0001
0010
0000
0000
0010
,  // measure 27
0100
0000
0000
0100
1000
0000
0000
0000
1000
0000
0100
0000
1000
0000
1010
0000
,  // measure 28
0000
0000
0011
0000
0000
0000
0010
0000
1000
0000
0000
1000
0010
0000
0000
0010
,  // measure 29
0100
0000
0001
0000
0001
0000
0001
0000
1000
0000
0000
0100
0000
0000
0001
0000
,  // measure 30
0100
0000
0000
0000
2010
0000
0000
0000
3010
0000
0000
0100
0000
0000
0001
0000
,  // measure 31
0010
0000
0000
0000
2100
0000
0000
0000
3001
0000
0000
0100
0000
0000
1000
0000
,  // measure 32
0100
0000
0000
0000
0012
0000
0000
0000
0103
0000
0000
0001
0000
0000
1000
0000
,  // measure 33
0010
0000
0000
0000
0102
0000
0000
0000
1003
0000
0001
2000
0000
0000
3010
0000
,  // measure 34
1000
0100
0000
0010
0001
0000
0100
0000
0010
0000
1000
0200
0000
0000
0310
0000
,  // measure 35
0000
0000
0110
0000
1000
0000
0000
0000
0001
0000
1000
0002
0000
0000
0013
0000
,  // measure 36
0001
0100
0000
0010
1000
0000
0100
0000
0010
0000
0001
0200
0000
0000
0310
0000
,  // measure 37
0000
0000
0110
0000
0001
0000
0000
0000
1000
0100
0000
0010
0000
0100
2000
0000
,  // measure 38
3200
0000
0000
0000
0320
0000
0000
0000
0031
0100
0000
0010
0000
0100
0002
0000
,  // measure 39
0023
0000
0000
0000
0230
0000
0000
0000
0310
0000
0001
0100
0000
0001
0100
0000
,  // measure 40
0010
0000
1000
0100
0000
1000
0100
0000
0010
0001
0000
0000
0001
0100
0000
0000
,  // measure 41
0100
1000
0000
0000
1000
0010
0000
0000
1001
0000
0000
0000
2000
0000
0000
0000
,  // measure 42
0100
0000
3002
0000
0103
0010
2000
0000
,  // measure 43
0010
0000
0000
0000
3002
0000
0000
0000
0013
0000
0100
0000
1000
0000
0000
1000
,  // measure 44
0100
0000
0000
0100
0001
0000
0000
0001
0100
0000
0000
0100
1000
0000
0000
0010
,  // measure 45
0000
0000
0100
0000
0001
0000
0000
0010
0000
0000
0100
0000
2000
0000
0000
0000
,  // measure 46
0001
0000
3020
0000
1030
0001
0200
0000
,  // measure 47
1000
0000
0000
0000
0302
0000
0000
0000
0013
0000
0001
0000
0100
0000
0000
0100
,  // measure 48
1000
0000
0000
1000
0100
0000
0000
0100
0001
0000
0000
0001
2000
0000
0000
0000
,  // measure 49
0000
0000
0002
0000
0000
3003
2000
3200
,  // measure 50
0320
0032
2003
3200
0320
0032
0023
0032
,  // measure 51
0203
0000
2300
0000
3200
0000
0302
0000
2003
0000
3020
0000
1030
0000
0001
1000
,  // measure 52
0000
0001
0010
0001
1000
0000
0001
0010
0000
0100
1000
0100
0010
0000
0001
0100
,  // measure 53
0000
0010
0100
0010
1000
0000
0001
0100
0000
0100
0001
1000
0002
0000
0203
0000
,  // measure 54
0320
2030
3002
0203
0320
2030
3200
2300
,  // measure 55
3020
0000
0230
0000
0302
0000
0023
0000
2030
0000
3020
0000
0031
0000
1000
0001
,  // measure 56
0000
1000
0010
1000
0001
0000
1000
0010
0000
0100
0001
0100
0010
0000
1000
0100
,  // measure 57
0000
0010
0001
0010
0100
0000
1000
0100
0000
1000
0010
0100
0002
0000
0000
0000
,  // measure 58
0000
0000
0003
0000
;

//---------------dance-single - ----------------
#NOTES:
     dance-single:
     Riakodoadm:
     Easy:
     5:
     0.355940,0.422486,0.324989,0.586786,0.000000,175.000000,36.000000,65.000000,0.000000,0.000000,0.000000,0.355940,0.422486,0.324989,0.586786,0.000000,175.000000,36.000000,65.000000,0.000000,0.000000,0.000000:
// measure 0
0000
0000
0000
0000
,  // measure 1
0000
0000
0000
0000
,  // measure 2
2000
0000
3010
0001
,  // measure 3
0002
0000
0013
1000
,  // measure 4
0200
0000
0310
0010
,  // measure 5
1001
2000
0000
3002
,  // measure 6
0000
0023
0000
0230
,  // measure 7
0000
2300
0000
3020
,  // measure 8
0000
0230
0000
0302
,  // measure 9
0003
1001
2000
0100
,  // measure 10
0001
3100
0002
0100
,  // measure 11
1000
0103
1001
0000
,  // measure 12
1001
0000
1000
0100
,  // measure 13
0001
0010
2000
0010
,  // measure 14
0001
3010
0002
0010
,  // measure 15
1000
0013
0110
0000
,  // measure 16
0110
0000
0001
0100
,  // measure 17
1000
0010
2000
0100
,  // measure 18
0001
3010
0002
0100
,  // measure 19
1000
0013
1001
0000
,  // measure 20
0110
0000
1000
0010
,  // measure 21
0001
0100
2000
0010
,  // measure 22
0001
3100
0002
0010
,  // measure 23
1000
0103
0110
0000
,  // measure 24
1001
0000
0001
0010
,  // measure 25
1000
0100
2000
3000
,  // measure 26
1000
0000
0002
0003
,  // measure 27
0001
0000
0200
0300
,  // measure 28
0100
0000
2002
3003
,  // measure 29
1001
0000
0020
0030
,  // measure 30
0100
0000
0002
0003
,  // measure 31
1000
0000
2000
3000
,  // measure 32
0001
0000
0220
0330
,  // measure 33
1001
0000
2000
3001
,  // measure 34
0100
0000
0002
1003
,  // measure 35
0100
0000
2001
3010
,  // measure 36
0110
0000
1002
0013
,  // measure 37
0110
0000
2000
3100
,  // measure 38
0010
0000
0002
0103
,  // measure 39
0010
0000
2000
3100
,  // measure 40
0002
0103
2000
3010
,  // measure 41
0002
0013
1001
2000
,  // measure 42
0001
0100
3010
0002
,  // measure 43
1000
0100
0013
1001
,  // measure 44
0000
0110
0000
0010
,  // measure 45
1000
0100
0001
2000
,  // measure 46
0100
0010
3001
0002
,  // measure 47
0100
0010
1003
0110
,  // measure 48
0000
1001
0000
0010
,  // measure 49
0001
0100
1000
2000
,  // measure 50
3002
2003
3001
0020
,  // measure 51
0230
0320
0130
2002
,  // measure 52
3003
0220
0330
1001
,  // measure 53
0110
0110
1001
0002
,  // measure 54
2003
3002
1003
0200
,  // measure 55
0320
0230
0310
0220
,  // measure 56
0330
2002
3003
0110
,  // measure 57
1001
1001
0110
2002
,  // measure 58
0000
0000
3003
0000
;

//---------------dance-single - ----------------
#NOTES:
     dance-single:
     Riakodoadm:
     Beginner:
     2:
     0.196025,0.312802,0.252769,0.000000,0.000000,124.000000,28.000000,0.000000,0.000000,0.000000,0.000000,0.196025,0.312802,0.252769,0.000000,0.000000,124.000000,28.000000,0.000000,0.000000,0.000000,0.000000:
// measure 0
0000
0000
0000
0000
,  // measure 1
0000
0000
0000
0000
,  // measure 2
0100
0000
0000
0000
,  // measure 3
0010
0000
0000
0000
,  // measure 4
0100
0000
0000
0000
,  // measure 5
1001
0000
0000
1000
,  // measure 6
0000
0001
0000
1000
,  // measure 7
0000
0010
0000
0001
,  // measure 8
0000
1000
0000
0001
,  // measure 9
0000
1001
0000
0000
,  // measure 10
1000
0000
1001
0000
,  // measure 11
0001
0000
0010
0000
,  // measure 12
0001
0000
1001
0000
,  // measure 13
1000
0000
0100
0000
,  // measure 14
1000
0000
1001
0000
,  // measure 15
0001
0000
0100
0000
,  // measure 16
0001
0000
1001
0000
,  // measure 17
0000
0000
1000
0000
,  // measure 18
0010
0000
0110
0000
,  // measure 19
0100
0000
1000
0000
,  // measure 20
0100
0000
0110
0000
,  // measure 21
0010
0000
0001
0000
,  // measure 22
0010
0000
0110
0000
,  // measure 23
0100
0000
0001
0000
,  // measure 24
0100
0000
0110
0000
,  // measure 25
0000
0000
1000
0000
,  // measure 26
0000
0000
0001
0000
,  // measure 27
0000
0000
1000
1000
,  // measure 28
0000
0000
0001
0001
,  // measure 29
0000
0000
0100
0000
,  // measure 30
0001
0000
1000
1000
,  // measure 31
1000
0000
0100
0000
,  // measure 32
1000
0000
0001
0001
,  // measure 33
0001
0000
0100
0000
,  // measure 34
0100
0100
0010
0000
,  // measure 35
0010
0010
0001
0000
,  // measure 36
0001
0001
1000
0000
,  // measure 37
1000
1000
0010
0000
,  // measure 38
0010
0010
0100
0000
,  // measure 39
0100
0100
0001
0000
,  // measure 40
0001
0001
1000
0000
,  // measure 41
0010
0000
1001
0000
,  // measure 42
0000
0100
0000
1001
,  // measure 43
0000
0010
0000
0001
,  // measure 44
0000
0100
0000
1001
,  // measure 45
0000
0010
0000
0001
,  // measure 46
0000
0010
0000
1001
,  // measure 47
0000
0100
0000
1000
,  // measure 48
0000
0010
0000
1001
,  // measure 49
0000
0000
0000
1000
,  // measure 50
1000
1000
1000
0001
,  // measure 51
0001
0001
0001
1001
,  // measure 52
1001
1001
0000
1001
,  // measure 53
1001
1001
0000
0010
,  // measure 54
0010
0010
0010
0100
,  // measure 55
0100
0100
0100
0110
,  // measure 56
0110
0110
0000
0110
,  // measure 57
0110
0110
0000
1001
;
