#TITLE:Supreme Judge;
#SUBTITLE:;
#ARTIST:CHAOS_CUT;
#TITLETRANSLIT:;
#SUBTITLETRANSLIT:;
#ARTISTTRANSLIT:;
#GENRE:GABBER;
#CREDIT:(this simfile, 2020/2021);
#BANNER:Supreme Judge.png;
#BACKGROUND:Supreme Judge-bg.png;
#LYRICSPATH:;
#CDTITLE:;
#MUSIC:Supreme Judge.ogg;
#OFFSET:0.000000;
#SAMPLESTART:89.000000;
#SAMPLELENGTH:15.000000;
#SELECTABLE:YES;
#DISPLAYBPM:*;
#BPMS:0.000000=60.000000
,17.000000=180.000000
,113.000000=60.000000
,137.000000=240.000000
,393.000000=480.000000
,401.000000=180.000000
,497.000000=249.999985
,625.000000=255.667023
,689.000000=260.000000
,721.000000=265.399994
,737.000000=270.000000
,753.000000=240.000000
,757.000000=480.000000
,765.000000=60.000000
;
#STOPS:
;
#BGCHANGES:;
#KEYSOUNDS:;
#ATTACKS:;

//---------------dance-single - worse than Dis----------------
#NOTES:
     dance-single:
     Riakodoadm:
     Challenge:
     18:
     0.899737,2.052785,0.321051,0.336906,0.612376,1589.000000,1508.000000,81.000000,85.000000,0.000000,0.000000,0.899737,2.052785,0.321051,0.336906,0.612376,1589.000000,1508.000000,81.000000,85.000000,0.000000,0.000000:
0000
0000
0000
0000
,
0000
0000
0000
0000
,
1000
0100
1000
0010
1000
0010
1000
0100
1000
0010
1000
0010
0100
0001
0100
0001
0010
0001
0100
0001
0100
0001
0010
0001
,
1000
0010
1000
0001
0100
0001
1000
0010
1000
0001
0100
0001
1000
0100
1000
0001
0010
0001
1000
0100
1000
0001
0010
0001
,
1000
0100
0010
0001
0011
0000
1000
0000
0000
0000
0100
0000
0000
0000
0001
0000
,
0000
0010
0000
1000
0000
0100
0000
0001
,
0000
0010
0000
1000
0000
0010
0000
0100
,
0000
0001
1001
0100
0000
1000
0000
0001
,
0000
0010
0000
1000
0000
0001
0000
0010
,
0000
1000
0000
0001
0000
0100
0000
1000
,
0000
0100
1010
0001
0000
0100
0000
1000
,
0000
0010
0000
0001
0000
0100
0000
1000
,
0000
0010
0000
0001
0000
0010
0000
0100
,
0000
1000
1001
0100
0000
0001
0000
1000
,
0000
0010
0000
0001
0000
1000
0000
0010
,
0000
0001
0000
1000
0000
0100
0000
0001
,
0000
1000
2010
0000
3020
0000
1030
0010
,
2000
0000
3020
0000
1030
0001
2000
0000
,
3020
0000
0130
0010
0100
0001
0100
0010
,
0100
0001
0020
0000
0230
0000
0310
1000
,
0020
0000
0230
0000
0310
0001
0020
0000
,
0230
0000
0301
0100
0010
0100
1000
0001
,
0100
0001
0012
0000
0023
0000
0031
0010
,
0002
0000
0023
0000
0031
1000
0002
0000
,
0023
0000
0130
0010
0100
1000
0100
0010
,
0100
1000
0020
0000
0230
0000
0310
0001
,
0020
0000
0230
0000
0310
1000
0020
0000
,
0230
0000
1300
0100
0010
0100
0001
1000
,
0100
0000
0000
1000
0000
0000
1100
1000
0100
0010
0100
1000
0001
0100
0001
0010
0001
1000
0100
1000
0100
0010
0100
1000
,
0001
0100
0001
0010
0001
1000
0001
0010
0100
0010
0001
1000
0010
0100
0010
1000
0001
0010
0100
0010
0001
0010
0100
1000
,
0010
0100
0001
1000
0010
0100
0101
0001
0100
0010
0100
0001
1000
0100
1000
0010
1000
0001
0100
0001
0100
0010
0100
0001
,
1000
0100
1000
0010
1000
0001
1000
0010
0100
0010
1000
0001
0010
0100
0010
0001
1000
0010
0100
0010
1000
0010
0100
0001
,
0010
0100
1000
0010
0100
0001
2002
0000
0000
0000
0000
0000
0000
0000
0000
0000
0000
0000
0000
0000
0000
0000
0000
0000
,
0000
0000
0000
0000
,
0000
0000
0000
0000
3003
0000
1010
0000
0000
0000
0000
0000
1000
0000
0000
0100
0000
0000
0000
0000
0000
0000
0000
0000
,
0100
0010
0000
0000
0010
0001
0000
0000
,
0001
0100
0000
0000
0100
0010
0000
0000
,
0010
0001
0000
0000
0001
0010
0000
0000
,
0010
1000
1010
0000
0001
0100
0000
0000
,
0100
0010
0000
0000
0010
1000
0000
0000
,
1000
0100
0000
0000
0100
0010
0000
0000
,
0010
1000
0000
0000
1000
0010
0000
0000
,
0010
0001
0011
0000
1000
0100
0000
0000
,
0001
0100
0000
0000
1000
0010
0000
0000
,
0010
0100
0101
0000
0001
0100
0000
0000
,
1000
0100
0000
0000
0001
0010
0000
0000
,
0010
0100
1100
0000
1000
0010
0000
0000
,
0010
0100
0101
0000
0001
0010
0000
0000
,
0010
0100
1100
0000
1000
0001
1001
0000
,
1100
0000
0101
0000
0001
1000
0000
0000
,
0000
0000
1000
0100
0010
0001
0100
1000
,
0100
0010
0001
0010
1000
0010
0100
0001
,
0010
1000
0010
0100
0001
0100
1000
0001
,
0100
0010
1000
0100
0001
0100
0010
1000
,
0010
0001
0010
0100
1000
0010
0001
0010
,
0100
1000
0100
0001
0010
0001
0100
0010
,
1000
0100
1000
0010
0100
0001
0010
0100
,
1000
0000
0010
0000
0100
0000
1000
0000
0100
0000
0001
0000
0010
0100
0010
0100
,
0010
0100
0010
0100
1000
0000
0010
0000
0100
0000
0001
0000
0010
0000
1000
0000
,
0010
0100
0001
0100
1000
0100
0010
0001
,
0100
1000
0100
0010
0001
0010
1000
0001
,
0010
0100
1000
0010
0001
0010
0100
1000
,
0100
0001
0100
0010
1000
0100
0001
0100
,
0010
1000
0010
0001
0100
0001
0010
0100
,
1000
0010
1000
0100
0010
0001
0100
0010
,
1000
0000
0100
0000
0010
0000
1000
0000
0010
0000
0001
0000
0100
0010
0100
0010
,
0100
0010
0100
0010
1000
0000
0100
0000
0010
0000
0001
0000
0100
0000
1000
0000
,
0100
0010
0001
0010
1000
0010
0100
0001
,
0010
1000
0010
0100
0001
0100
1000
0001
,
0100
0010
1000
0100
0001
0100
0010
1000
,
0010
0001
0010
0100
1000
0010
0001
0010
,
0100
1000
0100
0001
0010
0001
0100
0010
,
1000
0100
1000
0010
0100
0001
0010
0100
,
1000
0000
0010
0000
0100
0000
1000
0000
0100
0000
0001
0000
0010
0100
0010
0100
,
0010
0100
0010
0100
1000
0000
0010
0000
0100
0000
0001
0000
0010
0000
1000
0000
,
0010
0100
0001
0100
1000
0100
0010
0001
,
0100
1000
0100
0010
0001
0010
1000
0001
,
0010
0100
1000
0010
0001
0010
0100
1000
,
0100
0001
0100
0010
1000
0100
0001
0100
,
0010
1000
0010
0001
0100
0001
0010
0100
,
1000
0010
1000
0100
0010
0001
0100
0010
,
1000
0000
0100
0000
0010
0000
1000
0000
0010
0000
0001
0000
0010
0100
0010
0100
,
0010
0100
0010
0100
0010
0000
0100
0000
0000
0000
1100
0000
0000
0000
0000
0000
,
0001
1000
0001
1000
0010
0000
0100
0000
0000
0000
0101
0000
0000
0000
0000
0000
,
1000
0001
1000
0001
0010
0000
0100
0000
0000
0000
1100
0000
0000
0000
0000
0000
,
0001
1000
0001
1000
0001
0010
0001
0000
0000
0000
0100
0000
0001
0010
0001
0000
,
0000
0100
0010
0100
0000
0101
0000
0000
,
1000
0001
1000
0001
0010
0000
0100
0000
0000
0000
1100
0000
0000
0000
0000
0000
,
0001
1000
0001
1000
0010
0000
0100
0000
0000
0000
0101
0000
0000
0000
0000
0000
,
1000
0001
1000
0001
1000
0010
1000
0000
0000
0000
0100
0000
1000
0010
1000
0000
,
0000
0100
1000
0100
0000
1000
0100
0000
,
0110
0000
0010
0001
0000
0010
0001
0000
,
0101
0000
0100
0001
0000
0100
0001
0000
,
1001
0000
1000
0010
0000
1000
0010
0000
,
0110
0000
0001
0100
0001
0000
0010
0000
0100
0000
1000
0000
0001
0000
0010
0000
,
0100
1000
0001
0100
0010
1000
0001
0100
,
0010
1000
0100
0001
0100
0010
1000
0010
,
0001
0000
0100
0000
0001
1000
0001
1000
0001
1000
0001
1000
0001
1000
0001
1000
,
0001
1000
0001
1000
0004
0000
0000
0000
0000
0000
0000
0000
0000
0000
0000
0000
,
0000
0000
0000
0000
,
0000
0000
0013
0000
0021
0000
0031
0010
,
0001
0000
0021
0000
0031
1000
0001
0000
,
0021
0000
0130
0010
1000
0010
0100
0010
,
0001
0100
0010
0000
2010
0000
3010
1000
,
0010
0000
2010
0000
3010
0001
0010
0000
,
0210
0000
1300
0100
0001
1000
0010
0100
,
0001
1000
0010
0000
1020
0000
1030
0010
,
1000
0000
1020
0000
1030
0001
1000
0000
,
1020
0000
0130
0010
0001
0010
0100
0010
,
1000
0100
0010
0000
0012
0000
0013
0001
,
0010
0000
0012
0000
0013
1000
0010
0000
,
0210
0000
0301
0100
1000
0001
0010
0100
,
1000
0000
0010
0000
0100
0000
0001
0100
0002
0000
0000
0000
0003
0000
0000
0000
0202
0000
0000
0000
0303
0000
0000
0000
0100
0000
0000
0000
0010
0000
0000
0000
,
2020
3030
2002
3003
0001
0010
0220
0330
,
2200
3300
1000
0100
0010
1000
0010
0100
,
1000
0001
0022
0033
0220
0330
0100
1000
,
2002
3003
2020
3030
0010
0100
0202
0303
,
0022
0033
0010
0100
0001
0100
1000
0001
,
0010
0100
2200
3300
2002
3003
0001
0010
,
0022
0033
2002
3003
1000
0010
0220
0330
,
0202
0303
0001
0100
0010
0001
0010
0100
,
0001
1000
2020
3030
0220
0330
0100
0001
,
2002
3003
0022
0033
0010
0100
2200
3300
,
2020
0000
0000
0000
3030
0000
0000
0000
0010
0000
0000
0000
0100
0000
0000
0000
0001
0000
0100
0000
0010
1000
0010
0000
1000
0000
0100
0000
0010
0001
0010
0001
,
1000
0000
0000
0000
0000
0000
0001
0000
0000
0000
0000
0000
1000
0000
0000
0000
0000
0000
0001
0000
0000
0000
0000
0000
1000
0000
0000
0000
0000
0000
0001
0000
0000
0000
0000
0000
1000
0000
0000
0000
0000
0000
0001
0000
0000
0000
0000
0000
1000
0000
0000
0000
0000
0000
0000
0000
0000
0000
0000
0000
0000
0000
0000
0000
0000
0000
0000
0000
0000
0000
0000
0000
0000
0000
0000
0000
0000
0000
0000
0000
0100
0000
0000
0000
0000
0000
0000
0000
0000
0000
0000
0000
0000
0000
0000
0000
0000
0000
0000
0000
0000
0000
0000
0000
0000
0000
0000
0000
0000
0000
0000
0000
1000
0000
0000
0000
0000
0000
0000
0000
0000
0000
0000
0000
0000
0000
0000
0000
0000
0000
0000
0000
0000
0000
0000
0000
0000
0000
0000
0000
0000
0000
0000
0000
0001
0000
0000
0000
0000
0000
0000
0000
0000
0000
0000
0000
0000
0000
0000
0000
0000
0000
0000
0000
0000
0000
0000
0000
0000
0000
0000
0000
0000
0000
0000
0000
0010
0000
0000
0000
0000
0000
0000
0000
0000
0000
0000
0000
0000
0000
0000
0000
,
0000
0001
0000
1000
0000
0100
0000
1000
0000
0001
0000
0010
,
0000
0001
0000
0101
0000
0100
0000
0001
0000
1000
0000
0010
,
0000
1000
0000
0001
0000
0100
0000
0001
0000
1000
0000
0010
,
0000
1000
0000
1100
0000
0100
0000
0010
0000
0100
0000
1000
,
0000
0010
0000
0100
0000
0010
0000
1000
0000
0010
0000
0100
,
0000
0001
0000
0011
0000
0010
0000
0100
0000
0001
0000
0100
,
0000
0010
0000
0100
0000
1000
0000
0100
0000
0010
0000
0001
,
0000
1000
0000
1010
0000
0010
0000
1000
0000
0001
0000
0100
,
0000
0001
0000
1000
0000
0010
0000
1000
0000
0001
0000
0100
,
0000
0001
0000
0011
0000
0010
0000
0001
0000
1000
0000
0100
,
0000
1000
0000
0001
0000
0010
0000
0001
0000
1000
0000
0100
,
0000
1000
0000
1010
0000
0010
0000
0100
0000
0010
0000
1000
,
0000
0100
0000
0010
0000
0100
0000
1000
0000
0100
0000
0010
,
0000
0001
0000
0101
0000
0100
0000
0001
0000
1001
0000
0000
,
1100
0000
0101
0000
0001
1000
0000
0000
,
0000
0000
1000
0100
0010
0001
0100
1000
,
0100
0010
0001
0010
1000
0010
0100
0001
,
0010
1000
0010
0100
0001
0100
1000
0001
,
0100
0010
1000
0100
0001
0100
0010
1000
,
0010
0001
0010
0100
1000
0010
0001
0010
,
0100
1000
0100
0001
0010
0001
0100
0010
,
1000
0100
1000
0010
0100
0001
0010
0100
,
1000
0000
0010
0000
0100
0000
1000
0000
0100
0000
0001
0000
0010
0100
0010
0100
,
0010
0100
0010
0100
1000
0000
0010
0000
0100
0000
0001
0000
0010
0000
1000
0000
,
0010
0100
0001
0100
1000
0100
0010
0001
,
0100
1000
0100
0010
0001
0010
1000
0001
,
0010
0100
1000
0010
0001
0010
0100
1000
,
0100
0001
0100
0010
1000
0100
0001
0100
,
0010
1000
0010
0001
0100
0001
0010
0100
,
1000
0010
1000
0100
0010
0001
0100
0010
,
1000
0100
0010
0110
0000
1001
0000
0000
,
0001
1000
0001
1000
0001
0000
0100
0000
0010
0000
1000
0000
0100
0000
0001
0000
,
0100
0010
1000
0010
0001
0010
0100
1000
,
0010
0001
0010
0100
1000
0100
0001
1000
,
0100
0010
0001
0100
1000
0100
0010
0001
,
0010
1000
0010
0100
0001
0010
1000
0010
,
0100
0001
0100
1000
0010
1000
0100
0010
,
0001
0100
0001
0010
0100
1000
0010
0100
,
0001
0000
0010
0000
0100
0000
0001
0000
0100
0000
1000
0000
0010
0100
0010
0100
,
0010
0100
0010
0100
0001
0000
0010
0000
0100
0000
1000
0000
0010
0000
0001
0000
,
0010
0100
1000
0100
0001
0100
0010
1000
,
0100
0001
0100
0010
1000
0010
0001
1000
,
0010
0100
0001
0010
1000
0010
0100
0001
,
0100
1000
0100
0010
0001
0100
1000
0100
,
0010
0001
0010
1000
0100
1000
0010
0100
,
0001
0010
0001
0100
0010
1000
0100
0010
,
0001
0000
0100
0000
0010
0000
0001
0000
0010
0000
1000
0000
0100
0010
0100
0010
,
0100
0010
0100
0010
0001
0000
0010
0000
0100
0000
0010
0000
0001
0000
0010
0000
,
0100
0010
0100
0001
0100
0010
0100
0001
,
0100
0010
0100
1000
0010
1000
0100
1000
,
0010
1000
0010
0100
0010
1000
0010
0100
,
0001
1000
0100
0010
0100
1000
0100
0010
,
0100
1000
0010
0100
0010
0001
0010
0100
,
0010
0001
0010
0100
1000
0100
0010
0100
,
1000
0100
0001
0010
1000
0010
0001
0010
,
1000
0010
0001
0100
0001
0100
1000
0100
,
1000
0100
0010
0001
0010
0001
0010
1000
,
0010
1000
0100
1000
0100
1000
0100
0001
,
0100
0001
1000
0010
1000
0010
0001
0010
,
0001
0010
0100
1000
0001
0010
0100
1000
,
0001
0010
0100
0010
0001
1000
0100
0010
,
0001
1000
0010
0100
0001
1000
0010
0100
,
0001
0000
0010
0000
0100
0010
0100
0010
0100
0010
0100
0010
0001
1000
0001
1000
,
0001
1000
0001
1000
0010
0100
0010
0100
0010
0100
0010
0100
0010
0100
0010
0100
,
0010
0100
0010
0100
0040
0000
0000
0000
0000
0000
0000
0000
0000
0000
0000
0000
,
0000
0000
0000
0000
,
0000
0000
0000
0030
0000
0000
1000
0100
1000
0010
1000
0010
1000
0100
1000
0010
1000
0010
0100
0001
0100
0001
0010
0001
,
0100
0001
0100
0001
0010
0001
1001
1000
0001
1000
0100
1000
0001
0010
0001
1000
0100
1000
0001
0100
0001
1000
0010
1000
,
0001
0100
0001
1000
0010
1000
1001
0001
0010
0001
0100
0001
0010
0001
0100
0001
0010
0001
1001
1000
0100
1000
0001
0100
,
0001
1000
0100
0010
0100
1000
1001
0001
0010
0001
1000
0010
0100
0010
1000
0100
0010
0001
1001
1000
0100
0010
0001
0100
,
0010
0000
1000
0000
0100
0000
0010
0000
0001
0000
0100
0000
0001
0000
0000
0010
0000
0000
1000
0000
0000
0100
0000
0000
0000
0000
0000
0000
0000
0000
0000
0000
0000
0000
0000
0000
0000
0000
0000
0000
0000
0000
0000
0000
0000
0000
0000
0000
;

//---------------dance-single - the nerfed one----------------
#NOTES:
     dance-single:
     Riakodoadm:
     Hard:
     18:
     0.643802,1.280193,0.332942,0.558867,0.093145,1137.000000,1053.000000,84.000000,141.000000,24.000000,0.000000,0.643802,1.280193,0.332942,0.558867,0.093145,1137.000000,1053.000000,84.000000,141.000000,24.000000,0.000000:
// measure 0
0000
0000
0000
0000
,  // measure 1
0000
0000
0000
0000
,  // measure 2
2200
0000
0000
0000
0000
0000
0000
3300
0202
0000
0000
0000
0000
0000
0000
0303
,  // measure 3
0022
0000
0000
0000
0000
0000
0000
0033
2020
0000
0000
0000
0000
0000
0000
0000
,  // measure 4
0000
0000
0000
0000
0000
3030
0000
0000
0000
1000
0000
0000
0000
0000
0000
0100
0000
0000
0000
0000
0000
0001
0000
0000
,  // measure 5
0000
0010
0000
1000
0000
0100
0000
0001
,  // measure 6
0000
0010
0000
1000
0000
0010
0000
0100
,  // measure 7
0000
0001
0000
0100
0000
1000
0000
0001
,  // measure 8
0000
0010
0000
1000
0000
0001
0000
0010
,  // measure 9
0000
1000
0000
0001
0000
0100
0000
1000
,  // measure 10
0000
0100
0000
0001
0000
0100
0000
1000
,  // measure 11
0000
0010
0000
0001
0000
0100
0000
1000
,  // measure 12
0000
0010
0000
0001
0000
0010
0000
0100
,  // measure 13
0000
1000
0000
0100
0000
0001
0000
1000
,  // measure 14
0000
0010
0000
0001
0000
1000
0000
0010
,  // measure 15
0000
0001
0000
1000
0000
0100
0000
0001
,  // measure 16
0000
1000
2010
0000
3020
0000
1030
0010
,  // measure 17
2000
0000
3020
0000
1030
0001
2000
0000
,  // measure 18
3020
0000
0130
0010
0100
0001
0100
0010
,  // measure 19
0100
0001
0020
0000
0230
0000
0310
1000
,  // measure 20
0020
0000
0230
0000
0310
0001
0020
0000
,  // measure 21
0230
0000
0301
0100
0010
0100
1000
0001
,  // measure 22
0100
0001
0012
0000
0023
0000
0031
0010
,  // measure 23
0002
0000
0023
0000
0031
1000
0002
0000
,  // measure 24
0023
0000
0130
0010
0100
1000
0100
0010
,  // measure 25
0100
1000
0020
0000
0230
0000
0310
0001
,  // measure 26
0020
0000
0230
0000
0310
1000
0020
0000
,  // measure 27
0230
0000
1300
0100
0010
0100
0001
1000
,  // measure 28
0100
0000
1000
0000
2200
0000
0000
0300
0002
0000
0000
0003
0200
0000
0000
0300
,  // measure 29
0020
0000
0000
3030
2020
0000
0000
3000
0002
0000
0000
0003
0200
0000
0000
0300
,  // measure 30
2000
0000
0000
3030
0202
0000
0000
0300
2000
0000
0000
3000
0200
0000
0000
0300
,  // measure 31
0020
0000
0000
0033
0022
0000
0000
0003
2000
0000
0000
3000
0200
0000
0000
0300
,  // measure 32
0002
0000
0000
0033
2002
0000
0000
0000
0000
0000
0000
0000
0000
0000
0000
0000
,  // measure 33
0000
0000
0000
0000
,  // measure 34
0000
0000
0000
3003
1010
0000
0000
0000
1000
0000
0100
0000
0000
0000
0000
0000
,  // measure 35
0100
0010
0000
0000
0010
0001
0000
0000
,  // measure 36
0001
0100
0000
0000
0100
0010
0000
0000
,  // measure 37
0010
0001
0000
0000
0001
0010
0000
0000
,  // measure 38
0010
1000
1010
0000
0001
0100
0000
0000
,  // measure 39
0100
0010
0000
0000
0010
1000
0000
0000
,  // measure 40
1000
0100
0000
0000
0100
0010
0000
0000
,  // measure 41
0010
1000
0000
0000
1000
0010
0000
0000
,  // measure 42
0010
0001
0011
0000
1000
0100
0000
0000
,  // measure 43
0001
0100
0000
0000
1000
0010
0000
0000
,  // measure 44
0010
0100
0101
0000
0001
0100
0000
0000
,  // measure 45
1000
0100
0000
0000
0001
0010
0000
0000
,  // measure 46
0010
0100
1100
0000
1000
0010
0000
0000
,  // measure 47
0010
0100
0101
0000
0001
0010
0000
0000
,  // measure 48
0010
0100
1100
0000
1000
0001
1001
0000
,  // measure 49
1100
0000
0101
0000
0001
1000
0000
0000
,  // measure 50
0000
0000
0001
0000
0001
0010
0001
0000
,  // measure 51
0001
1000
0001
0000
0001
0100
0001
0000
,  // measure 52
0100
0010
1000
0000
0010
0100
0000
0001
,  // measure 53
0100
0010
1000
0100
0001
0100
1000
0100
,  // measure 54
0001
0100
0010
0000
0010
1000
0010
0000
,  // measure 55
0010
0100
0010
0000
0010
0001
0010
0000
,  // measure 56
0001
0100
0010
0000
1000
0010
0000
0100
,  // measure 57
0001
1000
0100
0010
1000
0010
0100
1000
,  // measure 58
0001
0000
0100
0001
1000
0000
0000
0000
1000
0000
0010
0000
1000
0000
0000
0000
,  // measure 59
1000
0001
1000
0000
1000
0100
1000
0000
,  // measure 60
0100
0010
0001
0000
0010
0100
0000
1000
,  // measure 61
0100
0010
0001
0100
1000
0100
0001
0100
,  // measure 62
1000
0100
0010
0000
0010
0001
0010
0000
,  // measure 63
0010
0100
0010
0000
0010
1000
0010
0000
,  // measure 64
1000
0100
0010
0000
0001
0010
0000
0100
,  // measure 65
1000
0001
0100
0010
0001
0010
0100
0001
,  // measure 66
1000
0000
0100
1000
0001
0000
0000
0000
0001
0000
0100
0000
1000
0000
0000
0000
,  // measure 67
1000
0100
0001
0000
0001
0100
1000
0000
,  // measure 68
1000
0100
0001
0000
0001
0100
0000
0010
,  // measure 69
0100
0001
0010
0100
0010
0001
1000
0010
,  // measure 70
0100
0010
1000
0000
1000
0010
0001
0000
,  // measure 71
0001
0010
1000
0000
1000
0010
0001
0000
,  // measure 72
0001
0010
1000
0000
1000
0010
0000
0100
,  // measure 73
1000
0100
0010
0100
0001
0010
0100
1000
,  // measure 74
0010
0000
0100
0001
1000
0000
0000
0000
1000
0000
0100
0000
0001
0000
0000
0000
,  // measure 75
0001
0100
1000
0000
1000
0100
0001
0000
,  // measure 76
0001
0100
1000
0000
1000
0100
0000
0010
,  // measure 77
0100
1000
0010
0100
0010
1000
0001
0010
,  // measure 78
0100
0010
0001
0000
0001
0010
1000
0000
,  // measure 79
1000
0010
0001
0000
0001
0010
1000
0000
,  // measure 80
1000
0010
0001
0000
0001
0010
0000
0100
,  // measure 81
0001
0100
0010
0100
1000
0010
0100
0001
,  // measure 82
0010
0000
0001
1000
0010
0000
1000
0000
0000
0000
1100
0000
0000
0000
0000
0000
,  // measure 83
MMMM
0000
0010
0001
0000
0101
0000
0000
,  // measure 84
MMMM
0000
0010
1000
0000
1100
0000
0000
,  // measure 85
MMMM
0000
0000
0000
1000
0010
1000
0000
0000
0000
0100
0000
1000
0010
1000
0000
,  // measure 86
0000
0100
0010
0001
0000
0101
0000
0000
,  // measure 87
MMMM
0000
0010
1000
0000
1100
0000
0000
,  // measure 88
MMMM
0000
0010
0001
0000
0101
0000
0000
,  // measure 89
MMMM
0000
0000
0000
0001
0010
0001
0000
0000
0000
0100
0000
0001
0010
0001
0000
,  // measure 90
0000
0100
0001
0100
0000
0001
0100
0000
,  // measure 91
0110
0000
0010
1000
0000
0010
1000
0000
,  // measure 92
1100
0000
0100
1000
0000
0100
1000
0000
,  // measure 93
1001
0000
0001
0010
0000
0001
0010
0000
,  // measure 94
0100
0000
1000
0100
1000
0000
0010
0000
0100
0000
0001
0000
1000
0000
0010
0000
,  // measure 95
0100
0001
1000
0100
0010
0001
1000
0100
,  // measure 96
0010
0001
0100
0010
0001
0010
0100
1000
,  // measure 97
0100
0000
0001
0000
1000
0001
1000
0001
1000
0001
1000
0001
1000
0001
1000
0001
,  // measure 98
1000
0001
1000
0001
4000
0000
0000
0000
0000
0000
0000
0000
0000
0000
0000
0000
,  // measure 99
0000
0000
0000
0000
,  // measure 100
0000
3000
0001
0000
0021
0000
0031
0010
,  // measure 101
0001
0000
0021
0000
0031
1000
0001
0000
,  // measure 102
0021
0000
0130
0010
1000
0010
0100
0010
,  // measure 103
0001
0100
0010
0000
2010
0000
3010
1000
,  // measure 104
0010
0000
2010
0000
3010
0001
0010
0000
,  // measure 105
0210
0000
1300
0100
0001
1000
0010
0100
,  // measure 106
0001
1000
0010
0000
1020
0000
1030
0010
,  // measure 107
1000
0000
1020
0000
1030
0001
1000
0000
,  // measure 108
1020
0000
0130
0010
0001
0010
0100
0010
,  // measure 109
1000
0100
0010
0000
0012
0000
0013
0001
,  // measure 110
0010
0000
0012
0000
0013
1000
0010
0000
,  // measure 111
0210
0000
0301
0100
1000
0001
0010
0100
,  // measure 112
1000
0000
0010
0000
0100
0000
0010
0100
0002
0000
0000
0000
0003
0000
0000
0000
0202
0000
0000
0000
0303
0000
0000
0000
0100
0000
0000
0000
0010
0000
0000
0000
,  // measure 113
2020
3030
2002
3003
0001
0010
0220
0330
,  // measure 114
2200
3300
1000
0100
0010
1000
0010
0100
,  // measure 115
1000
0001
0022
0033
0220
0330
0100
1000
,  // measure 116
2002
3003
2020
3030
0010
0100
0202
0303
,  // measure 117
0022
0033
0010
0100
0001
0100
1000
0001
,  // measure 118
0010
0100
2200
3300
2002
3003
0001
0010
,  // measure 119
0022
0033
2002
3003
1000
0010
0220
0330
,  // measure 120
0202
0303
0001
0100
0010
0001
0010
0100
,  // measure 121
0001
1000
2020
3030
0220
0330
0100
0001
,  // measure 122
2002
3003
0022
0033
0010
0100
2200
3300
,  // measure 123
2020
0000
3030
0000
0010
0000
0100
0000
0001
0100
0010
1000
0100
0010
0001
0100
,  // measure 124
0010
1000
0001
0010
0200
0000
0000
0000
0000
0000
0000
0000
0000
0000
0000
0000
,  // measure 125
0000
0000
0000
0000
,  // measure 126
0300
0202
0000
0000
,  // measure 127
0000
0000
0000
0000
,  // measure 128
0303
2020
0000
0000
,  // measure 129
0000
0000
0000
0000
,  // measure 130
3030
0022
0000
0000
,  // measure 131
0000
0000
0000
0000
,  // measure 132
0033
0102
0000
0000
,  // measure 133
0000
1000
0000
1000
,  // measure 134
1003
2200
0000
0000
,  // measure 135
0000
0000
0000
0000
,  // measure 136
3300
0012
0000
0000
,  // measure 137
0000
1000
0000
0000
,  // measure 138
0003
0000
2010
0000
0000
3000
1001
0000
,  // measure 139
1100
0000
0101
0000
0001
1000
0000
0000
,  // measure 140
0000
0000
0010
0000
1000
0100
1000
0000
,  // measure 141
0001
0100
0001
0000
1000
0100
1000
0000
,  // measure 142
0001
0100
0001
0000
1000
0100
0000
0100
,  // measure 143
0010
0100
0010
0001
0100
0001
0010
0100
,  // measure 144
1000
0001
0010
0000
0001
0010
0001
0000
,  // measure 145
1000
0010
1000
0000
0001
0010
0001
0000
,  // measure 146
1000
0010
1000
0000
0001
0010
0000
0010
,  // measure 147
1000
0010
0100
1000
0010
0100
0001
0100
,  // measure 148
0010
0000
1000
0001
0010
0000
0000
0000
0001
0000
0100
0000
0001
0000
0000
0000
,  // measure 149
1000
0100
1000
0000
0001
0100
0001
0000
,  // measure 150
1000
0100
1000
0000
0001
0100
0000
0100
,  // measure 151
0010
0100
0010
1000
0100
1000
0010
0100
,  // measure 152
0001
1000
0010
0000
1000
0010
1000
0000
,  // measure 153
0001
0010
0001
0000
1000
0010
1000
0000
,  // measure 154
0001
0010
0001
0000
1000
0010
0000
0010
,  // measure 155
0001
0010
1000
0001
0000
0110
0000
0000
,  // measure 156
0000
0000
0001
0000
0010
0100
1000
0000
,  // measure 157
0100
0010
0001
0000
0010
0100
1000
0000
,  // measure 158
0100
0010
0001
0000
0010
0100
0000
0100
,  // measure 159
1000
0010
1000
0001
0100
0001
0010
0100
,  // measure 160
1000
0010
0100
0000
0010
1000
0001
0000
,  // measure 161
0010
0001
1000
0000
0010
1000
0001
0000
,  // measure 162
0010
0001
1000
0000
0010
1000
0000
1000
,  // measure 163
0100
0001
0100
0010
1000
0010
0001
0100
,  // measure 164
0010
0000
0100
0010
1000
0000
0000
0000
0010
0000
0100
0000
0001
0000
0000
0000
,  // measure 165
0100
0010
1000
0000
0010
0100
0001
0000
,  // measure 166
0100
0010
1000
0000
0010
0100
0000
0100
,  // measure 167
0001
0010
0001
1000
0100
1000
0010
0100
,  // measure 168
0001
0010
0100
0000
0010
0001
1000
0000
,  // measure 169
0010
1000
0001
0000
0010
0001
1000
0000
,  // measure 170
0010
1000
0001
0000
0010
0001
0000
0001
,  // measure 171
0010
0100
1000
0100
0001
1000
0010
0001
,  // measure 172
1000
0000
0010
1000
0001
0000
0100
0000
0010
0000
0100
0000
0001
0000
0100
0000
,  // measure 173
0010
0000
1000
0100
0010
0100
1000
0100
,  // measure 174
0010
0000
0001
0010
0100
1000
0001
0010
,  // measure 175
0001
0000
1000
0010
0100
0001
1000
0010
,  // measure 176
1000
0000
0010
0100
0001
0000
0010
0000
0001
0000
0100
0000
0001
0000
0010
0000
,  // measure 177
0001
0000
1000
0100
1000
0010
1000
0100
,  // measure 178
1000
0000
0010
0100
0001
0100
0010
0100
,  // measure 179
0001
0000
1000
0010
0100
0001
0010
0100
,  // measure 180
1000
0000
0010
1000
0001
0000
0010
0000
0001
0000
0010
0000
0100
0000
0001
0000
,  // measure 181
0100
0001
0100
1000
0100
1000
0010
1000
,  // measure 182
0010
1000
0010
0001
0010
0001
1000
0100
,  // measure 183
1000
0100
0001
0100
0001
0100
0001
0010
,  // measure 184
0001
0010
0100
1000
0001
0010
0100
1000
,  // measure 185
0001
0100
0010
1000
0001
0100
0010
1000
,  // measure 186
0001
0010
0100
0010
0001
1000
0010
0100
,  // measure 187
0010
0000
1000
0000
0100
0010
0100
0010
0100
0010
0100
0010
0100
0010
0100
0010
,  // measure 188
0100
0010
0100
0010
0001
1000
0001
1000
0001
1000
0001
1000
0001
1000
0001
1000
,  // measure 189
0001
1000
0001
1000
0004
0000
0000
0000
0000
0000
0000
0000
0000
0000
0000
0000
,  // measure 190
0000
0000
0000
0000
,  // measure 191
0000
0000
0003
0000
2200
0000
0000
0000
0000
0000
0000
3300
0202
0000
0000
0000
,  // measure 192
0000
0000
0000
0303
0022
0000
0000
0000
0000
0000
0000
0033
2020
0000
0000
0000
,  // measure 193
0000
0000
0000
0000
0000
0000
0000
0000
0000
0000
3030
0000
2200
0000
0000
0000
0000
0000
0000
0000
0000
0000
0000
0000
0000
0000
0000
0000
0000
0000
0000
0000
0000
3300
0000
0000
0202
0000
0000
0000
0000
0000
0000
0000
0000
0000
0000
0000
,  // measure 194
0000
0000
0000
0303
0022
0000
0000
0000
0000
0000
0000
0033
2020
0000
0000
0000
,  // measure 195
0000
0000
0000
3030
;

//---------------dance-double - ----------------
#NOTES:
     dance-double:
     :
     Challenge:
     1:
     0.099090,0.242424,0.067381,0.031709,0.007927,175.000000,154.000000,17.000000,8.000000,0.000000,4.000000,0.099090,0.242424,0.067381,0.031709,0.007927,175.000000,154.000000,17.000000,8.000000,0.000000,4.000000:
00000000
00000000
00000000
00000000
,
00000000
00000000
00000000
00000000
,
00011100
00000000
00111000
00000000
,
00101100
00000000
00001110
00000000
,
00000000
00000000
00001001
00000100
00000000
00000100
00000000
00001000
,
00000000
00001000
00000000
00010000
00000000
00010000
00000000
01000000
,
00000000
01000000
00000000
10000000
00000000
10000000
00000000
00100000
,
00000000
00100000
10010000
01000000
00000000
01000000
00000000
00010000
,
00000000
00010000
00000000
00001000
00000000
00001000
00000000
00000010
,
00000000
00000010
00000000
00000001
00000000
00000001
00000000
00000100
,
00000000
00000100
00000110
00000001
00000000
00000010
00000000
00001000
,
00000000
00010000
00000000
01000000
00000000
10000000
00000000
01000000
,
00000000
00010000
00000000
00001000
00000000
00010000
00000000
00100000
,
00000000
01000000
01100000
00000000
00000000
00000000
00000000
00000000
,
00000000
00000000
00000000
00000000
,
00000000
00000000
00000000
00000000
,
00000000
00000000
00021000
00000000
02030000
00000000
03010000
00001000
,
00000100
00000000
00001200
00000000
00001300
00010000
01000000
00000000
,
02010000
00000000
03010000
01000000
10000000
01000000
00100000
01000000
,
00010000
00001000
00012000
00000000
00003020
00000000
00001030
00010000
,
00100000
00000000
10200000
00000000
10300000
01000000
00010000
00000000
,
01020000
00000000
01030000
00100000
00001000
00010000
00000010
00000100
,
00000001
00000100
00000000
00000000
00000000
00000000
00000000
00000000
,
00000000
00000000
00000000
00000000
,
00000000
00000000
00000000
00000000
,
00000000
00000000
00000000
00000000
,
00000000
00000000
00000000
00000000
,
00000000
00000000
00000000
00000000
,
00000000
00000000
00000000
00000000
,
00000000
00000000
00000000
00000000
,
00000000
00000000
00000000
00000000
,
00000000
00000000
00000000
00000000
,
00000000
00000000
00000000
00000000
,
00000000
00000000
00000000
00000000
,
00000000
00000000
00000000
00000000
,
00000000
00000000
00000000
00000000
,
00000000
00000000
00000000
00000000
,
00000000
00000000
00000000
00000000
,
00000000
00000000
00000000
00000000
,
00000000
00000000
00000000
00000000
,
00000000
00000000
00000000
00000000
,
00000000
00000000
00000000
00000000
,
00000000
00000000
00000000
00000000
,
00000000
00000000
00000000
00000000
,
00000000
00000000
00000000
00000000
,
00000000
00000000
00000000
00000000
,
00000000
00000000
00000000
00000000
,
00000000
00000000
00000000
00000000
,
00000000
00000000
00000000
00101000
,
00011000
00000000
00010010
00000000
00000010
00000100
00000000
00000000
,
00000000
00000000
00000001
00000100
00000010
00001000
00000100
00000010
,
00001000
00010000
00000100
00000010
00000001
00000100
00001000
00000100
,
00000010
00000001
00000010
00001000
00000100
00000010
00001000
00010000
,
01000000
00100000
00001000
00010000
00100000
00010000
00001000
00100000
,
00010000
01000000
10000000
01000000
00100000
10000000
01000000
00100000
,
10000000
00100000
00010000
01000000
00100000
00010000
00001000
00010000
,
00000010
00000100
00001000
00000100
00000001
00000100
00000010
00010000
,
00001000
00000000
00000010
00000000
00001000
00000000
00010000
00000000
00000010
00000000
00000100
00000000
00000001
00000100
00000001
00000100
,
00000001
00000100
00000001
00000100
00000001
00000000
00000000
00000000
00000000
00000000
00000000
00000000
00000000
00000000
00000000
00000000
;

//---------------bm-single5 - ----------------
#NOTES:
     bm-single5:
     :
     Beginner:
     1:
     0.189120,0.356228,0.190253,0.000000,0.023782,334.000000,283.000000,48.000000,0.000000,0.000000,3.000000,0.189120,0.356228,0.190253,0.000000,0.023782,334.000000,283.000000,48.000000,0.000000,0.000000,3.000000:
010010
000000
100100
000000
,
010100
000000
101000
000000
,
010100
000000
101000
000000
,
010100
000000
001010
000000
,
000000
000000
000000
000000
,
000000
000000
000000
000000
,
000000
000000
000000
000000
,
000000
000000
000000
000000
,
000000
000000
000000
000000
,
000000
000000
000000
000000
,
000000
000000
000000
000000
,
000000
000000
000000
000000
,
000000
000000
000000
000000
,
000000
000000
000000
000000
,
000000
000000
000000
000000
,
000000
000000
000000
000000
,
000000
000000
000000
000000
,
000000
000000
000000
000000
,
000000
000000
000000
000000
,
000000
000000
000000
000000
,
000000
000000
000000
000000
,
000000
000000
000000
000000
,
000000
000000
000000
000000
,
000000
000000
000000
000000
,
000000
000000
000000
000000
,
000000
000000
000000
000000
,
000000
000000
000000
000000
,
000000
000000
000000
000000
,
100101
010010
100100
010100
,
001010
010100
010010
100100
,
100101
010010
100100
010100
,
001010
010100
010010
100100
,
010101
000000
000000
001000
,
000000
000000
000000
000000
,
100001
000000
000100
000100
000000
000000
000100
000100
,
000000
000000
000100
000100
000000
000000
000100
000100
,
000000
000000
000100
000100
000000
000000
000100
000100
,
000000
000000
000100
000100
000000
000000
000100
000100
,
100001
000000
000100
000100
000000
000000
000100
000100
,
000000
000000
000100
000100
000000
000000
000100
000100
,
000000
000000
000100
000100
000000
000000
000100
000100
,
000000
000000
000100
000100
000000
000000
000100
000100
,
100001
000000
000100
000100
000000
000000
000100
000100
,
000000
000000
000100
000100
000000
000000
000100
000100
,
100000
000000
000100
000100
000000
000000
000100
000100
,
000000
000000
000100
000100
000000
000000
000100
000100
,
100001
000000
000100
000100
000000
000000
000100
000100
,
100000
000000
000100
000100
000000
000000
000100
000100
,
100000
000000
000100
000100
100000
000000
100100
000100
,
100000
000000
100100
100100
000000
000000
000000
000000
,
100001
010000
001000
010000
100000
010000
001000
010000
,
100000
010000
001000
010000
100000
010000
001000
010000
,
100000
001000
000100
001000
100000
001000
000100
001000
,
000010
001000
010000
001000
000010
001000
010000
001000
,
000011
010000
100000
010000
000010
010000
100000
010000
,
000010
010000
100000
010000
000010
010000
100000
010000
,
000100
001000
010000
001000
000100
001000
010000
001000
,
100000
010000
000100
010000
100000
010000
000100
010000
,
100001
010000
001000
010000
100000
010000
001000
010000
,
100000
010000
001000
010000
100000
010000
001000
010000
,
100000
001000
000100
001000
100000
001000
000100
001000
,
000010
001000
010000
001000
000010
001000
010000
001000
,
000011
010000
100000
010000
000010
010000
100000
010000
,
000010
010000
100000
010000
000010
010000
100000
010000
,
000100
001000
010000
001000
000100
001000
010000
001000
,
100000
010000
000100
010000
100000
010000
000100
010000
,
000000
000000
000000
000000
,
000000
000000
000000
000000
,
000000
000000
000000
000000
,
000000
000000
000000
000000
,
000000
000000
000000
000000
,
000000
000000
000000
000000
,
000000
000000
000000
000000
,
000000
000000
000000
000000
,
000000
000000
000000
000000
,
000000
000000
000000
000000
,
000000
000000
000000
000000
,
000000
000000
000000
000000
,
000000
000000
000000
000000
,
000000
000000
000000
000000
,
000000
000000
000000
000000
,
000000
000000
000000
000000
,
100001
000000
100000
000000
000000
000000
100001
000000
000000
000000
000000
000000
001000
000100
001000
000100
,
100001
000000
100000
000000
000000
000000
100001
000000
000000
000000
000000
000000
001000
000100
001000
000100
,
100001
000000
100000
000000
000000
000000
100001
000000
000000
000000
000000
000000
001000
000100
001000
000100
,
010000
000100
001000
010000
100000
000100
001000
010000
,
100001
000000
100000
000000
000000
000000
100001
000000
000000
000000
000000
000000
001000
000100
001000
000100
,
100001
000000
100000
000000
000000
000000
100001
000000
000000
000000
000000
000000
001000
000100
001000
000100
,
100001
000000
100000
000000
000000
000000
100001
000000
000000
000000
000000
000000
001000
000100
001000
000100
,
010000
000100
001000
010000
100000
000100
001000
010000
;

//---------------dance-single - Only a FEW slaps in the face----------------
#NOTES:
     dance-single:
     Riakodoadm:
     Medium:
     14:
     0.584914,0.775874,0.432032,0.550940,0.013873,1033.000000,924.000000,109.000000,139.000000,0.000000,0.000000,0.584914,0.775874,0.432032,0.550940,0.013873,1033.000000,924.000000,109.000000,139.000000,0.000000,0.000000:
// measure 0
0000
0000
0000
0000
,  // measure 1
0000
0000
0000
0000
,  // measure 2
2200
0000
0000
0000
0000
0000
0000
3300
0202
0000
0000
0000
0000
0000
0000
0303
,  // measure 3
0022
0000
0000
0000
0000
0000
0000
0033
2020
0000
0000
0000
0000
0000
0000
0000
,  // measure 4
0000
0000
0000
0000
0000
3030
0000
0000
0000
1000
0000
0000
0000
0000
0000
0100
0000
0000
0000
0000
0000
0001
0000
0000
,  // measure 5
0000
0010
0000
1000
0000
0100
0000
0001
,  // measure 6
0000
0010
0000
1000
0000
0010
0000
0100
,  // measure 7
0000
0001
0000
0100
0000
1000
0000
0001
,  // measure 8
0000
0010
0000
1000
0000
0001
0000
0010
,  // measure 9
0000
1000
0000
0001
0000
0100
0000
1000
,  // measure 10
0000
0100
0000
0001
0000
0100
0000
1000
,  // measure 11
0000
0010
0000
0001
0000
0100
0000
1000
,  // measure 12
0000
0010
0000
0001
0000
0010
0000
0100
,  // measure 13
0000
1000
0000
0100
0000
0001
0000
1000
,  // measure 14
0000
0010
0000
0001
0000
1000
0000
0010
,  // measure 15
0000
0001
0000
1000
0000
0100
0000
0001
,  // measure 16
0000
1000
1100
0000
1100
0000
1000
0001
,  // measure 17
0101
0000
0101
0000
0001
1000
1100
0000
,  // measure 18
1100
0000
0100
0010
0001
0010
0100
1000
,  // measure 19
0100
1000
1010
0000
1010
0000
1000
0001
,  // measure 20
0011
0000
0011
0000
0001
1000
1010
0000
,  // measure 21
1010
0000
0010
0100
1000
0100
0010
1000
,  // measure 22
0001
0100
0101
0000
0101
0000
0001
1000
,  // measure 23
1100
0000
1100
0000
1000
0001
0101
0000
,  // measure 24
0101
0000
0100
0010
1000
0010
0100
0001
,  // measure 25
0100
0001
0011
0000
0011
0000
0001
1000
,  // measure 26
1010
0000
1010
0000
1000
0001
0011
0000
,  // measure 27
0011
0000
0010
0100
0001
0100
0010
0100
,  // measure 28
1000
0000
0100
0000
2200
0000
0000
0300
0002
0000
0000
0003
0200
0000
0000
0300
,  // measure 29
0020
0000
0000
3030
2020
0000
0000
3000
0002
0000
0000
0003
0200
0000
0000
0300
,  // measure 30
2000
0000
0000
3030
0202
0000
0000
0300
2000
0000
0000
3000
0200
0000
0000
0300
,  // measure 31
0020
0000
0000
0033
0022
0000
0000
0003
2000
0000
0000
3000
0200
0000
0000
0300
,  // measure 32
0002
0000
0000
0033
2002
0000
0000
0000
0000
0000
0000
0000
0000
0000
0000
0000
,  // measure 33
0000
0000
0000
0000
,  // measure 34
0000
0000
0000
3003
1010
0000
0000
0000
1000
0000
0100
0000
0000
0000
0000
0000
,  // measure 35
0100
0010
0000
0000
0010
0001
0000
0000
,  // measure 36
0001
0100
0000
0000
0100
0010
0000
0000
,  // measure 37
0010
0001
0000
0000
0001
0010
0000
0000
,  // measure 38
0010
1000
0010
0000
0100
0001
0000
0000
,  // measure 39
0001
0010
0000
0000
0010
1000
0000
0000
,  // measure 40
1000
0010
0000
0000
0010
0100
0000
0000
,  // measure 41
0100
1000
0000
0000
1000
0010
0000
0000
,  // measure 42
0010
0100
0010
0000
1000
0100
0000
0000
,  // measure 43
0001
0100
0000
0000
1000
0010
0000
0000
,  // measure 44
0100
0010
0100
0000
0001
0100
0000
0000
,  // measure 45
1000
0100
0000
0000
0001
0010
0000
0000
,  // measure 46
0100
0010
0100
0000
1000
0010
0000
0000
,  // measure 47
0100
0010
0100
0000
0001
0010
0000
0000
,  // measure 48
0100
0010
0100
0000
0010
0100
0010
0000
,  // measure 49
0011
0000
1001
0000
1000
0010
0000
0000
,  // measure 50
0000
1000
0001
0100
,  // measure 51
0101
0001
1000
0010
,  // measure 52
1010
1000
0001
0100
,  // measure 53
0101
0001
0010
1000
,  // measure 54
0010
0100
0010
0000
0001
0000
0100
0000
,  // measure 55
0101
0001
0010
0100
,  // measure 56
1100
0000
1000
0000
0010
0000
0100
0010
,  // measure 57
0100
0000
0010
1000
0001
0100
0010
1000
,  // measure 58
0100
0010
0001
0000
1000
0000
0100
0000
,  // measure 59
1100
1000
0001
0010
,  // measure 60
0011
0001
1000
0100
,  // measure 61
1100
1000
0010
0001
,  // measure 62
0010
0100
0010
0000
1000
0000
0100
0000
,  // measure 63
1100
1000
0010
0100
,  // measure 64
0101
0000
0001
0000
0010
0000
0100
0010
,  // measure 65
0100
0000
0010
0001
1000
0100
0010
0001
,  // measure 66
0100
0010
1000
0000
0001
0000
0100
0010
,  // measure 67
0100
0010
1000
0001
,  // measure 68
0010
0001
0010
0000
0100
0000
1000
0100
,  // measure 69
1000
0100
0010
0001
,  // measure 70
0010
0100
1000
0000
0001
0000
0010
0100
,  // measure 71
0010
0000
0100
0000
0010
0000
0001
0100
,  // measure 72
0001
0000
0100
0000
0010
0000
1000
0010
,  // measure 73
1000
0000
0001
0100
0001
0010
0100
1000
,  // measure 74
0001
0010
0001
0000
1000
0000
0100
0010
,  // measure 75
0100
0000
0010
0000
0001
0000
1000
0010
,  // measure 76
1000
0000
0010
0000
0100
0000
0001
0100
,  // measure 77
0001
0100
0010
1000
,  // measure 78
0010
0100
0001
0000
1000
0000
0010
0100
,  // measure 79
0010
0000
0100
0000
0010
0000
1000
0100
,  // measure 80
1000
0000
0100
0000
0010
0000
0001
0010
,  // measure 81
0001
0000
1000
0100
1000
0010
0100
0001
,  // measure 82
1000
0000
0001
1000
0010
0000
1000
0000
0000
0000
1100
0000
0000
0000
0000
0000
,  // measure 83
0200
0000
0310
0001
0000
0101
0000
0000
,  // measure 84
0200
0000
0310
1000
0000
1100
0000
0000
,  // measure 85
0200
0320
0000
0000
,  // measure 86
0000
0030
0010
0001
0000
0101
0000
0000
,  // measure 87
0200
0000
0310
1000
0000
1100
0000
0000
,  // measure 88
0200
0000
0310
0001
0000
0101
0000
0000
,  // measure 89
0200
0320
0000
0000
,  // measure 90
0000
0000
1030
0100
0000
1000
0100
0000
,  // measure 91
0110
0000
0010
0001
0000
0010
0001
0000
,  // measure 92
0101
0000
0100
0001
0000
0100
0001
0000
,  // measure 93
1001
0000
1000
0010
0000
1000
0010
0000
,  // measure 94
0100
0001
0100
0001
0100
0000
0010
1000
,  // measure 95
0010
0000
1000
0001
0010
0000
0001
1000
,  // measure 96
0010
0000
0100
0010
1000
0001
0100
0010
,  // measure 97
1000
0001
0010
0100
1000
0001
0010
0100
,  // measure 98
1000
0010
0200
0000
0000
0000
0000
0000
,  // measure 99
0000
0000
0000
0000
,  // measure 100
0300
0000
0102
0000
0203
0000
0301
0100
,  // measure 101
0002
0000
0203
0000
0301
1000
0002
0000
,  // measure 102
0203
0000
0310
0100
0010
1000
0010
0100
,  // measure 103
0010
1000
0200
0000
0320
0000
0130
0001
,  // measure 104
0200
0000
0320
0000
0130
1000
0200
0000
,  // measure 105
0320
0000
1030
0010
0100
0010
0001
1000
,  // measure 106
0010
1000
2100
0000
3200
0000
1300
0100
,  // measure 107
2000
0000
3200
0000
1300
0001
2000
0000
,  // measure 108
3200
0000
0310
0100
0010
0001
0010
0100
,  // measure 109
0010
0001
0200
0000
0320
0000
0130
1000
,  // measure 110
0200
0000
0320
0000
0130
0001
0200
0000
,  // measure 111
0320
0000
0031
0010
0100
0010
1000
0001
,  // measure 112
0010
0001
0100
0010
2000
0000
3000
0000
2020
0000
3030
0000
0010
0000
0100
0000
,  // measure 113
0202
0303
2002
3003
1000
0100
0202
0303
,  // measure 114
0220
0330
0010
0100
1000
0010
1000
0001
,  // measure 115
0100
0001
0022
0033
0220
0330
0100
1000
,  // measure 116
2020
3030
0220
0330
0100
0001
0022
0033
,  // measure 117
2200
3300
0100
0001
0100
1000
0100
0010
,  // measure 118
0001
1000
2200
3300
0022
0033
0010
0100
,  // measure 119
2200
3300
2002
3003
0001
0100
2200
3300
,  // measure 120
0220
0330
0010
0100
0001
0010
0001
1000
,  // measure 121
0100
1000
2020
3030
0220
0330
0100
0001
,  // measure 122
0022
0033
0220
0330
0100
1000
2020
3030
,  // measure 123
0202
0000
0303
0000
0100
0000
1000
0000
0100
0000
0010
0100
0001
0000
0010
0100
,  // measure 124
1000
0000
0001
0010
0200
0000
0000
0000
0000
0000
0000
0000
0000
0000
0000
0000
,  // measure 125
0000
0000
0000
0000
,  // measure 126
0300
0202
0000
0000
,  // measure 127
0000
0000
0000
0000
,  // measure 128
0303
0022
0000
0000
,  // measure 129
0000
0000
0000
0000
,  // measure 130
0033
2020
0000
0000
,  // measure 131
0000
0000
0000
0000
,  // measure 132
3030
0102
0000
0000
,  // measure 133
0000
1000
0000
1000
,  // measure 134
1003
2200
0000
0000
,  // measure 135
0000
0000
0000
0000
,  // measure 136
3300
0012
0000
0000
,  // measure 137
0000
1000
0000
0000
,  // measure 138
0003
0000
2010
0000
0000
3000
1001
0000
,  // measure 139
1100
0000
0101
0000
0001
1000
0000
0000
,  // measure 140
0000
0001
0100
0010
,  // measure 141
1010
1000
0100
0010
,  // measure 142
0011
0001
0010
0100
,  // measure 143
1100
0000
1000
0010
0100
0001
1000
0100
,  // measure 144
0010
0001
0010
0000
0100
0000
1000
0000
,  // measure 145
1100
0100
1000
0010
,  // measure 146
0110
0000
0100
0000
0001
0000
0010
0001
,  // measure 147
0010
0001
0010
0100
1000
0100
0010
0001
,  // measure 148
0100
0010
1000
0000
0100
0000
0010
0000
,  // measure 149
0011
0001
0100
0010
,  // measure 150
1010
1000
0010
0100
,  // measure 151
0101
0000
0001
0010
0100
1000
0001
0100
,  // measure 152
0010
1000
0010
0000
0100
0000
0001
0000
,  // measure 153
0101
0100
0001
0010
,  // measure 154
0110
0000
0100
0000
1000
0000
0010
1000
,  // measure 155
0010
0000
1000
0001
0000
1001
0000
0000
,  // measure 156
0000
0000
1000
0000
0001
0000
0100
0010
,  // measure 157
0100
0000
0010
0000
1000
0000
0001
0010
,  // measure 158
0001
0000
0010
0000
0100
0000
1000
0100
,  // measure 159
1000
0000
0100
0010
0001
1000
0100
0010
,  // measure 160
0001
1000
0100
0000
1000
0000
0010
0100
,  // measure 161
0010
0000
0100
0000
0010
0000
1000
0100
,  // measure 162
1000
0000
0100
0000
0010
0000
0001
0010
,  // measure 163
0001
0000
1000
0100
1000
0001
0010
0100
,  // measure 164
1000
0000
0010
1000
0001
0000
0000
0000
1000
0000
0000
0000
0100
0000
0010
0000
,  // measure 165
0100
0000
0010
0000
0001
0000
1000
0010
,  // measure 166
1000
0000
0010
0000
0100
0000
0001
0100
,  // measure 167
0001
0000
0100
0010
1000
0001
0100
0010
,  // measure 168
1000
0001
0100
0000
0001
0000
0010
0100
,  // measure 169
0010
0000
0100
0000
0010
0000
0001
0100
,  // measure 170
0001
0000
0100
0000
0010
0000
1000
0010
,  // measure 171
1000
0000
0001
0100
0001
1000
0010
0100
,  // measure 172
0001
0010
0001
1000
0001
0010
0001
1000
,  // measure 173
0010
0000
0100
0001
1000
0001
0100
0001
,  // measure 174
1000
0000
0100
1000
0001
1000
0100
1000
,  // measure 175
0001
0000
1000
0010
1000
0001
1000
0010
,  // measure 176
1000
0000
0001
0010
0100
0010
0001
1000
,  // measure 177
0001
0000
1000
0100
0010
0100
1000
0001
,  // measure 178
1000
0000
0001
1000
0010
0100
0001
1000
,  // measure 179
0010
0000
1000
0001
0010
0100
1000
0001
,  // measure 180
0010
0000
0001
0100
0001
0100
0010
1000
,  // measure 181
0010
1000
0001
0010
0001
0010
0100
1000
,  // measure 182
0100
1000
0100
0010
0100
0010
0001
0010
,  // measure 183
0001
0010
0100
1000
0100
1000
0010
1000
,  // measure 184
0010
1000
0010
0001
0010
0001
0010
0100
,  // measure 185
0010
0100
1000
0100
1000
0100
0001
0100
,  // measure 186
0001
0100
0001
0100
0010
1000
0001
0010
,  // measure 187
0100
1000
0010
0100
0001
0010
0100
1000
,  // measure 188
0010
0100
0001
0010
0100
1000
0010
0100
,  // measure 189
0001
0010
0200
0000
0000
0000
0000
0000
,  // measure 190
0000
0000
0000
0000
,  // measure 191
0000
0000
0300
0000
2200
0000
0000
0000
0000
0000
0000
3300
0202
0000
0000
0000
,  // measure 192
0000
0000
0000
0303
0022
0000
0000
0000
0000
0000
0000
0033
2020
0000
0000
0000
,  // measure 193
0000
0000
0000
0000
0000
0000
0000
0000
0000
0000
3030
0000
2200
0000
0000
0000
0000
0000
0000
0000
0000
0000
0000
0000
0000
0000
0000
0000
0000
0000
0000
0000
0000
3300
0000
0000
0202
0000
0000
0000
0000
0000
0000
0000
0000
0000
0000
0000
,  // measure 194
0000
0000
0000
0303
0022
0000
0000
0000
0000
0000
0000
0033
2020
0000
0000
0000
,  // measure 195
0000
0000
0000
3030
;

//---------------dance-single - ----------------
#NOTES:
     dance-single:
     Riakodoadm:
     Easy:
     11:
     0.426936,0.620700,0.281415,0.317088,0.000000,754.000000,683.000000,71.000000,80.000000,0.000000,0.000000,0.426936,0.620700,0.281415,0.317088,0.000000,754.000000,683.000000,71.000000,80.000000,0.000000,0.000000:
// measure 0
0000
0000
0000
0000
,  // measure 1
0000
0000
0000
0000
,  // measure 2
2200
0000
0000
0000
0000
0000
0000
3300
0202
0000
0000
0000
0000
0000
0000
0303
,  // measure 3
0022
0000
0000
0000
0000
0000
0000
0033
2020
0000
0000
0000
0000
0000
0000
0000
,  // measure 4
0000
0000
0000
0000
0000
3030
1001
0000
0000
0000
0000
0000
0100
0000
0000
0000
0000
0000
0001
0000
0000
0000
0000
0000
,  // measure 5
0010
1000
0100
0001
,  // measure 6
0010
1000
0010
0100
,  // measure 7
0001
0110
1000
0001
,  // measure 8
0010
1000
0001
0010
,  // measure 9
1000
0001
0100
1000
,  // measure 10
0100
1001
0100
1000
,  // measure 11
0010
0001
0100
1000
,  // measure 12
0010
0001
0010
0100
,  // measure 13
1000
0110
0001
1000
,  // measure 14
0010
0001
1000
0010
,  // measure 15
0001
1000
0100
0001
,  // measure 16
1000
0001
0100
0110
,  // measure 17
0001
0100
0110
0001
,  // measure 18
0100
0110
0001
0100
,  // measure 19
0010
1000
0100
0000
1000
0000
1010
0000
,  // measure 20
0100
1000
1010
0100
,  // measure 21
1000
1010
0100
1000
,  // measure 22
0010
0100
0001
0000
0010
0000
0110
0000
,  // measure 23
0001
0010
0110
0001
,  // measure 24
0010
0110
0001
0010
,  // measure 25
0100
1000
0010
0000
1000
0000
1100
0000
,  // measure 26
0010
1000
1100
0010
,  // measure 27
1000
1100
0010
1000
,  // measure 28
0100
0010
0002
0000
0200
0300
2000
3000
,  // measure 29
0020
0033
2000
0000
0020
0030
0002
0003
,  // measure 30
0200
3300
0002
0000
0020
0030
2000
3000
,  // measure 31
0200
0303
2000
0000
0200
0300
0002
0003
,  // measure 32
0020
3030
0220
0000
0000
0000
0000
0000
,  // measure 33
0000
0000
0000
0000
,  // measure 34
0000
0000
0000
0330
0002
0000
0000
0000
0100
0000
0000
0000
0000
0000
0000
0000
,  // measure 35
0100
0000
1000
0000
,  // measure 36
1003
0200
0010
0000
,  // measure 37
0010
0000
1000
0000
,  // measure 38
1300
0002
0100
0000
,  // measure 39
0100
0000
1000
0000
,  // measure 40
1003
0020
0100
0000
,  // measure 41
0100
0000
1000
0000
,  // measure 42
1030
2000
0100
0000
,  // measure 43
0100
0000
0001
0000
,  // measure 44
3001
0200
0010
0000
,  // measure 45
0010
0000
0001
0000
,  // measure 46
0301
2000
0100
0000
,  // measure 47
0100
0000
0001
0000
,  // measure 48
3001
0020
0130
0010
,  // measure 49
0100
0000
1000
0000
0001
1000
0000
0000
,  // measure 50
0000
1000
0001
0100
,  // measure 51
0001
1000
0001
0100
,  // measure 52
0001
1000
0010
0100
,  // measure 53
0001
1000
0100
0010
,  // measure 54
0001
0010
0100
0010
,  // measure 55
0001
1000
0010
0100
,  // measure 56
0010
1000
0010
0100
,  // measure 57
0001
0100
1000
0100
,  // measure 58
0001
1000
0001
0000
1000
0000
0100
0000
,  // measure 59
1000
0001
1000
0100
,  // measure 60
1000
0001
0010
0100
,  // measure 61
1000
0001
0100
0010
,  // measure 62
1000
0010
0100
0010
,  // measure 63
1000
0001
0010
0100
,  // measure 64
0010
0001
0010
0100
,  // measure 65
1000
0100
0001
0100
,  // measure 66
1000
0001
1000
0000
0100
0000
0010
0000
,  // measure 67
0100
1000
0001
0100
,  // measure 68
0001
1000
0100
0001
,  // measure 69
0100
1000
0010
0100
,  // measure 70
0001
1000
0010
0001
,  // measure 71
0010
1000
0010
0100
,  // measure 72
0001
0100
1000
0100
,  // measure 73
0001
0010
0100
1000
,  // measure 74
0100
0010
0001
0000
0100
0000
0010
0000
,  // measure 75
0100
0001
1000
0100
,  // measure 76
1000
0001
0100
1000
,  // measure 77
0100
0001
0010
0100
,  // measure 78
1000
0001
0010
1000
,  // measure 79
0010
0001
0010
0100
,  // measure 80
1000
0100
0001
0100
,  // measure 81
1000
0010
0100
0001
,  // measure 82
0100
0010
1000
0000
0000
2002
0000
3003
,  // measure 83
0000
0000
0001
0000
0000
2002
0000
3003
,  // measure 84
0000
0000
1000
0000
0000
2002
0000
3003
,  // measure 85
0000
0020
0000
0000
,  // measure 86
0030
0000
0001
1000
0000
2002
0000
3003
,  // measure 87
0000
0000
1000
0001
0000
2002
0000
3003
,  // measure 88
0000
0000
0001
1000
0000
2002
0000
3003
,  // measure 89
0000
0200
0000
0000
,  // measure 90
0300
2001
0000
3100
,  // measure 91
0000
1002
0000
0103
,  // measure 92
0000
2001
0000
3010
,  // measure 93
0000
1002
0000
0023
,  // measure 94
0030
0001
0010
0001
,  // measure 95
0010
0100
1000
0100
,  // measure 96
1000
0010
0100
0001
,  // measure 97
0010
0000
0001
1000
0001
1000
0001
1000
,  // measure 98
0001
1000
0002
0000
0000
0000
0000
0000
,  // measure 99
0000
0000
0000
0000
,  // measure 100
0003
0001
0100
0110
,  // measure 101
0001
0100
0110
0001
,  // measure 102
0100
0110
0001
0100
,  // measure 103
0010
1000
0001
0000
0010
0000
1100
0000
,  // measure 104
0001
0010
1100
0001
,  // measure 105
0010
1100
0001
0010
,  // measure 106
0100
1000
0010
0000
1000
0000
1100
0000
,  // measure 107
0010
1000
1100
0010
,  // measure 108
1000
1100
0010
1000
,  // measure 109
0100
0010
0001
0000
0100
0000
1010
0000
,  // measure 110
0001
0100
1010
0001
,  // measure 111
0100
0000
1010
0000
0010
0100
0001
1000
,  // measure 112
0100
0010
0001
0000
0010
0000
1010
0000
,  // measure 113
0001
0010
1010
0001
,  // measure 114
0010
1010
0001
0010
,  // measure 115
0100
1000
0010
0000
0100
0000
1100
0000
,  // measure 116
0010
0100
1100
0010
,  // measure 117
0100
1100
0010
0100
,  // measure 118
0001
0010
0100
0000
1000
0000
0101
0000
,  // measure 119
0100
1000
0101
0100
,  // measure 120
1000
0101
0100
1000
,  // measure 121
0001
1000
0010
0000
0100
0000
1000
0010
,  // measure 122
1000
0000
1001
0000
0001
0010
0001
0000
,  // measure 123
1001
0000
1000
0010
1000
0000
0001
0010
,  // measure 124
0001
0010
0012
0000
0000
0000
0000
0000
,  // measure 125
0000
0000
0000
0000
,  // measure 126
0003
0201
0000
0000
,  // measure 127
0000
0000
0000
0000
,  // measure 128
0300
2100
0000
0000
,  // measure 129
0000
0000
0000
0000
,  // measure 130
3000
1020
0000
0000
,  // measure 131
0000
0000
0000
0000
,  // measure 132
0030
0102
0000
0000
,  // measure 133
0000
1000
0000
1000
,  // measure 134
1003
2200
0000
0000
,  // measure 135
0000
0000
0000
0000
,  // measure 136
3300
0012
0000
0000
,  // measure 137
0000
1000
0000
0000
,  // measure 138
0003
0000
2010
0000
0000
3000
0010
0000
,  // measure 139
0100
0000
0001
0000
1000
0001
0000
0000
,  // measure 140
0000
1000
0001
0100
,  // measure 141
0001
1000
0001
0100
,  // measure 142
0010
1000
0010
0100
,  // measure 143
0001
1000
0100
0010
,  // measure 144
0001
0010
0100
0010
,  // measure 145
0001
1000
0010
0001
,  // measure 146
0010
1000
0010
0100
,  // measure 147
0001
0100
1000
0100
,  // measure 148
0001
1000
0001
0000
1000
0000
0100
0000
,  // measure 149
1000
0001
1000
0100
,  // measure 150
0010
0001
0010
0100
,  // measure 151
1000
0001
0100
0010
,  // measure 152
1000
0010
0100
0010
,  // measure 153
1000
0001
0010
1000
,  // measure 154
0010
0001
0010
0100
,  // measure 155
1000
0000
0100
0010
0000
0110
0000
0000
,  // measure 156
0000
1000
0100
0001
,  // measure 157
0100
1000
0001
0010
,  // measure 158
0001
1000
0100
0001
,  // measure 159
0100
1000
0010
0100
,  // measure 160
0001
1000
0010
0001
,  // measure 161
0010
1000
0010
0100
,  // measure 162
1000
0100
0001
0010
,  // measure 163
0100
0001
0100
1000
,  // measure 164
0100
0010
0001
0000
0100
0000
1000
0000
,  // measure 165
0100
0001
1000
0010
,  // measure 166
1000
0001
0100
1000
,  // measure 167
0100
0001
0010
0100
,  // measure 168
1000
0001
0010
1000
,  // measure 169
0010
0001
0010
0100
,  // measure 170
0001
0100
1000
0010
,  // measure 171
0100
1000
0100
0001
,  // measure 172
0100
0010
1000
0000
0010
0000
0001
0000
,  // measure 173
0010
1000
0010
0001
,  // measure 174
0010
1000
0100
0001
,  // measure 175
0100
1000
0100
0001
,  // measure 176
0100
0010
0001
0000
0100
0000
1000
0000
,  // measure 177
0100
0001
0100
1000
,  // measure 178
0100
0001
0010
1000
,  // measure 179
0010
0001
0010
1000
,  // measure 180
0010
0100
1000
0000
0010
0000
0001
0000
,  // measure 181
1000
0100
0001
1000
,  // measure 182
0001
1000
0001
0000
0010
0000
1000
0000
,  // measure 183
0001
0100
1000
0001
,  // measure 184
1000
0001
1000
0000
0010
0000
0001
0000
,  // measure 185
1000
0100
0001
0010
,  // measure 186
1000
0001
0100
1000
,  // measure 187
0010
0001
1000
0100
,  // measure 188
0001
0000
0010
0100
0010
0100
0010
0100
,  // measure 189
0010
0100
0020
0000
0000
0000
0000
0000
,  // measure 190
0000
0000
0000
0000
,  // measure 191
0030
0000
0000
0000
2200
0000
0000
0000
0000
0000
0000
3300
0202
0000
0000
0000
,  // measure 192
0000
0000
0000
0303
0022
0000
0000
0000
0000
0000
0000
0033
2020
0000
0000
0000
,  // measure 193
0000
0000
0000
0000
0000
0000
0000
0000
0000
0000
3030
0000
2200
0000
0000
0000
0000
0000
0000
0000
0000
0000
0000
0000
0000
0000
0000
0000
0000
0000
0000
0000
0000
3300
0000
0000
0202
0000
0000
0000
0000
0000
0000
0000
0000
0000
0000
0000
,  // measure 194
0000
0000
0000
0303
0022
0000
0000
0000
0000
0000
0000
0033
2020
0000
0000
0000
,  // measure 195
0000
0000
0000
3030
;
