#VERSION:0.83;
#TITLE:Stuck On Replay;
#SUBTITLE:;
#ARTIST:Scooter;
#TITLETRANSLIT:;
#SUBTITLETRANSLIT:;
#ARTISTTRANSLIT:;
#GENRE:JUMPSTYLE;
#ORIGIN:;
#CREDIT:Under The Radar Over The Top (2009);
#BANNER:Stuck On Replay.png;
#BACKGROUND:Stuck On Replay-bg.png;
#PREVIEWVID:;
#JACKET:Stuck On Replay-jacket.png;
#CDIMAGE:;
#DISCIMAGE:;
#LYRICSPATH:Stuck On Replay.lrc;
#CDTITLE:;
#MUSIC:Stuck On Replay.ogg;
#OFFSET:-3.205000;
#SAMPLESTART:28.805000;
#SAMPLELENGTH:15.000000;
#SELECTABLE:YES;
#BPMS:0.000=150.000;
#STOPS:;
#DELAYS:;
#WARPS:;
#TIMESIGNATURES:0.000=4=4;
#TICKCOUNTS:0.000=4;
#COMBOS:0.000=1;
#SPEEDS:0.000=1.000=0.000=0;
#SCROLLS:0.000=1.000;
#FAKES:;
#LABELS:0.000=Song Start;
#BGCHANGES:;
#KEYSOUNDS:;
#ATTACKS:
;

//---------------dance-single - ----------------
#NOTEDATA:;
#CHARTNAME:Basic;
#STEPSTYPE:dance-single;
#DESCRIPTION:;
#CHARTSTYLE:;
#DIFFICULTY:Easy;
#METER:4;
#RADARVALUES:0.223517,0.384635,0.072213,0.088261,0.000000,195.000000,186.000000,9.000000,11.000000,0.000000,0.000000,0.000000,0.000000,0.000000,0.223517,0.384635,0.072213,0.088261,0.000000,195.000000,186.000000,9.000000,11.000000,0.000000,0.000000,0.000000,0.000000,0.000000;
#CREDIT:Riakodoadm;
#NOTES:
// measure 0
0000
0000
0000
0000
,  // measure 1
0000
0000
0000
0000
,  // measure 2
0000
0000
0000
0000
,  // measure 3
2000
0000
0000
0000
,  // measure 4
0002
0000
3003
0000
,  // measure 5
0000
0000
0000
0000
,  // measure 6
1000
0001
1000
0001
,  // measure 7
1000
0001
1000
0001
,  // measure 8
0010
0001
0100
0001
,  // measure 9
0010
0010
0010
0000
,  // measure 10
1000
1000
0100
0000
,  // measure 11
0001
0001
0100
0000
,  // measure 12
0010
1000
0100
1000
,  // measure 13
0010
0010
0010
0000
,  // measure 14
1000
0100
0001
0000
,  // measure 15
0001
0100
1000
0000
,  // measure 16
0010
1001
0100
1001
,  // measure 17
0010
1000
0100
0001
,  // measure 18
0010
0010
0010
0000
,  // measure 19
0100
0100
0100
0000
,  // measure 20
0010
1001
0100
1001
,  // measure 21
0010
0001
0100
1000
,  // measure 22
0010
0010
0010
0000
,  // measure 23
0100
0100
0100
0000
,  // measure 24
1001
0000
0100
0000
,  // measure 25
0100
0000
0100
0000
,  // measure 26
0010
0000
0010
0000
,  // measure 27
0001
0000
1000
0000
,  // measure 28
0100
0000
0000
0000
,  // measure 29
0020
0000
0000
0000
,  // measure 30
0200
0000
0330
0000
,  // measure 31
0100
0000
0010
0000
,  // measure 32
0100
0000
0010
0000
,  // measure 33
0100
0000
0100
0000
,  // measure 34
1000
0000
0001
0000
,  // measure 35
0100
0000
0010
0000
,  // measure 36
1000
0000
0000
0000
,  // measure 37
0002
0000
0000
0000
,  // measure 38
2000
0000
3003
0000
,  // measure 39
1000
0000
0001
0000
,  // measure 40
0200
0000
0000
0300
,  // measure 41
1000
0000
0001
0000
,  // measure 42
1000
0000
0001
0000
,  // measure 43
0010
0000
0100
0000
,  // measure 44
0010
0010
0010
0000
,  // measure 45
0001
0000
1000
0000
,  // measure 46
0001
0000
1000
0000
,  // measure 47
0010
0000
0100
0000
,  // measure 48
0010
0010
0010
0000
,  // measure 49
1000
0001
1000
0001
,  // measure 50
1000
0100
0001
0100
,  // measure 51
1000
0010
0001
0100
,  // measure 52
0010
0010
0100
1000
,  // measure 53
0001
1000
0001
1000
,  // measure 54
0001
0010
1000
0010
,  // measure 55
1000
0100
0001
0010
,  // measure 56
0110
0110
1001
1001
,  // measure 57
0001
1000
0001
1000
,  // measure 58
0001
0100
1000
0010
,  // measure 59
0001
0010
1000
0010
,  // measure 60
0100
0100
0010
0001
,  // measure 61
1000
0001
1000
0001
,  // measure 62
1000
0010
0001
0010
,  // measure 63
0001
0100
1000
0010
,  // measure 64
0200
0000
0010
0310
,  // measure 65
1000
0000
0100
0000
,  // measure 66
1000
0000
0100
0000
,  // measure 67
0001
0000
0100
0000
,  // measure 68
0001
0000
0100
0000
,  // measure 69
0010
0000
0000
0000
,  // measure 70
0200
0000
0000
0000
,  // measure 71
0020
0000
0330
0000
,  // measure 72
0010
0000
0001
0000
,  // measure 73
0200
0000
0000
0300
;

//---------------dance-single - ----------------
#NOTEDATA:;
#CHARTNAME:Challenge;
#STEPSTYPE:dance-single;
#DESCRIPTION:;
#CHARTSTYLE:;
#DIFFICULTY:Challenge;
#METER:13;
#RADARVALUES:0.601776,0.769271,0.561658,0.232687,0.810392,525.000000,455.000000,70.000000,29.000000,11.000000,0.000000,8.000000,0.000000,0.000000,0.601776,0.769271,0.561658,0.232687,0.810392,525.000000,455.000000,70.000000,29.000000,11.000000,0.000000,8.000000,0.000000,0.000000;
#CREDIT:Riakodoadm;
#NOTES:
// measure 0
0000
0000
0000
0000
,  // measure 1
0000
0000
0000
0000
,  // measure 2
0000
0000
0000
0000
0000
0000
0000
0000
1000
0002
0000
0200
,  // measure 3
0000
0000
0000
0000
0000
0000
0000
0300
0020
0000
0030
2000
,  // measure 4
0000
0000
0000
3003
,  // measure 5
0000
0000
0000
0100
0000
0100
0010
0000
0000
2000
0000
3001
,  // measure 6
1000
0000
0000
1100
0000
0000
0101
0000
0000
1000
0010
0100
,  // measure 7
0001
0000
0000
0011
0000
0000
1010
0000
0000
0002
0000
0100
,  // measure 8
0103
0000
0000
0010
0000
1000
0100
0000
0010
0004
0000
1003
,  // measure 9
0010
0000
0100
1000
0000
0100
0001
0000
0010
0400
0000
0300
,  // measure 10
1000
0000
1000
0100
0000
0100
0001
0000
0100
0040
0000
0030
,  // measure 11
0001
0000
0001
0100
0000
1010
0000
0000
0000
0040
0000
0030
,  // measure 12
1000
0000
0100
0001
0000
0100
0010
0000
0100
4000
0000
3000
,  // measure 13
0001
0000
0100
1000
0000
0100
0010
0000
0100
0004
0000
0003
,  // measure 14
0010
0000
1000
0010
0000
0010
0001
0000
0001
0400
0000
0300
,  // measure 15
0010
0000
0001
0010
0000
0010
4000
0000
3000
0001
0100
0010
,  // measure 16
1000
0000
0010
1000
0000
1000
0001
0000
0010
0001
0100
0010
,  // measure 17
1000
0000
1000
0001
0000
0001
0100
0000
0100
0010
1000
0100
,  // measure 18
1000
0000
1000
0001
0000
0001
0010
0000
0010
0001
0100
0010
,  // measure 19
0100
0000
0100
0010
0000
0010
1000
0000
1000
0001
0000
1000
,  // measure 20
0001
0000
0010
0001
0000
0001
1000
0000
0010
1000
0100
0010
,  // measure 21
0001
0000
0001
1000
0000
1000
0100
0000
0100
0010
0001
0100
,  // measure 22
0001
0000
0001
1000
0000
1000
0010
0000
0010
1000
0100
0010
,  // measure 23
0001
0000
0001
0010
0000
0010
0100
0000
0100
1000
0000
0001
,  // measure 24
0200
0000
0010
0010
0000
0001
0001
0000
0010
0010
0000
0001
,  // measure 25
0302
0000
1000
1000
0000
0100
0100
0000
1000
1000
0000
0010
,  // measure 26
0023
0000
0100
0100
0000
0001
0001
0000
1000
1000
0000
0100
,  // measure 27
0230
0000
1000
1000
0000
0001
0001
0000
1000
1000
0000
0010
,  // measure 28
0310
0000
0010
0001
0000
0001
1000
0000
0010
1000
0000
0001
,  // measure 29
MMM0
0000
0000
0000
0000
0000
0000
0000
MMMM
0000
0000
MMMM
,  // measure 30
0000
0010
0000
0010
,  // measure 31
0000
0001
0000
1000
,  // measure 32
0200
0000
0010
0010
0000
1000
1000
0000
0010
0010
0000
1000
,  // measure 33
2300
0000
0001
0001
0000
0100
0100
0000
0001
0001
0000
0010
,  // measure 34
3020
0000
0100
0100
0000
1000
1000
0000
0001
0001
0000
0100
,  // measure 35
0230
0000
0001
0001
0000
1000
1000
0000
0001
0001
0000
0010
,  // measure 36
0310
0000
0010
1000
0000
1000
0001
0000
0001
1000
0000
2000
,  // measure 37
0100
0000
0010
0010
0000
0001
0001
0000
3010
1000
0000
1000
,  // measure 38
0002
0000
0010
0010
0000
0100
0100
0000
1000
1000
0000
0010
,  // measure 39
0013
0000
0000
0100
0000
0100
0010
0000
0000
0002
0000
2000
,  // measure 40
0003
0000
0002
0000
0000
0000
0000
0000
0000
3003
0000
0000
,  // measure 41
1000
0000
0000
1000
0000
0000
1000
0000
1000
0001
0000
0100
,  // measure 42
0001
0000
0000
0001
0000
0100
0001
0000
0001
1000
0000
0100
,  // measure 43
1000
0000
0000
0010
0000
0000
0100
0000
0100
0001
0000
0001
,  // measure 44
0010
0000
0010
0100
0000
0100
1000
0000
1000
0001
0000
0100
,  // measure 45
0001
0000
0000
0001
0000
0000
0001
0000
0001
1000
0000
0000
,  // measure 46
1000
0000
0000
1000
0000
0100
1000
0000
1000
0001
0000
0100
,  // measure 47
0001
0000
0000
0010
0000
0010
0100
0000
0100
1000
0000
1000
,  // measure 48
0010
0000
0010
0100
0000
0100
0001
0000
0001
1000
0000
0000
,  // measure 49
0010
0000
0110
0110
0000
0000
1001
0000
1000
1010
0000
0000
,  // measure 50
0110
0000
0000
0110
0000
0100
0101
0000
0001
1001
0000
1000
,  // measure 51
1010
0000
0000
1010
0000
0000
0101
0000
0001
1001
0000
1000
,  // measure 52
1100
0000
0000
1100
0000
0100
0110
0000
1000
1001
0000
0000
,  // measure 53
1100
0011
1100
0011
0000
0000
1001
0000
0001
0011
0000
0000
,  // measure 54
0110
0000
0000
0110
0000
0100
1100
0000
1000
1001
0000
0001
,  // measure 55
0011
0000
0000
0011
0000
0100
1100
0000
1000
1001
0000
0001
,  // measure 56
0200
0000
0000
1300
0000
1000
0010
0000
0010
0001
0000
0000
,  // measure 57
0010
0000
0110
0110
0000
0000
1001
0000
0001
0101
0000
0000
,  // measure 58
0110
0000
0000
0110
0000
0001
1001
0000
1000
1100
0000
0100
,  // measure 59
0110
0000
0000
0101
0000
0000
1100
0000
0001
0101
0000
1000
,  // measure 60
1010
0000
0000
0011
0000
0010
0110
0000
1000
1001
0000
0000
,  // measure 61
0101
1010
0101
1010
0000
0000
1001
0000
1000
1100
0000
0000
,  // measure 62
0110
0000
0000
0110
0000
1000
1001
0000
0001
0101
0000
0100
,  // measure 63
0110
0000
0000
1100
0000
0000
0101
0000
1000
1100
0000
0001
,  // measure 64
0011
0000
0000
1010
0000
0010
0110
0000
0001
1001
0000
0000
,  // measure 65
2001
0000
0000
0010
0000
0000
0001
0000
0001
3000
0000
1000
,  // measure 66
0002
0000
0000
0010
0000
0000
0100
0000
0000
1003
0000
1000
,  // measure 67
0010
0000
0010
0001
0000
0001
0010
0000
0010
1000
0000
0100
,  // measure 68
0000
0000
0010
0001
0000
0100
0000
0000
0001
1000
0000
0100
,  // measure 69
0020
0000
0000
1000
0000
0000
0001
0000
0130
0010
0000
1000
,  // measure 70
0002
0000
0000
0100
0000
0000
1000
0000
2003
0000
0000
3020
,  // measure 71
1000
0001
1000
0001
,  // measure 72
0230
0000
0000
0010
0000
0010
0010
0000
0000
0001
0000
0002
,  // measure 73
0300
0000
2000
0000
0000
0000
0000
0000
0000
3003
0000
0000
;

//---------------dance-single - ----------------
#NOTEDATA:;
#CHARTNAME:Beginner;
#STEPSTYPE:dance-single;
#DESCRIPTION:;
#CHARTSTYLE:;
#DIFFICULTY:Beginner;
#METER:3;
#RADARVALUES:0.119209,0.263578,0.056166,0.000000,0.000000,104.000000,97.000000,7.000000,0.000000,0.000000,0.000000,0.000000,0.000000,0.000000,0.119209,0.263578,0.056166,0.000000,0.000000,104.000000,97.000000,7.000000,0.000000,0.000000,0.000000,0.000000,0.000000,0.000000;
#CREDIT:Riakodoadm;
#NOTES:
// measure 0
0000
0000
0000
0000
,  // measure 1
0000
0000
0000
0000
,  // measure 2
0000
0000
0000
0000
,  // measure 3
0000
0000
0000
0000
,  // measure 4
0000
0000
0000
0000
,  // measure 5
0000
0000
0000
0000
,  // measure 6
1001
0000
0000
0000
,  // measure 7
0000
0000
0000
0000
,  // measure 8
0000
0000
0000
0010
,  // measure 9
0000
0000
0000
1001
,  // measure 10
0000
0000
0000
0100
,  // measure 11
0000
0000
0000
0110
,  // measure 12
0000
0000
0000
0100
,  // measure 13
0000
0000
0000
1001
,  // measure 14
0000
0000
0000
0010
,  // measure 15
0000
0000
0110
0000
,  // measure 16
1000
1000
1000
1000
,  // measure 17
0100
0100
0100
0000
,  // measure 18
0010
0010
0010
0000
,  // measure 19
0100
0100
0100
0000
,  // measure 20
0001
0001
0001
0001
,  // measure 21
0100
0100
0100
0000
,  // measure 22
0010
0010
0010
0000
,  // measure 23
0100
0100
0100
0000
,  // measure 24
1001
0000
0000
0000
,  // measure 25
0100
0000
0000
0000
,  // measure 26
0100
0000
0000
0000
,  // measure 27
0100
0000
0000
0000
,  // measure 28
0010
0000
0000
0000
,  // measure 29
1000
0000
0000
0000
,  // measure 30
0001
0000
0000
0000
,  // measure 31
0000
0000
0000
0000
,  // measure 32
0100
0000
0000
0000
,  // measure 33
0010
0000
0000
0000
,  // measure 34
0100
0000
0000
0000
,  // measure 35
0010
0000
0000
0000
,  // measure 36
0001
0000
0000
0000
,  // measure 37
1000
0000
0000
0000
,  // measure 38
0100
0000
0000
0000
,  // measure 39
0000
0000
0000
0000
,  // measure 40
0100
0000
0000
0000
,  // measure 41
1000
0000
0000
0000
,  // measure 42
1000
0000
0000
0000
,  // measure 43
0001
0000
0000
0000
,  // measure 44
0001
0000
0000
0000
,  // measure 45
1000
0000
0000
0000
,  // measure 46
1000
0000
0000
0000
,  // measure 47
0001
0000
0000
0000
,  // measure 48
0001
0000
0000
0000
,  // measure 49
0000
0000
1000
0000
,  // measure 50
0001
0000
1000
0000
,  // measure 51
0010
0000
0010
0000
,  // measure 52
0100
0000
0100
0000
,  // measure 53
0001
0000
1000
0000
,  // measure 54
0001
0000
1000
0000
,  // measure 55
0010
0000
0010
0000
,  // measure 56
0010
0000
0000
0000
,  // measure 57
1000
0000
0001
0000
,  // measure 58
1000
0000
0001
0000
,  // measure 59
0010
0000
0010
0000
,  // measure 60
0100
0000
0100
0000
,  // measure 61
1000
0000
0001
0000
,  // measure 62
1000
0000
0001
0000
,  // measure 63
0010
0000
0100
0000
,  // measure 64
0010
0000
0100
0000
,  // measure 65
1001
0000
0000
0000
,  // measure 66
0100
0000
0000
0000
,  // measure 67
0010
0000
0000
0000
,  // measure 68
0001
0000
0000
0000
,  // measure 69
0100
0000
0000
0000
,  // measure 70
0010
0000
0000
0000
,  // measure 71
1000
0000
0000
0000
,  // measure 72
0001
0000
0000
0000
,  // measure 73
0100
0000
0000
0000
;

//---------------dance-single - ----------------
#NOTEDATA:;
#CHARTNAME:Difficult;
#STEPSTYPE:dance-single;
#DESCRIPTION:;
#CHARTSTYLE:;
#DIFFICULTY:Medium;
#METER:7;
#RADARVALUES:0.364505,0.443810,0.216640,0.176521,0.192568,318.000000,291.000000,27.000000,22.000000,0.000000,0.000000,0.000000,0.000000,0.000000,0.364505,0.443810,0.216640,0.176521,0.192568,318.000000,291.000000,27.000000,22.000000,0.000000,0.000000,0.000000,0.000000,0.000000;
#CREDIT:Riakodoadm;
#NOTES:
// measure 0
0000
0000
0000
0000
,  // measure 1
0000
0000
0000
0000
,  // measure 2
0000
0000
0000
0000
0000
0000
0000
0000
1000
0002
0000
0203
,  // measure 3
0000
0000
0000
0000
0000
0000
0000
0000
0320
0000
0000
2030
,  // measure 4
0000
0000
3000
0000
,  // measure 5
0000
0000
0002
0000
,  // measure 6
1003
0000
0000
1000
0000
0000
1000
0000
0000
0010
0000
1000
,  // measure 7
0001
0000
0000
0001
0000
0000
0001
0000
0000
0010
0000
0001
,  // measure 8
1000
0010
1000
0110
,  // measure 9
0001
0010
0001
0110
,  // measure 10
0010
0000
0010
0001
0000
0000
1000
0000
0000
0101
0000
0000
,  // measure 11
0010
0000
0010
1000
0000
0000
0001
0000
0000
1100
0000
0000
,  // measure 12
1000
0100
1000
0110
,  // measure 13
0001
0100
0001
0110
,  // measure 14
1000
0100
0001
1001
,  // measure 15
0001
0010
1000
1001
,  // measure 16
1100
0101
1100
0101
,  // measure 17
0100
0000
0000
1000
0000
0000
0010
0000
0100
0001
0000
0100
,  // measure 18
0001
0000
0000
0010
0000
0000
0100
0000
1000
0001
0000
1000
,  // measure 19
0010
0100
0010
1000
,  // measure 20
0011
1010
0011
1010
,  // measure 21
0010
0000
0000
0001
0000
0000
0010
0000
0100
1000
0000
0100
,  // measure 22
1000
0000
0000
0010
0000
0000
0100
0000
0001
1000
0000
0001
,  // measure 23
0010
0100
0010
0001
,  // measure 24
2000
0000
3200
0000
,  // measure 25
0320
0000
0032
0000
,  // measure 26
0203
0000
0320
0000
,  // measure 27
2030
0000
3002
0000
,  // measure 28
0103
0000
0000
0000
0000
0000
0000
0000
0001
2000
0000
3200
,  // measure 29
0000
0000
0000
0000
0000
0000
0000
0000
0320
0000
0000
0032
,  // measure 30
0000
0000
0003
0000
,  // measure 31
0000
0000
0000
0000
,  // measure 32
1000
1000
0100
0100
,  // measure 33
0010
0010
0001
0001
,  // measure 34
0010
0010
0100
0100
,  // measure 35
1000
1000
0001
0001
,  // measure 36
0100
0100
1000
1000
,  // measure 37
0010
0010
0001
0001
,  // measure 38
0010
0010
1000
1000
,  // measure 39
0100
0100
0001
0001
,  // measure 40
0200
0000
0000
0300
,  // measure 41
1000
0000
0000
1000
0000
0000
1000
0000
1000
0001
0000
0000
,  // measure 42
0100
0000
0000
0100
0000
0000
0010
0000
0010
0100
0000
0000
,  // measure 43
0001
0000
0000
0010
0000
0000
0100
0000
0100
1000
0000
0000
,  // measure 44
0010
0000
0000
0100
0000
0000
0001
0000
0001
1000
0000
0000
,  // measure 45
0001
0000
0000
0001
0000
0000
0001
0000
0001
1000
0000
0000
,  // measure 46
0100
0000
0000
0100
0000
0000
0010
0000
0010
0100
0000
0000
,  // measure 47
1000
0000
0000
0010
0000
0000
0100
0000
0100
0001
0000
0000
,  // measure 48
0010
0000
0000
0100
0000
0000
1000
0000
1000
0001
0000
0000
,  // measure 49
1000
1010
0001
0101
,  // measure 50
0100
0000
0000
0100
0000
0001
1000
0000
0001
1000
0000
0000
,  // measure 51
0010
1000
0100
0001
,  // measure 52
0010
0000
0000
0010
0000
0100
0010
0000
0100
0010
0000
0000
,  // measure 53
1001
0000
0000
0110
0000
0000
1000
0000
1000
0001
0000
0000
,  // measure 54
0010
0000
0000
0010
0000
0001
0100
0000
0010
1000
0000
0000
,  // measure 55
0100
0001
0010
1000
,  // measure 56
1100
0101
0011
1010
,  // measure 57
0001
0011
1000
1100
,  // measure 58
0100
0000
0000
0100
0000
1000
0001
0000
1000
0001
0000
0001
,  // measure 59
0010
0001
0100
1000
,  // measure 60
0010
0000
0000
0010
0000
0100
0010
0000
0100
0010
0000
0000
,  // measure 61
1000
0001
1000
0001
0000
0000
0001
0000
0001
1000
0000
0000
,  // measure 62
0010
0000
0000
0010
0000
1000
0100
0000
0010
0001
0000
0001
,  // measure 63
0100
1000
0010
0001
,  // measure 64
0100
0000
0000
0100
0000
0001
0100
0000
0010
1000
0000
0000
,  // measure 65
2001
0010
0001
0010
,  // measure 66
0001
0100
0001
0100
,  // measure 67
3002
0010
1000
0010
,  // measure 68
1000
0100
1000
0103
,  // measure 69
0001
0001
0100
0100
,  // measure 70
0010
0010
1000
1000
,  // measure 71
0010
0010
0100
0100
,  // measure 72
0002
0000
0000
0000
,  // measure 73
2000
0000
0000
3003
;

//---------------dance-single - ----------------
#NOTEDATA:;
#CHARTNAME:Expert;
#STEPSTYPE:dance-single;
#DESCRIPTION:;
#CHARTSTYLE:;
#DIFFICULTY:Hard;
#METER:11;
#RADARVALUES:0.461935,0.532572,0.096284,0.176521,0.653930,403.000000,391.000000,12.000000,22.000000,0.000000,0.000000,0.000000,0.000000,0.000000,0.461935,0.532572,0.096284,0.176521,0.653930,403.000000,391.000000,12.000000,22.000000,0.000000,0.000000,0.000000,0.000000,0.000000;
#CREDIT:Riakodoadm;
#NOTES:
// measure 0
0000
0000
0000
0000
,  // measure 1
0000
0000
0000
0000
,  // measure 2
0000
0000
0000
0000
0000
0000
0000
0000
1000
0002
0000
0200
,  // measure 3
0000
0000
0000
0000
0000
0000
0000
0300
0020
0000
0030
2000
,  // measure 4
0000
0000
0000
3003
,  // measure 5
0000
0000
0000
0100
0000
0100
0010
0000
0000
2000
0000
3001
,  // measure 6
1000
0000
0000
0110
0000
0000
1001
0000
0000
1000
0010
0100
,  // measure 7
0001
0000
0000
0110
0000
0000
1001
0000
0000
0001
0000
0001
,  // measure 8
0100
0000
0000
0010
0000
1000
0100
0000
0010
0001
0000
1000
,  // measure 9
0010
0000
0100
0001
0000
1000
0100
0000
0010
0001
0000
0000
,  // measure 10
1000
0000
1000
0100
0000
0100
0001
0000
0100
0010
0000
0000
,  // measure 11
0001
0000
0001
0100
0000
0010
1000
0000
0000
0010
0000
0000
,  // measure 12
1000
0000
0100
0010
0000
0001
0010
0000
0100
1000
0000
0000
,  // measure 13
0001
0000
0100
0010
0000
1000
0010
0000
0100
0001
0000
0000
,  // measure 14
0010
0000
0100
1000
0000
0100
0010
0000
0001
0100
0000
0000
,  // measure 15
0010
0000
0100
0001
0000
0100
0010
0000
1000
0001
0100
0010
,  // measure 16
1000
0000
0100
0001
0000
0100
1000
0000
0100
0001
0000
0100
,  // measure 17
0010
0000
0010
0001
0000
0001
1000
0000
0000
1001
0000
0000
,  // measure 18
1000
0000
1000
0010
0000
0010
0100
0000
0000
0110
0000
0000
,  // measure 19
0100
0000
0100
0001
0000
0001
0010
0000
0000
0011
0000
0000
,  // measure 20
0001
0000
0100
1000
0000
0100
0001
0000
0100
1000
0000
0100
,  // measure 21
0010
0000
0010
1000
0000
1000
0001
0000
0000
1001
0000
0000
,  // measure 22
0001
0000
0001
0010
0000
0010
0100
0000
0000
0110
0000
0000
,  // measure 23
0100
0000
0100
1000
0000
1000
0010
0000
0000
1010
0000
0000
,  // measure 24
0001
0000
0000
0100
0000
0000
0010
0000
0010
0000
0000
0100
,  // measure 25
0001
0000
0000
1000
0000
0000
0001
0000
0100
0001
0000
0001
,  // measure 26
1000
0000
1000
0100
0000
0100
0010
0000
0010
0001
0000
0001
,  // measure 27
0000
0000
1000
0001
0000
0100
0000
0000
0010
1000
0000
1000
,  // measure 28
0100
0000
0000
0000
0000
0000
0000
0000
0010
2000
0000
0000
,  // measure 29
3200
0000
0000
0000
0000
0000
0000
0000
0001
0000
0000
2000
,  // measure 30
0000
0000
3300
0000
,  // measure 31
0000
0000
0000
0000
,  // measure 32
1000
0000
0000
0100
0000
0000
0010
0000
0010
0000
0000
0100
,  // measure 33
1000
0000
0000
0001
0000
0000
1000
0000
0000
0100
0000
0100
,  // measure 34
1000
0000
1000
0001
0000
0000
0100
0000
0100
0001
0000
0010
,  // measure 35
0000
0000
0100
1000
0000
0010
0000
0000
0001
0010
0000
0010
,  // measure 36
1000
0000
0000
0100
0000
0000
0010
0000
0001
2000
0000
0200
,  // measure 37
0000
0000
0000
0000
0000
0000
0000
0300
0020
0000
0030
0002
,  // measure 38
0000
0000
0000
3003
,  // measure 39
0000
0000
0000
0010
0000
0010
0100
0000
0000
0002
0000
2000
,  // measure 40
0003
0000
0002
0000
0000
0000
0000
0000
0000
3003
0000
0000
,  // measure 41
1000
0000
0000
1000
0000
0000
1000
0000
1000
0001
0000
0100
,  // measure 42
0001
0000
0000
0001
0000
0100
0001
0000
0001
1000
0000
0100
,  // measure 43
1000
0000
0000
0010
0000
0000
0100
0000
0100
0001
0000
0001
,  // measure 44
0010
0000
0010
0100
0000
0100
1000
0000
1000
0001
0000
0100
,  // measure 45
0001
0000
0000
0001
0000
0000
0001
0000
0001
1000
0000
0000
,  // measure 46
1000
0000
0000
1000
0000
0100
1000
0000
1000
0001
0000
0100
,  // measure 47
0001
0000
0000
0010
0000
0010
0100
0000
0100
1000
0000
1000
,  // measure 48
0010
0000
0010
0100
0000
0100
0001
0000
0001
1000
0000
0000
,  // measure 49
0010
0000
0100
0010
0000
0000
1000
0000
1000
0010
0000
0000
,  // measure 50
1000
0000
0000
0100
0000
0001
0100
0000
1000
0100
0000
1000
,  // measure 51
0010
0000
0000
1000
0000
0000
0001
0000
0001
1000
0000
1000
,  // measure 52
0100
0000
0000
0001
0000
0100
0010
0000
0001
1000
0000
0000
,  // measure 53
0100
0010
0100
0010
0000
0000
0001
0000
0001
0010
0000
0000
,  // measure 54
0001
0000
0000
0100
0000
1000
0100
0000
0001
0100
0000
0001
,  // measure 55
0010
0000
0000
0001
0000
0001
1000
0000
1000
0001
0000
0001
,  // measure 56
0100
1100
1000
1010
,  // measure 57
0010
0000
0100
0010
0000
0000
0001
0000
0001
0100
0000
0000
,  // measure 58
0010
0000
0000
1000
0000
0001
0010
0000
1000
0010
0000
0100
,  // measure 59
0010
0000
0000
0001
0000
0000
0100
0000
0100
1000
0000
0100
,  // measure 60
0001
0000
0000
0010
0000
0010
1000
0000
0010
0001
0000
0000
,  // measure 61
0100
0010
0100
0010
0000
0000
1000
0000
1000
0100
0000
0000
,  // measure 62
0010
0000
0000
0001
0000
1000
0010
0000
0001
0010
0000
0100
,  // measure 63
0010
0000
0000
1000
0000
0000
0100
0000
0100
0001
0000
0100
,  // measure 64
1000
0000
0000
0010
0000
0010
0001
0000
0010
1000
0000
0000
,  // measure 65
0001
0000
0001
0010
0000
0000
0100
0000
0100
1000
0000
0000
,  // measure 66
0010
0000
0010
1000
0000
0000
0001
0000
0001
0100
0000
0001
,  // measure 67
0010
0000
0010
0001
0000
0000
0001
0000
0001
1000
0000
0010
,  // measure 68
0000
0000
1000
0100
0000
0001
0000
0000
0001
0100
0000
0100
,  // measure 69
1000
0000
0000
0000
0000
0000
0010
0000
1000
0002
0000
0200
,  // measure 70
0000
0000
0000
0000
0000
0000
0000
0300
0020
0000
0030
2000
,  // measure 71
0000
0000
0000
3003
,  // measure 72
0000
0000
0000
0010
0000
0010
0100
0000
0000
2000
0000
0002
,  // measure 73
3000
0000
2000
0000
0000
0000
0000
0000
0000
3003
0000
0000
;

//---------------dance-double - ----------------
#NOTEDATA:;
#CHARTNAME:Expert;
#STEPSTYPE:dance-double;
#DESCRIPTION:;
#CHARTSTYLE:;
#DIFFICULTY:Hard;
#METER:11;
#RADARVALUES:0.471105,0.502985,0.152450,0.120355,0.629859,411.000000,392.000000,19.000000,15.000000,0.000000,0.000000,0.000000,0.000000,0.000000,0.471105,0.502985,0.152450,0.120355,0.629859,411.000000,392.000000,19.000000,15.000000,0.000000,0.000000,0.000000,0.000000,0.000000;
#CREDIT:Riakodoadm;
#NOTES:
00000000
00000000
00000000
00000000
,
00000000
00000000
00000000
00000000
,
00000000
00000000
00000000
00000000
00000000
00000000
00000000
00000000
01000000
00100000
00000000
00020000
,
00000000
00000000
00000000
00000000
00000000
00000000
00000000
00000000
00100000
00000000
00000000
20030000
,
00000000
00000000
30000000
00000000
,
00000000
00000000
00000000
01000000
00000000
01000000
10000000
00000000
00000000
00010000
00000000
01000000
,
00001000
00000000
00000000
00011000
00000000
00000000
00011000
00000000
00000000
00001000
00000100
00000010
,
00010000
00000000
00000000
00011000
00000000
00000000
00011000
00000000
00000000
00001000
01000000
00100000
,
01000000
00000000
00000000
00010000
00000000
00010000
00100000
00000000
00100000
01000000
00000000
01000000
,
10000000
00000000
01000000
00010000
00000000
01000000
10000000
00000000
00000000
10010000
00000000
00000000
,
00010000
00000000
00010000
00100000
00000000
00100000
00001000
00000000
00001000
00010000
00000000
00000000
,
00000100
00000000
00000100
00000010
00000000
00000001
00000100
00000000
00000000
00000101
00000000
00000000
,
00000001
00000000
00000010
00000100
00000000
00000010
00000001
00000000
00000100
00000010
00000000
00010000
,
00001000
00000000
00010000
00000010
00000000
00010000
00001000
00000000
01000000
00010000
00000000
10000000
,
00010000
00000000
00100000
01000000
00000000
00100000
00010000
00000000
01000000
00100000
00000000
10000000
,
01000000
00000000
00100000
00001000
00000000
00010000
00000100
00000000
00000010
00000001
00000000
00000000
,
00010010
00001001
00010010
00001001
,
00000001
00000000
00000001
00000100
00000000
00000100
00001000
00000000
00000000
00001000
00000000
00000000
,
00010000
00000000
00010000
01000000
00000000
01000000
10000000
00000000
00000000
00100000
00000000
00010000
,
00001000
00000000
00001000
00010000
00000000
00010000
00100000
00000000
01000000
00010000
00000000
00000000
,
00101000
10010000
00101000
10010000
,
10000000
00000000
10000000
00100000
00000000
00100000
00010000
00000000
00000000
00010000
00000000
00000000
,
00001000
00000000
00001000
00000010
00000000
00000010
00000001
00000000
00000000
00000010
00000000
00000010
,
00000100
00000000
00000100
00010000
00000000
00010000
00001000
00000000
00000000
00000100
00000000
00000000
,
00001001
00000000
00000000
00000001
00000000
00000000
00000010
00000000
00000010
00000000
00000000
00000100
,
00001000
00000000
00000000
00000010
00000000
00000000
00000100
00000000
00000001
00000010
00000000
00000010
,
00001000
00000000
00001000
00000010
00000000
00000000
00000100
00000000
00001000
00000010
00000000
00000100
,
00000000
00000000
00000001
00000010
00000000
00000100
00000000
00000000
00001000
00000000
00000000
00000001
,
00000100
00000000
00000000
00000100
00000000
00000000
00000010
00000000
00000100
00001000
00000000
00020000
,
00000000
00000000
00000000
00000000
00000000
00000000
00000000
00000000
00001000
00000000
00000000
00002000
,
00000000
00000000
00000000
00033000
,
00010000
00000000
00010000
00000000
,
00001000
00000000
00000000
00001000
00000000
00000000
00010000
00000000
01000000
00100000
00000000
00010000
,
10000000
00000000
00000000
00100000
00000000
00000000
01000000
00000000
00000000
00100000
00000000
00010000
,
00100000
00000000
10000000
00100000
00000000
00000000
01000000
00000000
00100000
10000000
00000000
01000000
,
00000000
00000000
00100000
00010000
00000000
01000000
00000000
00000000
10000000
01000000
00000000
00010000
,
01000000
00000000
00000000
00100000
00000000
00000000
10000000
00000000
01000000
00100000
00000000
01000000
,
00020000
00000000
00000000
00001000
00000000
00000000
00001000
00000000
00031000
00000100
00000000
00000100
,
00000020
00000001
00001000
00000001
,
00000130
00000000
00000000
00000100
00000000
00000100
00000010
00000000
00000000
00020000
00000000
00002000
,
00000000
00000000
00000000
00033000
,
00010000
00000000
00000000
00010000
00000000
00000000
00010000
00000000
00010000
01000000
00000000
01000000
,
10000000
00000000
00000000
10000000
00000000
00100000
01000000
00000000
01000000
00001000
00000000
00001000
,
00010000
00000000
00000000
00100000
00000000
00000000
00010000
00000000
00010000
00001000
00000000
00001000
,
00000010
00000000
00000010
00000100
00000000
00000100
00000010
00000000
00000001
00001000
00000000
00001000
,
00000010
00000000
00000000
00000010
00000000
00000000
00000010
00000000
00000100
00000001
00000000
00000000
,
00001000
00000000
00000000
00001000
00000000
00001000
00000010
00000000
00000010
00000100
00000000
00000100
,
00001000
00000000
00000000
00010000
00000000
01000000
00010000
00000000
00010000
00001000
00000000
00001000
,
00000100
00000000
00000100
00000010
00000000
00000010
00010000
00000000
00010000
00001000
00000000
00001000
,
00100000
00000000
00000000
00010000
00000000
00000000
01000000
00000000
01000000
00100000
00000000
00000000
,
10000000
00000000
00000000
01000000
00000000
01000000
00010000
00000000
00010000
00001000
00000000
00001000
,
00010000
00000000
00000000
00100000
00000000
00000000
00010000
00000000
00010000
00001000
00000000
00001000
,
00000010
00000000
00000000
00000001
00000000
00000001
00000100
00000000
00000100
00000010
00000000
00000000
,
00000010
00010000
00001000
01000000
00000000
00000000
10000000
00000000
01000000
00010000
00000000
00000000
,
00100000
00000000
00000000
00001000
00000000
00010000
00000100
00000000
00001000
00000010
00000000
00010000
,
00001000
00000000
00000000
01000000
00000000
01000000
00100000
00000000
00100000
00010000
00000000
00010000
,
00001000
00001100
00000101
00000011
,
00000010
00000000
00000000
00000001
00000000
00000000
00000100
00000000
00000100
00001000
00000000
00000000
,
00000100
00000000
00000000
00000001
00000000
00000010
00001000
00000000
00001000
00010000
00000000
00000100
,
00010000
00000000
00000000
01000000
00000000
00000000
00100000
00000000
00100000
00001000
00000000
00001000
,
00010000
00000000
00000000
01000000
00000000
01000000
10000000
00000000
10000000
00010000
00000000
00000000
,
00100000
00001000
00010000
00000100
00000000
00000000
00001000
00000000
00000100
00000001
00000000
00000000
,
00001000
00000000
00000000
00000010
00000000
00000010
00000001
00000000
00000001
00000100
00000000
00000100
,
00001000
00000000
00000000
00010000
00000000
01000000
00010000
00000000
00010000
00001000
00000000
00001000
,
00000100
00000000
00000100
00000010
00000000
00000010
00010000
00000000
00010000
00001000
00000000
00000000
,
00022000
00000000
00000000
00000000
00000000
00000000
00000000
00000000
00000000
00033000
00000000
00000000
00010000
00000000
00000000
00000000
01000000
00000000
10000000
00000000
00000000
00000000
00010000
00000000
,
00000000
00000000
00000000
00000000
00000000
00000000
00000000
00000000
00000000
01000000
00000000
01000000
,
00100000
00000000
00100000
10000000
00000000
00000000
01000000
00000000
00010000
00001000
00000000
00000100
,
00000000
00000000
00001000
00010000
00000000
01000000
00000000
00000000
00010000
00001000
00000000
00100000
,
00000000
00000000
00000000
00000000
00000000
00000000
00000000
00000000
00001000
00010000
00000000
00010000
,
00000200
00000000
00000000
00000000
00000000
00000000
00000000
00000000
00000320
00000000
00000000
00000032
,
00000000
00000000
00000000
00000000
00000000
00000000
00000000
00000003
00000000
00000000
00000000
00000000
,
00000000
00000000
00000000
00000100
00000000
00000100
00000010
00000000
00000000
00000100
00000000
00002000
,
00000000
00000000
00020000
00000000
00000000
00000000
00000000
00000000
00000000
00033000
00000000
00000000
;

//---------------dance-double - ----------------
#NOTEDATA:;
#CHARTNAME:Challenge;
#STEPSTYPE:dance-double;
#DESCRIPTION:;
#CHARTSTYLE:;
#DIFFICULTY:Challenge;
#METER:13;
#RADARVALUES:0.604069,0.769271,0.529563,0.216640,0.834463,527.000000,461.000000,66.000000,27.000000,23.000000,0.000000,8.000000,0.000000,0.000000,0.604069,0.769271,0.529563,0.216640,0.834463,527.000000,461.000000,66.000000,27.000000,23.000000,0.000000,8.000000,0.000000,0.000000;
#CREDIT:Riakodoadm;
#NOTES:
00000000
00000000
00000000
00000000
,
00000000
00000000
00000000
00000000
,
00000000
00000000
00000000
00000000
00000000
00000000
00000000
00000000
10000000
00010000
00000000
00200000
,
00000000
00000000
00000000
00000000
00000000
00000000
00000000
00000000
00300020
00000000
00000030
00020000
,
00000000
00000000
00000000
00000000
00000000
00000000
00000000
00030000
00000000
00000000
00000000
00000000
,
00000000
00000000
00000000
00000100
00000000
00001000
00000010
00000000
00000000
00000100
00000000
00000001
,
00000010
00000000
00000000
00001100
00000000
00000000
00000101
00000000
00000000
00000001
00000100
00000010
,
00010000
00000000
00000000
00101000
00000000
00000000
10100000
00000000
00000000
10000000
00000000
10000000
,
00100000
00000000
00000000
01000000
00000000
01000000
10000000
00000000
01000000
00040000
00000000
00130000
,
01000000
00000000
10000000
01000000
00000000
00100000
00010000
00000000
01000000
00004000
00000000
00000000
,
00013000
00000000
00010000
01000000
00000000
00100000
00001000
00000000
00001000
04000000
00000000
00000000
,
03001000
00000000
00001000
00000100
00000000
00000110
00000000
00000000
00000000
00000004
00000000
00000000
,
00001003
00000000
00000010
00000001
00000000
00000010
00000100
00000000
00000001
00000040
00000000
00001030
,
00010000
00000000
00000010
00001000
00000000
00000100
00010000
00000000
00001000
00400000
00000000
00310000
,
01000000
00000000
00100000
00010000
00000000
00001000
00010000
00000000
01000000
00400000
00000000
00310000
,
01000000
00000000
10000000
01000000
00000000
00100000
00040000
00000000
00130000
10000000
01000000
00100000
,
00010000
00000000
00010000
10000000
00000000
10000000
01000000
00000000
01000000
00100000
00001000
00010000
,
00001000
00000000
00001000
00100000
00000000
00100000
00010000
00000000
00010000
01000000
00001000
00010000
,
00000100
00000000
00000100
00010000
00000000
00010000
00000010
00000000
00000010
00001000
00000100
00001000
,
00000010
00000000
00000010
00000001
00000000
00000001
00001000
00000000
00000100
00000001
00000000
00000001
,
00001000
00000000
00001000
00000001
00000000
00000001
00000100
00000000
00000100
00000010
00010000
00001000
,
00010000
00000000
00010000
00000010
00000000
00000010
00001000
00000000
00001000
00000100
00010000
00001000
,
01000000
00000000
01000000
00001000
00000000
00001000
00100000
00000000
00100000
00010000
01000000
00010000
,
00100000
00000000
00100000
10000000
00000000
10000000
00010000
00000000
00010000
01000000
00000000
10000000
,
02000000
00000000
00100000
00100000
00000000
10000000
10000000
00000000
00010000
00010000
00000000
00100000
,
03200000
00000000
10000000
10000000
00000000
01000000
01000000
00000000
00010000
00010000
00000000
00001000
,
00302000
00000000
00100000
00100000
00000000
01000000
01000000
00000000
00010000
00010000
00000000
00000100
,
00003200
00000000
00001000
00001000
00000000
00000010
00000010
00000000
00000001
00000001
00000000
00000010
,
00000310
00000000
00000010
00001000
00000000
00001000
00000001
00000000
00000001
00000010
00000000
00000010
,
MMMMMM0M
00000000
00000000
00000000
00000000
00000000
00000000
00000000
MMMMMMMM
00000000
00000000
MMMMMMMM
,
00000000
00001000
00000000
00001000
,
00000000
00000001
00000000
00000001
,
00000200
00000000
00001000
00001000
00000000
00000010
00000010
00000000
00000001
00000001
00000000
00000010
,
00000320
00000000
00000001
00000001
00000000
00000100
00000100
00000000
00001000
00001000
00000000
00010000
,
00020030
00000000
00000010
00000010
00000000
00000100
00000100
00000000
00001000
00001000
00000000
00100000
,
00230000
00000000
00010000
00010000
00000000
01000000
01000000
00000000
10000000
10000000
00000000
01000000
,
01300000
00000000
01000000
00100000
00000000
10000000
01000000
00000000
00100000
00010000
00000000
01000000
,
00002000
00000000
00100000
00100000
00000000
00010000
00013000
00000000
00001000
00010000
00000000
00001000
,
00020000
00000000
00100000
00100000
00000000
00001000
00031000
00000000
00010000
01000000
00000000
01000000
,
00010000
00000000
00010000
00001000
00000000
00001000
00000100
00000000
00000000
00000001
00000000
00002000
,
00000000
00000000
00000002
00000000
00000000
00000000
00000000
00000000
00000000
00000000
00003003
00000000
,
00000001
00000000
00000000
00000001
00000000
00000000
00000001
00000000
00000001
00000100
00000000
00000100
,
00001000
00000000
00000000
00001000
00000000
00001000
00010000
00000000
00010000
00000100
00000000
00000100
,
00001000
00000000
00000000
00010000
00000000
00000000
00100000
00000000
00100000
01000000
00000000
01000000
,
10000000
00000000
00100000
01000000
00000000
01000000
10000000
00000000
01000000
00010000
00000000
00010000
,
10000000
00000000
00000000
10000000
00000000
00000000
10000000
00000000
10000000
01000000
00000000
00000000
,
00100000
00000000
00000000
00100000
00000000
00010000
01000000
00000000
01000000
00100000
00000000
00100000
,
00010000
00000000
00000000
00001000
00000000
00001000
00100000
00000000
00100000
00010000
00000000
00010000
,
01000000
00000000
01000000
00001000
00000000
00001000
00010000
00000000
00010000
00000100
00000000
00000100
,
00001000
00000000
00001100
00001100
00000000
00000000
00010100
00000000
00001000
01001000
00000000
00000000
,
01100000
00000000
00000000
10010000
00000000
10000000
11000000
00000000
00010000
01010000
00000000
00100000
,
00101000
00000000
00000000
00011000
00000000
00000000
00001100
00000000
00000100
00000101
00000000
00000001
,
00000011
00000000
00000000
00001001
00000000
00010000
00010010
00000000
00000010
00000110
00000000
00000000
,
00001100
00000011
00001100
00000011
00000000
00000000
00000110
00000000
00000010
00010010
00000000
00000000
,
00010100
00000000
00000000
01001000
00000000
01000000
01010000
00000000
00010000
10010000
00000000
10000000
,
11000000
00000000
00000000
00110000
00000000
00001000
00101000
00000000
00010000
00010010
00000000
00000010
,
00000200
00002300
00023000
02030000
,
03100000
00000000
01100000
01100000
00000000
00000000
00110000
00000000
00001000
00011000
00000000
00000000
,
00001010
00000000
00000000
00000011
00000000
00000001
00000101
00000000
00001000
00001100
00000000
00000010
,
00010010
00000000
00000000
00011000
00000000
00000000
00110000
00000000
01000000
11000000
00000000
10000000
,
10100000
00000000
00000000
10010000
00000000
00001000
00101000
00000000
00100000
01100000
00000000
00000000
,
01010000
10100000
01010000
10100000
00000000
00000000
01100000
00000000
00100000
00101000
00000000
00000000
,
00010100
00000000
00000000
00001010
00000000
00000001
00000101
00000000
00001000
00001001
00000000
00000010
,
00010010
00000000
00000000
00011000
00000000
00010000
00110000
00000000
00100000
01100000
00000000
01000000
,
01010000
00000000
00010000
10000000
00000000
01000000
00010000
00000000
00001000
00000100
00000000
00000001
,
00002000
00000000
00000000
00000000
00000000
00000000
00003010
00000000
00000100
00001000
00000000
00020000
,
00000100
00000000
00000000
00000010
00000000
00000000
00000100
00000000
00030000
00010000
00000000
01000000
,
00100000
00000000
01000000
10000000
00000000
00000000
00100000
00000000
10000000
01000000
00000000
00010000
,
00000000
00000000
00001000
00000100
00000000
00000001
00000000
00000000
00000100
00001000
00000000
00010000
,
00002000
00000000
00000000
01000000
00000000
00000000
00103000
00000000
00001000
00000100
00000000
00000020
,
00001000
00000000
00000000
00000100
00000000
00000000
00001000
00000000
00200030
00000000
00000000
00302000
,
00010000
01000000
00100000
00010000
,
00003100
00000000
00000000
00000100
00000000
00001000
00010000
00000000
00000000
01000000
00000000
20000000
,
00000000
00000000
00020000
00000000
00000000
00000000
00000000
00000000
00000000
30030000
00000000
00000000
;

//---------------ez2-real - ----------------
#NOTEDATA:;
#CHARTNAME:;
#STEPSTYPE:ez2-real;
#DESCRIPTION:;
#CHARTSTYLE:;
#DIFFICULTY:Medium;
#METER:1;
#RADARVALUES:0.112332,0.598166,0.264782,0.016047,0.044130,98.000000,58.000000,33.000000,2.000000,0.000000,7.000000,0.000000,0.000000,0.000000,0.112332,0.598166,0.264782,0.016047,0.044130,98.000000,58.000000,33.000000,2.000000,0.000000,7.000000,0.000000,0.000000,0.000000;
#CREDIT:;
#NOTES:
0000000
0000000
0000000
0000000
,
0000000
0000000
0000000
0000000
,
0000000
0000000
0000000
0000000
,
0000000
0000000
0000000
0000000
,
0000000
0000000
0000000
0000000
,
0000000
0000000
0000000
0000000
,
0000000
0000000
0000000
0000000
,
0000000
0000000
0000000
0000000
,
0000000
0000000
0000000
0000000
,
0000000
0000000
0000000
0000000
,
0000000
0000000
0000000
0000000
,
0000000
0000000
0000000
0000000
,
0000000
0000000
0000000
0000000
,
0000000
0000000
0000000
0000000
,
0000000
0000000
0000000
0000000
,
0000000
0000000
0000000
0000000
,
1000001
0011010
1000001
0011010
,
0000000
0000000
0000000
0000000
,
0000000
0000000
0000000
0000000
,
0000000
0000000
0000000
0000000
,
1000001
0101100
1000001
0101100
,
0000000
0000000
0000000
0000000
,
0000000
0000000
0000000
0000000
,
0000000
0000000
0000000
0000000
,
1010001
0000000
0010000
0000000
,
0010000
0000000
0000000
0000000
,
0100010
0000000
0000100
0000000
,
0010100
0000000
0010000
0000000
,
0000010
0000000
0000000
0000000
,
0020000
0000000
0000000
0030000
,
0010000
0000000
0000000
0000000
,
0000000
0000000
0000000
0000000
,
0000100
0000000
0000100
0000000
,
0000100
0000000
0000000
0000000
,
0100010
0000000
0010000
0000000
,
0010100
0000000
0000100
0000000
,
0100000
0000000
0000000
0000000
,
0000200
0000000
0000000
0000300
,
0000100
0000000
0000000
0000000
,
0000000
0000000
0100000
0000000
,
0000100
0000000
0000000
0000000
,
0000000
0000000
0000000
0000000
,
0000000
0000000
0000000
0000000
,
0000000
0000000
0000000
0000000
,
0000000
0000000
0000000
0000000
,
0000000
0000000
0000000
0000000
,
0000000
0000000
0000000
0000000
,
0000000
0000000
0000000
0000000
,
0000000
0000000
0000000
0000000
,
0000000
0000000
1000001
1000001
0000000
0000000
0010100
0000000
0000001
0001001
0000000
0000000
,
0010010
0000000
0000000
0100100
0000000
1000000
1001000
0000000
0000001
0001001
0000000
1000000
,
1000001
0000000
0000000
1010001
0000000
0000000
1000101
0000000
0000001
0001001
0000000
1000000
,
1000001
0000000
0000000
0100010
0000000
1000000
1001000
0000000
0000001
1000001
0000000
0000000
,
0010100
0100010
0010100
0100010
0000000
0000000
0000000
0000000
0000000
0000000
0000000
0000000
;

//---------------techno-single8 - ----------------
#NOTEDATA:;
#CHARTNAME:;
#STEPSTYPE:techno-single8;
#DESCRIPTION:;
#CHARTSTYLE:;
#DIFFICULTY:Hard;
#METER:1;
#RADARVALUES:0.183399,0.640892,0.256758,0.016047,0.232687,160.000000,128.000000,32.000000,2.000000,0.000000,0.000000,0.000000,0.000000,0.000000,0.183399,0.640892,0.256758,0.016047,0.232687,160.000000,128.000000,32.000000,2.000000,0.000000,0.000000,0.000000,0.000000,0.000000;
#CREDIT:;
#NOTES:
00000000
00000000
00000000
00000000
,
00000000
00000000
00000000
00000000
,
00000000
00000000
00000000
00000000
00000000
00000000
00000000
00000000
10000000
00000001
00000000
00200000
,
00000000
00000000
00000000
00000000
00000000
00000000
00000000
00000000
00010000
00000000
00000000
00000200
,
00000000
00000000
00000000
00000000
00000000
00300300
00000000
00000000
,
00000000
00000000
00000000
00010000
00000000
00000001
01000000
00000000
00000000
00010000
00000000
10000000
,
00000010
00000000
00000000
00010010
00000000
00000000
10000010
00000000
00000000
10000000
00001000
01000000
,
00000010
00000000
00000000
01010000
00000000
00000000
01000001
00000000
00000000
00000001
00000000
00000001
,
00001000
00000000
00000000
00000100
00000000
00000100
00010000
00000000
00010000
00100000
00000000
00100000
,
10000000
00000000
10000000
00001000
00000000
00001000
01000000
00000000
01000000
00000010
00000000
00000000
,
00001000
00000000
00001000
00000100
00000000
01000000
00010000
00000000
10000000
00000001
00000000
00000000
,
00100000
00000000
00100000
00001000
00000000
00001000
10000000
00000000
00000000
10000001
00000000
00000000
,
00000001
00000000
00000100
00000001
00000000
00001000
00000001
00000000
00100000
00000001
00000000
00000001
,
00100000
00000000
10000000
00100000
00000000
00010000
00100000
00000000
00000001
00100000
00000000
00100000
,
00000100
00000000
00000001
00000100
00000000
00010000
00000100
00000000
10000000
00000100
00000000
01000000
,
00000100
00000000
00000100
00100000
00000000
00100000
00000010
00000000
00000010
00001000
00000001
01000000
,
00000010
00000000
00000010
00010000
00000000
00010000
00000100
00000000
00000100
00010000
00001000
00010000
,
00000100
00000000
00000100
00100000
00000000
00100000
00010000
00000000
00010000
10000000
00010000
01000000
,
00000010
00000000
00000000
00000000
,
00000000
00000000
00000000
00000000
,
00000000
00000000
00000000
00000000
,
00000000
00000000
00000000
00000000
,
00000000
00000000
00000000
00000000
,
00000000
00000000
00000000
00000000
,
00000000
00000000
00000000
00000000
,
00000000
00000000
00000000
00000000
,
00000000
00000000
00000000
00000000
,
00000000
00000000
00000000
00000000
,
00000000
00000000
00000000
00000000
,
00000000
00000000
00000000
00000000
,
00000000
00000000
00000000
00000000
,
00000000
00000000
00000000
00000000
,
00000000
00000000
00000000
00000000
,
00000000
00000000
00000000
00000000
,
00000000
00000000
00000000
00000000
,
00000000
00000000
00000000
00000000
,
00000000
00000000
00000000
00000000
,
00000000
00000000
00000000
00000000
,
00000000
00000000
00000000
00000000
,
00000000
00000000
00000000
00000000
,
00000000
00000000
00000000
00000000
,
00000000
00000000
00000000
00000000
,
00000000
00000000
00000000
00000000
,
00000000
00000000
00000000
00000000
,
00000000
00000000
00000000
00000000
,
00000000
00000000
00000000
00000000
,
00000000
00000000
00000000
00000000
,
00000000
00000000
00000000
00000000
,
00000000
00000000
00000000
00000000
,
00000000
00000000
01100000
00000110
00000000
00000000
10000100
00000000
00000001
00100001
00000000
00000000
,
01001000
00000000
00000000
00001010
00000000
00000110
01100000
00000000
01100000
00000011
00000000
00000011
,
11000000
00000000
00000000
10000100
00000000
00000000
00010010
00000000
00000011
11000000
00000000
11000000
,
00000011
00000000
00000000
00100001
00000000
01100000
00000110
00000000
00000110
01100000
00000000
00000000
,
00010010
01001000
00010010
01001000
00000000
00000000
00000000
00000000
00000000
00000000
00000000
00000000
;

//---------------dance-double - ----------------
#NOTEDATA:;
#CHARTNAME:Basic;
#STEPSTYPE:dance-double;
#DESCRIPTION:;
#CHARTSTYLE:;
#DIFFICULTY:Easy;
#METER:4;
#RADARVALUES:0.224663,0.292865,0.016047,0.120355,0.000000,196.000000,194.000000,2.000000,15.000000,0.000000,0.000000,0.000000,0.000000,0.000000,0.224663,0.292865,0.016047,0.120355,0.000000,196.000000,194.000000,2.000000,15.000000,0.000000,0.000000,0.000000,0.000000,0.000000;
#CREDIT:Riakodoadm;
#NOTES:
00000000
00000000
00000000
00000000
,
00000000
00000000
00000000
00000000
,
00000000
00000000
00000000
00000000
,
00000000
00000000
00000000
00000000
,
00000000
00000000
00000000
00000000
,
00000000
00000000
00000000
00000000
,
00000000
00000000
00000000
00000000
,
00000000
00000000
00000000
00000000
,
10000000
01000000
00100000
00010000
,
10000000
01000000
00100000
00000000
,
00001000
00010000
00001000
00010000
,
00000010
00000100
00000010
00000000
,
00000001
00000010
00000100
00001000
,
00000001
00000010
00000100
00000000
,
00000010
00000100
00000010
00000100
,
00010000
00001000
00010000
00000000
,
00001000
00010000
00001000
00010000
,
00000010
00000100
00000010
00000100
,
00000001
00000010
00000100
00000000
,
00001000
00000010
00000100
00000010
,
00010000
00001000
00010000
00001000
,
00100000
01000000
00100000
01000000
,
10000000
00100000
01000000
00000000
,
00010000
00100000
01000000
00100000
,
00002000
00000000
00010000
00000000
,
00023000
00000000
00001000
00000000
,
00032000
00000000
00100000
00000000
,
00203000
00000000
01000000
00000000
,
01300000
00000000
10000000
00000000
,
00200000
00000000
00000000
00000000
,
01300000
00000000
00000000
00000000
,
00001000
00000000
00000000
00000000
,
00020000
00000000
00001000
00000000
,
00032000
00000000
00010000
00000000
,
00023000
00000000
00000010
00000000
,
00030020
00000000
00000100
00000000
,
00000130
00000000
00000001
00000000
,
00000020
00000000
00000000
00000000
,
00000130
00000000
00000000
00000000
,
00010000
00000000
00000000
00000000
,
00001000
00000000
00000000
00000000
,
01000000
01000000
00100000
01000000
,
00010000
00010000
10000000
01000000
,
00100000
00100000
00001000
00001000
,
00010000
00010000
00000010
00000010
,
00000100
00000100
00000010
00000100
,
00000001
00000001
00001000
00000100
,
00000010
00000100
00010000
00001000
,
00010000
00000010
00010000
00001000
,
01000000
01000000
01000000
01000000
,
00100000
00100000
00010000
00010000
,
00001000
00100000
00001000
00010000
,
00001000
01000000
00001000
00010000
,
00000100
00000100
00000100
00000100
,
00000010
00000010
00000001
00000001
,
00000100
00000100
00001000
00001000
,
00010000
00000010
00000100
00000001
,
00000000
00001001
00000100
00000100
,
00000010
00000010
00001000
00001000
,
00010000
00000010
00010000
00001000
,
00010000
00000100
00010000
00001000
,
01000000
01000000
01000000
01000000
,
00100000
00100000
10000000
10000000
,
01000000
01000000
00010000
00010000
,
00001000
00001000
00000100
00000001
,
00001002
00000000
00000010
00000000
,
00000023
00000000
00000100
00000000
,
00000230
00000000
00010000
00000000
,
00020300
00000000
00001000
00000000
,
00031000
00000000
01000000
00000000
,
00200000
00000000
00000000
00000000
,
01300000
00000000
00000000
00000000
,
00001000
00000000
00000000
00000000
,
00010000
00000000
00000000
00000000
;

//---------------dance-double - ----------------
#NOTEDATA:;
#CHARTNAME:Difficult;
#STEPSTYPE:dance-double;
#DESCRIPTION:;
#CHARTSTYLE:;
#DIFFICULTY:Medium;
#METER:8;
#RADARVALUES:0.396599,0.469118,0.353042,0.328971,0.260770,346.000000,302.000000,44.000000,41.000000,0.000000,0.000000,0.000000,0.000000,0.000000,0.396599,0.469118,0.353042,0.328971,0.260770,346.000000,302.000000,44.000000,41.000000,0.000000,0.000000,0.000000,0.000000,0.000000;
#CREDIT:Riakodoadm;
#NOTES:
00000000
00000000
00000000
00000000
,
00000000
00000000
00000000
00000000
,
00000000
00000000
00000000
00000000
00000000
00000000
00000000
00000000
00000001
00000100
00000000
00000020
,
00000000
00000000
00000000
00000000
00000000
00000000
00000000
00000000
00020030
00000000
00000000
00032000
,
00000000
00000000
00000000
00000000
00000000
00000000
00000000
00000000
00003000
00000000
00000000
00000000
,
00000000
00000000
00000000
00000000
,
00000000
00000000
00000000
00000000
,
00000000
00000000
00000000
00000000
,
10000000
00000000
00100000
00000000
00010000
00000000
00022000
00033000
,
00001000
00000000
00000100
00000000
00000001
00000000
00002002
00003003
,
00001000
00000000
00000000
00000000
00000010
00000000
00010000
00000000
00000000
00000000
00000010
00000000
00001000
00000000
00000000
00000000
00000000
00000000
00002200
00000000
00000000
00003300
00000000
00000000
,
00000100
00000000
00000000
00000000
00000010
00000000
00000001
00000000
00000000
00000000
00001000
00000000
00000010
00000000
00000000
00000000
00000000
00000000
00000202
00000000
00000000
00000303
00000000
00000000
,
00000001
00000000
00000010
00000000
00001000
00000000
00022000
00033000
,
00010000
00000000
01000000
00000000
10000000
00000000
20020000
30030000
,
00010000
00000000
00000000
00000000
00100000
00000000
00001000
00000000
00000000
00000000
00100000
00000000
00010000
00000000
00000000
00000000
00000000
00000000
02020000
00000000
00000000
03030000
00000000
00000000
,
01000000
00000000
00000000
00000000
00100000
00000000
10000000
00000000
00000000
00000000
00010000
00000000
00200000
00000000
00000000
00300000
00000000
00000000
00001000
00000000
00000000
00000000
00000000
00000000
,
00101000
00010100
00101000
00010100
,
00000100
00000000
00000000
00000100
00000000
00001000
00000010
00000000
00000000
00000010
00000000
00000000
,
00000100
00000000
00000000
00000100
00000000
00000001
00000010
00000000
00000000
00000010
00000000
00000000
,
00000100
00001100
00010100
00011000
,
00010010
01001000
00010010
01001000
,
01000000
00000000
00000000
01000000
00000000
00010000
00100000
00000000
00000000
00100000
00000000
00000000
,
01000000
00000000
00000000
01000000
00000000
10000000
00100000
00000000
00000000
00100000
00000000
00000000
,
00010000
00000000
00000000
00001000
00000000
00100000
00001000
00000000
01000000
00001000
00000000
00000000
,
00020000
00000010
00000100
00000010
,
00030200
00001000
00000010
00001000
,
00000320
00000100
00000001
00000100
,
00000032
00000100
00001000
00000103
,
00000001
00000000
00000000
00000001
00000000
00000000
00000010
00000000
00000000
00000010
00000000
00000200
,
00000000
00000000
00000000
00000000
00000000
00000000
00000000
00000000
00020300
00000000
00000000
00032000
,
00000000
00003000
00000000
00000000
,
00000000
00000000
00000000
00000000
,
00002000
00100000
01000000
00100000
,
02003000
00010000
00100000
00010000
,
03200000
01000000
10000000
01000000
,
20300000
01000000
00010000
31000000
,
10000000
00000000
00000000
10000000
00000000
00000000
00100000
00000000
00000000
00100000
00000000
02000000
,
00010000
00000000
00000000
00010000
00000000
00000000
00001000
00000000
03002000
00010000
00000000
00023000
,
00001000
00031000
00000100
00000100
,
00000001
00000000
00000000
00000001
00000000
00000000
00000010
00000000
00000000
00000010
00000000
00000200
,
00000000
00000000
00020300
00000000
00000000
00000000
00000000
00000000
00000000
00000000
00000000
00000000
,
00031000
00000000
00000000
00001000
00000000
00000000
00001000
00000000
00001000
00000100
00000000
00000000
,
00000001
00000000
00000000
00000001
00000000
00000001
00000010
00000000
00000010
00000100
00000000
00000100
,
00001000
00000000
00000000
00000010
00000000
00000000
00000100
00000000
00000100
00001000
00000000
00001000
,
00010000
00000000
00000000
01000000
00000000
10000000
00100000
00000000
10000000
01000000
00000000
01000000
,
00010000
00000000
00000000
00010000
00000000
00000000
00010000
00000000
00010000
01000000
00000000
00000000
,
10000000
00000000
00000000
10000000
00000000
10000000
00100000
00000000
00100000
01000000
00000000
01000000
,
00010000
00000000
00000000
00100000
00000000
00000000
01000000
00000000
01000000
00010000
00000000
00010000
,
00001000
00000000
00000000
00000100
00000000
00000001
00000010
00000000
00000100
00001000
00000000
00001000
,
00000001
00000000
00000000
00000101
00000000
00000000
00001000
00000000
00000100
00001000
00000000
00000000
,
00000100
00000000
00000000
00000010
00000000
00000100
00001000
00000000
00000100
00010000
00000000
00000000
,
00011000
00000100
00011000
01000000
,
00011000
00110000
10100000
11000000
,
01000000
00100000
00010000
10000000
00000000
00000000
00100000
00000000
10000000
00100000
00000000
00000000
,
00010000
00000000
00000000
00001000
00000000
00000100
00001000
00000000
00010000
00001000
00000000
00000000
,
00011000
00100000
00011000
00000010
,
00000110
00001100
00011000
01010000
,
10000000
00000000
00000000
11000000
00000000
00000000
00010000
00000000
01000000
00010000
00000000
00000000
,
01000000
00000000
00000000
00100000
00000000
01000000
00010000
00000000
01000000
00001000
00000000
00000000
,
00011000
01000000
00011000
00000100
,
00011000
00001010
00000011
00000101
,
00000100
00000010
00001000
00000001
00000000
00000000
00000010
00000000
00000001
00000010
00000000
00000000
,
00001000
00000000
00000000
00010000
00000000
01000000
00010000
00000000
00001000
00010000
00000000
00000000
,
00011000
00000010
00011000
00100000
,
01100000
01010000
00011000
00001100
,
00000200
00000001
00000010
00000001
,
00000320
00001000
00010000
00001000
,
00020030
00000100
00001000
00000100
,
00032000
00100000
00010000
00100000
,
00013000
00000000
00000000
00010000
00000000
00000000
00100000
00000000
00000000
00100000
00000000
02000000
,
00000000
00000000
00000000
00000000
00000000
00000000
00000000
00000000
03020000
00000000
00000000
20030000
,
00000000
00000000
00000000
00000000
00000000
00000000
00000000
00000000
30000000
00000000
00000000
00000000
,
00000000
00000000
00000000
01000000
00000000
00010000
00001000
00000000
00000000
00000100
00000000
00000000
,
00001000
00010000
00000000
00000000
00000000
00000000
00000000
00000000
00000000
00000000
00000000
00000000
;
